#TITLE:existens;
#SUBTITLE:;
#ARTIST:猫叉Master+;
#TITLETRANSLIT:;
#SUBTITLETRANSLIT:;
#ARTISTTRANSLIT:Nekomata Master+;
#CREDIT:DMAxel;
#BANNER:existens.png;
#BACKGROUND:existens-bg.png;
#LYRICSPATH:;
#CDTITLE:Konami original.png;
#MUSIC:existens.mp3;
#OFFSET:-6.120;
#SAMPLESTART:14.687;
#SAMPLELENGTH:12.000;
#SELECTABLE:YES;
#BPMS:0.000=144.000;
#STOPS:;
#BGCHANGES:;

//---------------dance-single - ----------------
#NOTES:
     dance-single:
     :
     Easy:
     3:
     0.256,0.335,0.134,0.229,0.000: // measure 1
0000
0000
0000
0000
,  // measure 2
1001
0000
0000
0000
,  // measure 3
0110
0000
0000
0000
,  // measure 4
1001
0000
1000
0000
,  // measure 5
0001
0010
0100
1000
,  // measure 6
0000
0000
1001
0000
,  // measure 7
1000
0000
0001
0000
,  // measure 8
1000
0000
0100
0000
,  // measure 9
0010
0000
0002
0000
,  // measure 10
1000
0000
1003
0000
,  // measure 11
0010
0000
0100
0000
,  // measure 12
0001
0000
1000
0000
,  // measure 13
0001
0000
0010
0000
,  // measure 14
0100
0000
2000
0000
,  // measure 15
0001
3000
0002
0000
,  // measure 16
0100
0003
0200
0000
,  // measure 17
0010
0300
0020
0000
,  // measure 18
0230
0000
0302
0000
,  // measure 19
1000
0003
2000
0000
,  // measure 20
0001
3000
0020
0000
,  // measure 21
0100
0030
0100
0010
,  // measure 22
0100
0000
1001
0000
,  // measure 23
0001
0000
1000
0000
,  // measure 24
0100
0000
0010
0000
,  // measure 25
0001
0000
1000
0100
,  // measure 26
0010
0001
1000
0000
,  // measure 27
0010
0000
0100
0000
,  // measure 28
0010
0000
1000
0000
,  // measure 29
0001
0000
0010
0100
,  // measure 30
1000
0000
1002
0000
,  // measure 31
1003
0100
2000
0000
,  // measure 32
3001
0100
0002
0000
,  // measure 33
0103
0010
0200
0000
,  // measure 34
0320
0000
2030
0000
,  // measure 35
3010
0100
0002
0000
,  // measure 36
0103
0010
2000
0000
,  // measure 37
3001
0100
0020
0000
,  // measure 38
0130
0110
1000
0100
,  // measure 39
1000
0100
0010
0001
,  // measure 40
0010
0100
1000
0100
,  // measure 41
1000
0010
0100
0010
,  // measure 42
0100
0000
1001
0010
,  // measure 43
0100
1000
0002
0000
,  // measure 44
1000
0000
1003
0100
,  // measure 45
1000
0100
0010
0001
,  // measure 46
0010
0100
0000
0000
,  // measure 47
1001
0001
1000
0000
,  // measure 48
0010
0100
0010
0000
,  // measure 49
0100
0001
0100
0000
,  // measure 50
0010
1000
0100
0010
,  // measure 51
0001
0100
0001
0000
,  // measure 52
1000
0000
0100
0000
1000
0000
0000
0010
,  // measure 53
0000
0100
0000
0010
0000
0100
0000
0010
,  // measure 54
0000
0200
0000
0000
0000
0000
0300
0000
,  // measure 55
1001
1000
0001
0000
,  // measure 56
0010
0100
1000
0000
,  // measure 57
0010
0100
0001
0000
,  // measure 58
1000
0100
0010
0001
,  // measure 59
1000
0010
0100
0000
,  // measure 60
0010
0100
0001
0000
,  // measure 61
0010
0100
1000
0001
,  // measure 62
0100
0100
0100
0100
,  // measure 63
0220
0000
0000
0330
,  // measure 64
0001
0010
0100
1000
,  // measure 65
0001
0000
0000
0000
,  // measure 66
1000
0100
0010
0001
,  // measure 67
2000
0000
0000
3000
,  // measure 68
2002
0000
0000
3003
,  // measure 69
0220
0000
0000
0330
,  // measure 70
1001
0110
1001
0220
,  // measure 71
0000
0000
0000
0330
;

//---------------dance-single - ----------------
#NOTES:
     dance-single:
     :
     Medium:
     6:
     0.431,0.446,0.315,0.292,0.008: // measure 1
0000
0000
0000
0000
,  // measure 2
0101
0000
0000
1100
,  // measure 3
1100
0000
0000
0101
,  // measure 4
1001
0000
0110
0000
,  // measure 5
1001
0100
1001
0200
,  // measure 6
0000
0300
1000
0100
,  // measure 7
0001
0100
1000
0100
,  // measure 8
0010
0001
0010
0100
,  // measure 9
0010
0100
1100
0100
,  // measure 10
0101
1001
0001
0100
,  // measure 11
1000
0100
0001
0100
,  // measure 12
0010
1000
0100
0010
,  // measure 13
0100
0010
0101
0100
,  // measure 14
1100
0000
1001
0000
0001
0100
0001
0000
,  // measure 15
1000
0000
0001
0000
1000
0010
1000
0000
,  // measure 16
0001
0000
1000
0000
0001
0010
0001
0000
,  // measure 17
1000
0001
0110
1000
,  // measure 18
0110
0000
0001
0000
1000
0100
0010
0000
,  // measure 19
0001
0000
1000
0000
0001
0010
0100
0000
,  // measure 20
1000
0000
0001
0000
1000
0010
0100
0000
,  // measure 21
0001
1000
0110
0001
,  // measure 22
0110
1000
1002
0000
,  // measure 23
0000
1003
0100
1000
0020
0000
0000
0000
,  // measure 24
0000
0130
0000
0001
2000
0000
0000
0000
,  // measure 25
0000
3001
0010
0001
1000
0000
1100
0000
,  // measure 26
0001
0101
2001
0000
,  // measure 27
0000
3001
0010
0001
0200
0000
0000
0000
,  // measure 28
0000
0310
0000
1000
0002
0000
0000
0000
,  // measure 29
0000
1000
1003
0100
1000
0000
1100
0000
,  // measure 30
0101
0000
1002
1003
,  // measure 31
0100
0010
0100
0001
2000
0000
3001
0000
,  // measure 32
0010
0100
0010
1000
0002
0000
1003
0000
,  // measure 33
0100
0010
0100
0001
2000
0000
3200
0000
,  // measure 34
0320
0000
0130
0000
1000
0001
1000
0010
,  // measure 35
0200
0000
0310
0000
0001
1000
0001
0100
,  // measure 36
0020
0000
0130
0000
1000
0001
1000
0010
,  // measure 37
0100
0010
0000
0100
0000
0020
0000
0000
,  // measure 38
0000
0130
1002
1000
,  // measure 39
1003
0010
0100
0000
0020
0000
0100
0000
,  // measure 40
0130
0001
0010
0100
2000
0000
0010
0000
,  // measure 41
3010
0110
0002
0100
,  // measure 42
0103
0010
1002
0203
,  // measure 43
0320
2030
3001
1001
,  // measure 44
0200
0000
0000
0000
0301
0100
0001
0000
,  // measure 45
1000
0100
1000
0000
0001
0100
0010
1000
,  // measure 46
0001
0010
0100
0000
0100
0000
0000
0000
,  // measure 47
1001
0000
1001
0000
0010
1000
0010
0100
,  // measure 48
0010
0000
0100
0001
1000
0000
0010
0100
,  // measure 49
0010
0000
0100
0001
0100
0010
0100
0000
,  // measure 50
0002
0203
0320
2030
,  // measure 51
3001
0000
0001
0010
0001
1000
0001
0000
,  // measure 52
0010
0001
1000
0000
0100
1000
0100
0010
,  // measure 53
0000
0100
0000
0010
0000
0100
0000
0010
,  // measure 54
0000
0001
1000
0001
1000
0001
1000
0000
,  // measure 55
1100
0000
0001
0100
1000
0000
0100
0000
,  // measure 56
0101
0000
1000
0100
0001
0000
0100
0000
,  // measure 57
1100
0000
0001
0100
1000
0000
0100
0000
,  // measure 58
0102
0023
0230
2300
,  // measure 59
3001
0000
1000
0100
0001
0000
1000
0000
,  // measure 60
1100
0000
0001
0100
1000
0000
0001
0000
,  // measure 61
0100
0001
1000
0000
0100
1000
0001
0000
,  // measure 62
0100
0010
0100
0010
0100
0001
1000
0000
,  // measure 63
1001
0001
0001
0001
,  // measure 64
1000
0100
0001
0100
,  // measure 65
1000
1000
1000
1000
,  // measure 66
0001
0000
0100
0000
1000
0000
0100
0001
,  // measure 67
0101
0000
0000
0000
0000
0000
0000
1000
,  // measure 68
1100
0000
0000
0000
0000
0000
0000
0000
0000
0000
0000
0000
0000
0000
0000
0000
0000
0000
0000
0000
0000
0000
0000
0000
0000
0000
0000
0000
0000
0000
0000
0000
0000
0000
0000
0000
0000
0000
0000
0000
0000
0000
0000
0000
0000
0000
0000
0000
0000
0000
0000
0001
0000
0000
0000
0000
0000
1000
0000
0000
0000
0000
0000
0000
,  // measure 69
0001
0000
0000
0000
,  // measure 70
0201
0320
2030
0002
,  // measure 71
0000
0000
0000
3003
;

//---------------dance-single - ----------------
#NOTES:
     dance-single:
     :
     Hard:
     8:
     0.582,0.614,0.244,0.323,0.260: // measure 1
0000
0000
0000
0000
0000
0000
0000
0100
,  // measure 2
0110
0000
0000
0000
0000
0000
0000
0000
0000
0000
0000
0010
1000
0000
0001
0000
,  // measure 3
0011
0000
0000
0000
0000
0000
0000
0000
0000
0000
0000
0010
0001
0000
1000
0000
,  // measure 4
1010
0000
0110
0000
,  // measure 5
0001
0000
0010
0000
0001
0000
0010
0000
0100
0000
1000
0000
0001
0000
0000
0100
0000
0000
0200
0000
0000
0000
0000
0000
,  // measure 6
0000
0000
0300
0000
0001
1000
0020
0000
,  // measure 7
1000
0000
0000
1000
0000
0000
0000
0000
1030
0000
0010
0000
1000
0000
0100
0000
,  // measure 8
0010
0000
0000
0001
0000
0000
0100
0000
0010
0000
1000
0000
0200
0000
0000
0000
,  // measure 9
0010
0000
0000
0310
0000
0000
0001
0000
2000
0000
0000
0000
3200
0000
0000
0000
,  // measure 10
0302
0000
0103
0010
1000
0010
0200
0000
,  // measure 11
0001
0000
0000
0001
0000
0000
0000
0000
0301
0000
0100
0000
0001
0000
0010
0000
,  // measure 12
0100
0000
0000
1000
0000
0000
0010
0000
0100
0000
0001
0000
0020
0000
0000
0000
,  // measure 13
0100
0000
0000
0130
0000
0000
1000
0000
0002
0000
0000
0000
0203
0000
0000
0000
,  // measure 14
2300
3100
0012
1000
,  // measure 15
0013
0000
0100
1000
0100
0000
0000
0000
2000
0000
0000
0000
0001
0000
0000
0000
,  // measure 16
3010
0000
0100
0001
0100
0000
0000
0000
0002
0000
0000
0000
1000
0000
0000
0000
,  // measure 17
0013
0000
0100
1000
0100
0000
0000
0000
0020
0000
0000
0000
0032
0000
0000
0000
,  // measure 18
2003
3001
2010
0001
,  // measure 19
3010
0000
0100
0001
0100
0000
0000
0000
0002
0000
0000
0000
1000
0000
0000
0000
,  // measure 20
0013
0000
0100
1000
0100
0000
0000
0000
2000
0000
0000
0000
0001
0000
0000
0000
,  // measure 21
3010
0000
0100
0001
0100
0000
0000
0000
0020
0000
0000
0000
2030
0000
0000
0000
,  // measure 22
3002
0000
1003
0000
0010
0001
1000
0000
,  // measure 23
0010
1000
0100
0010
0002
0000
1000
0000
,  // measure 24
1003
0010
0100
0001
2000
0000
0001
0000
,  // measure 25
3001
0010
0100
1000
0001
0100
1000
0000
,  // measure 26
0100
0001
1001
0000
0100
1000
0001
0000
,  // measure 27
0100
0001
0010
0100
2000
0000
0001
0000
,  // measure 28
3001
0100
0010
1000
0002
0000
1000
0000
,  // measure 29
1003
0100
0001
0100
1000
0000
0101
0000
,  // measure 30
1100
0000
0000
1000
0000
0000
0001
0000
1000
0000
0100
0000
0010
0000
0100
0000
,  // measure 31
1000
0000
0001
0100
0000
0000
0001
0100
0001
0000
0010
0000
0100
0000
0010
0000
,  // measure 32
0001
0000
1000
0010
0000
0000
1000
0010
1000
0000
0100
0000
0010
0000
0100
0000
,  // measure 33
1000
0000
0001
1000
0001
0000
0100
0010
0200
0000
0000
0000
0302
0000
0000
0000
,  // measure 34
1003
0000
0000
1010
0000
0000
1010
0000
0001
0000
0100
0000
0010
0000
0100
0000
,  // measure 35
0001
0000
1000
0100
0000
0000
1000
0100
1000
0000
0010
0000
0100
0000
0010
0000
,  // measure 36
1000
0000
0001
0010
0000
0000
0001
0010
0001
0000
0100
0000
0010
0000
0100
0000
,  // measure 37
0001
0000
1000
0001
1000
0000
0010
0100
0010
0000
1000
0000
0001
0000
1000
0000
,  // measure 38
0001
0000
0100
0000
0010
0000
0100
0000
0001
0100
0001
0000
1000
0000
0100
0000
,  // measure 39
0020
0000
0000
0001
0000
0000
0031
0000
1000
0010
1000
0000
0001
0000
0010
0000
,  // measure 40
0200
0000
0000
1000
0000
0000
1300
0000
0001
0100
0001
0000
1000
0000
0100
0000
,  // measure 41
0020
0000
0000
0001
0000
0000
0031
0000
1000
0010
1000
0000
0001
0000
0010
0000
,  // measure 42
0100
1000
0001
0000
1000
0100
0001
0000
,  // measure 43
0100
1000
0001
0000
1000
0000
1001
0000
,  // measure 44
0010
0000
0000
1000
0000
0000
0001
0000
1000
0000
0100
0000
0010
0000
0001
0000
,  // measure 45
1000
0100
0001
0100
1000
0010
0100
0001
,  // measure 46
1000
0100
1000
0000
0001
0100
0001
0200
0000
0000
0000
0000
0301
0000
0000
0000
,  // measure 47
0001
0000
0100
0000
1000
0000
0100
0000
0010
0000
1000
0001
1000
0000
0000
0000
,  // measure 48
0001
0000
0100
0000
1000
0000
0100
0000
0020
0000
0000
1030
0000
0000
0001
0000
,  // measure 49
1000
0000
0100
0000
0001
0000
0100
0000
0010
0000
0001
1000
0001
0000
0000
0000
,  // measure 50
1000
1000
0001
0001
0010
0100
1000
0001
,  // measure 51
1000
0000
0100
0000
0010
0000
1000
0000
0010
0000
0001
1000
0001
0000
1000
0000
,  // measure 52
0001
0000
0100
0000
0010
0000
0001
0000
0020
0000
0000
1000
0000
0000
1030
0000
,  // measure 53
0000
1001
0000
0001
0000
1001
0000
1000
,  // measure 54
0000
1001
0100
0001
0100
1000
0100
0000
,  // measure 55
0101
0000
0000
0000
1000
0000
0100
0000
0001
0000
0000
1100
0000
0000
1001
0000
,  // measure 56
0000
0000
1000
0000
0001
0000
0100
0000
1000
0000
0000
0101
0000
0000
1001
0000
,  // measure 57
0000
0000
0001
0000
1000
0000
0100
0000
0001
0000
0100
0010
0000
0000
1000
0001
,  // measure 58
1000
0100
0010
1000
0100
0001
0100
0000
,  // measure 59
1001
0000
0000
0000
1000
0000
0100
0000
0001
0000
0000
0101
0000
0000
1100
0000
,  // measure 60
0000
0000
1000
0000
0001
0000
0100
0000
1000
0000
0000
1100
0000
0000
0101
0000
,  // measure 61
1000
0100
0010
0001
0100
0010
0001
0010
,  // measure 62
1000
0001
1000
0001
1000
0001
1000
0000
0010
0100
0010
0100
0010
0000
0100
0000
,  // measure 63
0001
0000
0000
0100
0001
0000
1000
0000
0200
0000
0000
0000
1300
0000
0100
0000
,  // measure 64
1000
0000
0000
0010
1000
0000
0001
0000
0020
0000
0000
0000
0031
0000
0010
0000
,  // measure 65
0001
0000
0000
0010
0001
0000
1000
0000
0020
0000
0000
0000
1030
0000
0010
0000
,  // measure 66
1000
0000
0000
0100
1000
0000
0001
0000
0200
0000
0000
0001
0000
0000
0301
0000
,  // measure 67
1100
0000
0000
0000
0000
0000
0000
0001
,  // measure 68
0011
0000
0000
0000
0000
0000
0000
0000
0000
0000
0000
0000
0000
0000
0000
0000
0000
0000
0000
0000
0000
0000
0000
0000
0000
0000
0000
0000
0000
0000
0000
0000
0000
0000
0000
0000
0000
0000
0000
0000
0000
0000
0000
0000
0000
0000
0000
0000
0000
0000
0000
0100
0000
0000
0000
0000
0000
1000
0000
0000
0000
0000
0000
0000
,  // measure 69
0001
0000
0000
0000
,  // measure 70
1100
0101
0110
2002
,  // measure 71
0000
0000
0000
3003
;

//---------------dance-single - ----------------
#NOTES:
     dance-single:
     :
     Beginner:
     2:
     0.084,0.165,0.071,0.000,0.000:
0000
0000
0000
0000
,
1000
0000
0000
0000
,
1000
0000
0000
0000
,
1001
0000
0001
0000
,
0001
0000
0000
0000
,
0000
0000
1000
0000
,
0000
0000
0001
0000
,
0000
0000
1000
0000
,
0000
0000
1000
0000
,
0000
0000
0001
0000
,
0000
0000
1000
0000
,
0000
0000
0001
0000
,
0000
0000
0001
0000
,
0000
0000
0100
0000
,
0000
0000
0100
0000
,
0000
0000
0100
0000
,
0000
0000
0000
0000
,
0000
0000
0010
0000
,
0000
0000
0010
0000
,
0000
0000
0010
0000
,
0000
0000
1000
0000
,
0000
0000
0001
0000
,
0000
0000
0000
0000
,
0000
0000
0001
0000
,
0000
0000
0000
0000
,
0000
0000
1000
0000
,
0000
0000
0000
0000
,
0000
0000
1000
0000
,
0000
0000
0000
0000
,
0000
0000
1001
0000
,
0000
0000
0001
0000
,
0000
0000
1000
0000
,
0000
0000
0001
0000
,
0000
0000
1000
0000
,
0000
0000
0001
0000
,
0000
0000
1000
0000
,
0000
0000
1000
0000
,
0000
0000
1001
0000
,
0000
0000
0001
0000
,
0000
0000
1000
0000
,
0000
0000
0001
0000
,
0000
0000
0100
0000
,
0000
0000
0010
0000
,
0000
0000
0100
0000
,
0000
0000
0100
0000
,
0000
0000
0000
0000
,
1001
0000
0000
0000
,
0001
0000
0000
0000
,
1000
0000
0000
0000
,
0001
0000
0000
0000
,
0100
0000
0000
0000
,
0100
0000
0000
0000
,
0010
0000
0000
0000
,
0010
0000
0000
0000
,
1001
0000
0000
0000
,
0001
0000
0000
0000
,
1000
0000
0000
0000
,
0100
0000
0000
0000
,
0010
0000
0000
0000
,
0001
0000
0000
0000
,
1000
0000
1000
0000
,
1000
0000
0000
0000
,
1001
0000
0000
0000
,
0001
0000
0000
0000
,
0001
0000
0000
0000
,
0001
0000
0000
0000
,
1001
0000
0000
0000
,
1001
0000
0000
0000
,
1001
0000
0000
0000
,
1000
0000
0000
0001
;
