#TITLE:earth scape;
#SUBTITLE:;
#ARTIST:dj TAKA;
#TITLETRANSLIT:;
#SUBTITLETRANSLIT:;
#ARTISTTRANSLIT:;
#CREDIT:DMAxel;
#BANNER:earth scape.png;
#BACKGROUND:earth scape-bg.png;
#LYRICSPATH:;
#CDTITLE:beatmaniaIIDX.png;
#MUSIC:earth scape.mp3;
#OFFSET:-0.410;
#SAMPLESTART:54.780;
#SAMPLELENGTH:12.000;
#SELECTABLE:YES;
#BPMS:0.000=94.000,11.021=91.000,12.000=88.000,16.021=84.000,17.000=90.000,18.000=94.000,24.000=89.000,25.000=94.000,31.021=91.000,32.000=88.000,33.000=94.000,46.021=91.000,47.000=89.000,48.021=85.000,48.979=94.000,64.000=84.000,64.979=94.000,76.000=88.000,77.000=90.000,78.000=89.000,79.000=88.000,80.021=87.000,80.979=80.000,84.000=94.000,147.000=91.000,147.979=87.000,149.000=93.000,165.000=92.000,169.000=90.000,173.000=88.000,174.000=84.000,175.000=71.000,176.021=45.000,177.000=94.000;
#STOPS:;
#BGCHANGES:-1.900=earth scape.avi=1.000=1=1=0,
99999=-nosongbg-=1.000=0=0=0 // don't automatically add -songbackground-
;

//---------------dance-single - ----------------
#NOTES:
     dance-single:
     :
     Beginner:
     1:
     0.048,0.071,0.032,0.000,0.000:
0000
0000
0000
0000
,
0000
0000
0000
0000
,
0000
0000
0000
0000
,
0000
0000
0000
0000
,
1000
0000
0000
0000
,
1000
0000
0000
0000
,
0001
0000
0000
0000
,
0001
0000
0000
0000
,
0100
0000
0000
0000
,
0100
0000
0000
0000
,
0100
0000
0000
0000
,
0100
0000
0000
0000
,
0001
0000
0000
0000
,
0000
0000
0000
0000
,
1000
0000
0000
0000
,
0000
0000
0000
0000
,
0001
0000
0000
0000
,
0000
0000
0000
0000
,
1000
0000
0000
0000
,
0010
0000
0000
0000
,
0010
0000
0000
0000
,
1001
0000
0000
0000
,
0001
0000
0000
0000
,
0001
0000
0000
0000
,
1000
0000
0000
0000
,
1000
0000
0000
0000
,
0001
0000
0000
0000
,
0001
0000
0000
0000
,
1000
0000
0000
0000
,
1001
0000
0000
0000
,
0001
0000
0000
0000
,
0001
0000
0000
0000
,
0001
0000
0000
0000
,
1001
0000
0000
0000
,
1000
0000
0000
0000
,
1000
0000
0000
0000
,
1000
0000
0000
0000
,
1001
0000
0000
0000
,
0010
0000
0000
0000
,
0010
0000
0000
0000
,
0010
0000
0000
0000
,
0100
0000
0000
0000
,
0100
0000
0000
0000
,
0100
0000
0000
0000
,
0000
0100
0000
0000
0000
0000
0000
0000
;

//---------------dance-single - ----------------
#NOTES:
     dance-single:
     :
     Easy:
     2:
     0.083,0.142,0.080,0.008,0.000:
0000
0000
0000
0000
,
0000
0000
0000
0000
,
0000
0000
0000
0000
,
0010
0010
0000
0000
,
0001
0000
0000
0000
,
1000
0000
0000
0000
,
0001
0000
0000
0000
,
1000
0000
0000
0000
,
0100
0000
0000
0000
,
0100
0000
0000
0000
,
1000
0000
0000
0000
,
0001
0000
0001
0000
,
1001
0000
0000
0000
,
0010
0000
0000
0000
,
0010
0000
0100
0000
,
0010
0000
0000
0000
,
1000
0000
0001
0000
,
1001
0000
0000
0000
,
0010
0000
0000
0000
,
0100
0000
0000
0000
,
1001
0000
0000
0000
,
0010
0000
0100
0000
,
0010
0000
1000
0000
,
0001
0000
1000
0000
,
0100
0000
0010
0000
,
1001
0000
0010
0000
,
0100
0000
0010
0000
,
0001
0000
1000
0000
,
1001
0000
1001
0000
,
1001
0000
1000
0000
,
0010
0000
0010
0000
,
1000
0000
0001
0000
,
1000
0000
0001
0000
,
1001
0000
0010
0000
,
1001
0000
0000
0000
,
0020
0000
0000
0000
,
1030
0000
0001
0000
,
1001
0000
0000
0000
,
1000
0000
0000
0000
,
1000
0000
0000
0000
,
0001
0000
0000
0000
,
0001
0000
0000
0000
,
1000
0000
0000
0000
,
1000
0000
0001
0000
,
0000
0001
0000
0000
0000
0000
0000
0000
;

//---------------dance-single - ----------------
#NOTES:
     dance-single:
     :
     Medium:
     3:
     0.171,0.266,0.113,0.080,0.000:
0000
0000
0000
0000
,
0000
0000
0000
0000
,
0000
0000
0000
0000
,
1001
0001
0000
0000
,
2000
0000
0000
0000
,
3002
0000
0000
0000
,
2003
0000
0000
0000
,
3001
0000
0001
0000
,
0001
0000
0100
0001
0000
0000
0000
0000
,
1000
0000
0010
1000
0000
0000
0000
0000
,
1001
0000
0000
0001
1000
0000
0000
0000
,
1000
0010
0100
0001
,
1000
1000
0001
0001
,
1001
0000
0000
0000
0000
0000
0100
0010
,
0100
0000
0010
0100
0010
0000
0100
0010
,
0100
0001
0000
0000
0000
0000
0001
0000
,
1000
1000
0001
0001
,
1001
0000
0000
0000
,
0110
0000
0000
0000
,
0020
0000
0100
0130
,
2002
0000
0000
3003
,
0001
0000
1000
0000
1000
0001
1000
0000
,
0010
0000
0100
0000
0100
0010
0100
0000
,
0001
0000
1000
0000
1000
0001
1000
0000
,
0010
0000
0100
0010
0100
0010
0100
0000
,
1001
0001
0100
0010
,
2000
0000
0000
0001
0000
0000
3001
0000
,
0200
0000
0320
0000
,
0130
0000
0100
0000
0010
0100
0010
0100
,
0010
0010
1000
0001
,
0011
0000
0011
0000
1001
0000
0100
0010
,
0100
0000
0010
0100
0010
0000
0100
0010
,
0100
0001
1000
0000
0001
0000
1001
0000
,
1000
0010
0100
0001
,
1001
0000
0000
0001
0000
0000
1000
0000
,
0020
0000
0000
0100
0130
0000
0000
0000
,
0001
0001
1000
1000
,
1001
0000
0000
0000
,
0100
0000
0000
0000
,
0100
0000
0000
0000
,
0010
0000
0000
0000
,
0010
0000
0000
0000
,
0010
0000
0000
0000
,
0010
0000
0100
0000
,
0000
1001
0000
0000
0000
0000
0000
0000
;

//---------------dance-single - ----------------
#NOTES:
     dance-single:
     :
     Hard:
     5:
     0.261,0.327,0.241,0.080,0.024:
0000
0000
0000
0000
,
0000
0000
0000
0000
,
0000
0000
0000
0000
,
1100
1000
0000
0000
,
0002
0000
0000
0000
,
2003
0000
0000
0000
,
3002
0000
0000
0000
,
2003
0000
0000
0000
,
3001
0010
0001
1000
0000
0000
0000
0000
,
1000
0100
1000
0001
0000
0001
1000
0000
,
1010
0000
0000
0000
0000
0000
0010
0000
0010
0000
0000
0010
0000
0000
1000
0000
,
1000
0001
0001
1000
1000
0001
0100
0010
,
0100
0101
0001
1001
,
1001
0000
0000
0000
0000
0000
0010
0100
,
0001
0000
0010
0001
0100
0000
0010
1000
,
0100
0010
0000
0000
0000
0000
0001
0000
,
1001
0010
1010
1000
,
1001
0000
0000
0100
0000
0000
0100
0000
,
0110
0000
0000
0000
0000
0000
0100
0000
0100
0000
0000
0001
0000
0000
1000
0000
,
0010
0000
0000
0000
0110
0000
0010
0100
,
0002
0000
0000
0003
,
1000
0100
0010
0100
1000
0001
1000
0000
,
0001
0010
0100
0010
0001
1000
0001
0000
,
1000
0100
0010
0100
1000
0001
1000
0000
,
0001
0010
0100
0010
0001
1000
0001
0001
,
1001
0000
0010
0100
1000
0001
1000
0000
,
0001
0010
0100
0010
0001
1000
0001
0000
,
1000
0100
0010
0100
1000
0001
1000
0000
,
0101
0101
1010
1010
,
1001
0000
0010
0100
0001
0010
0001
1000
,
1001
0000
0110
0000
1001
0000
0100
0001
,
1000
0000
0100
0010
0001
0000
0100
0010
,
1000
0100
1000
0001
0010
0001
1001
0000
,
0011
0011
1100
1100
,
1001
0000
0000
0101
0000
0000
1010
0000
,
1001
0000
0000
0000
0000
0000
0010
0000
0010
0000
0000
1000
0000
0001
0000
0000
,
0001
0001
1000
1000
0010
0100
0010
1000
,
2002
0000
0000
3003
,
0020
0000
0000
0000
,
0230
0000
0000
0000
,
0310
0100
0010
0100
,
0001
0100
0001
1000
0000
0000
0000
0000
,
1000
0010
1000
0001
0000
0000
0001
0000
,
0001
0000
0100
0000
0010
0000
1000
0000
0001
0000
0000
0000
0000
0100
0000
0000
,
0000
0110
0100
0001
2000
0000
0000
0000
,
0000
0000
0000
3001
0000
0000
0000
0000
0000
0000
0000
0000
0000
0000
0000
0000
;

//---------------dance-single - ----------------
#NOTES:
     dance-single:
     :
     Challenge:
     7:
     0.367,0.436,0.250,0.024,0.169: // measure 1
0000
0000
0000
0000
,  // measure 2
0000
0000
0000
0000
,  // measure 3
0000
0000
0000
0000
,  // measure 4
1001
0000
1001
0000
0000
0010
0000
0000
,  // measure 5
1000
0010
0100
0001
0000
0100
0010
0100
,  // measure 6
0001
0100
0010
1000
0000
0010
0100
0010
,  // measure 7
1000
0010
0100
0001
0000
0100
0010
0100
,  // measure 8
0001
1000
0001
0010
0000
0001
1000
0000
,  // measure 9
1000
0010
0100
0001
0000
0100
0010
0100
,  // measure 10
0001
0100
0010
1000
0000
0010
0100
0010
,  // measure 11
1010
0000
0000
0000
0000
0000
0100
0000
0100
0000
0000
0001
0000
0000
0100
0010
,  // measure 12
0100
0000
0010
0100
0010
0000
1000
0001
1000
0000
0100
0000
0010
0000
0010
0000
,  // measure 13
0110
1001
0110
1001
,  // measure 14
0110
0000
0000
0000
0000
0000
0010
1000
,  // measure 15
0001
0000
0010
0100
1000
0000
0001
0010
,  // measure 16
0100
1000
0000
0000
0000
0000
1100
0000
,  // measure 17
1001
1001
0011
0011
,  // measure 18
1001
0000
0000
0100
0000
0000
0100
0000
,  // measure 19
0101
0000
0000
0000
0000
0000
0010
0000
0010
0000
0000
1000
0000
0000
0010
0000
,  // measure 20
0110
0000
0000
0000
0110
0000
1000
0001
,  // measure 21
0202
0000
0000
0303
,  // measure 22
0010
0000
0100
0000
0001
0000
0100
0001
0100
0000
0001
0000
1000
0000
0000
0000
,  // measure 23
0010
0000
0100
0000
0001
0000
0100
0001
0100
0000
0001
0000
1000
0001
0000
0001
,  // measure 24
0100
0000
0010
0000
1000
0000
0010
1000
0010
0000
1000
0000
0001
0000
0000
0000
,  // measure 25
0100
0000
0010
0000
1000
0000
0010
1000
0010
1000
0010
0000
0100
0010
0000
0000
,  // measure 26
1001
0000
1000
0000
0010
0000
1000
0100
1000
0000
0001
0000
1000
0000
0000
0000
,  // measure 27
0001
0000
0100
0000
0001
0000
0010
0001
0010
0000
0001
0000
1000
0001
0000
0001
,  // measure 28
1000
0000
0001
0000
0100
0000
0001
0010
0001
0000
1000
0000
0001
0000
0000
0000
,  // measure 29
1000
0000
1000
0000
0010
0000
0100
0001
0100
0001
0100
0000
0010
0100
0010
0000
,  // measure 30
1001
0000
0000
0000
0100
1000
0100
0000
0100
0000
0100
1000
0100
0010
0001
1000
,  // measure 31
0001
0100
0000
0000
0001
0100
0000
0000
0110
0000
0000
0000
0001
0000
1000
0000
,  // measure 32
1100
0010
1000
0001
0011
0100
1000
0001
,  // measure 33
0010
0001
0010
0000
0010
0000
0010
0001
0010
0100
1000
0001
1000
0010
0000
0000
,  // measure 34
0110
0101
0101
0110
,  // measure 35
1001
0000
1000
0000
0010
0000
0100
0000
0000
0000
0001
0000
1000
0001
0000
0000
,  // measure 36
1001
0000
0001
0000
0100
0000
0010
0100
0010
0000
0000
0100
0000
0001
0000
0000
,  // measure 37
0001
0000
0001
0000
0100
0000
0100
0000
0010
0100
0010
0100
0010
1000
0100
0010
,  // measure 38
1001
0010
0100
1000
0000
0100
0010
0100
,  // measure 39
1000
0100
0010
0001
0000
0010
0100
0010
,  // measure 40
0001
0010
0100
1000
0000
0100
0010
0100
,  // measure 41
1000
0100
0010
0001
0000
1000
0001
0000
,  // measure 42
1000
0100
0010
0001
0000
1000
0001
0000
,  // measure 43
0001
0010
0100
1000
0000
0001
1000
0000
,  // measure 44
1000
0000
0100
0000
0010
0000
0001
0000
0100
0000
0000
0000
0000
0100
0000
0000
,  // measure 45
0000
0110
0100
0010
0002
0000
0000
0000
,  // measure 46
0000
0000
0000
1003
0000
0000
0000
0000
0000
0000
0000
0000
0000
0000
0000
0000
;

//---------------dance-double - ----------------
#NOTES:
     dance-double:
     :
     Easy:
     2:
     0.106,0.160,0.080,0.056,0.000:
00000000
00000000
00000000
00000000
,
00000000
00000000
00000000
00000000
,
00000000
00000000
00000000
00000000
,
00000010
00000110
00000000
00000000
,
00000001
00000000
00000000
00000000
,
00000001
00000000
00000000
00000000
,
00000100
00000000
00000000
00000000
,
00000010
00000000
00000010
00000000
,
00001000
00000000
00000000
00000000
,
00010000
00000000
00000000
00000000
,
00001000
00000000
00001000
00000000
,
00010000
00000000
00000000
00000000
,
01100000
00000000
00100000
00000000
,
00100000
00000000
00000000
00000000
,
10000000
00000000
00010000
00000000
,
10000000
00000000
00000000
00000000
,
01100000
00000000
01000000
00000000
,
01000000
00000000
00000000
00000000
,
00010000
00000000
00000000
00000000
,
00001000
00000000
00000000
00000000
,
00011000
00000000
00000000
00000000
,
00001001
00000001
00000001
00000000
,
00000100
00000100
00000100
00000000
,
00000001
00000001
00000001
00000000
,
00001000
00001000
00001000
00000000
,
00000110
00001000
00010000
00100000
,
02000000
00000000
00000000
00000000
,
23000000
00000000
30020000
00000000
,
10030000
10000000
10000000
00000000
,
10010000
00000000
01000000
00000000
,
01000000
00000000
00000000
00000000
,
00100000
00000000
00100000
00000000
,
00010000
10000000
00010000
00000000
,
01100000
00010000
00001000
00000100
,
00000020
00000000
00000000
00000000
,
00000032
00000000
00001000
00000000
,
00001003
00001000
00010000
00100000
,
00011000
00000000
00000000
00000000
,
00001000
00000000
00000000
00000000
,
00001000
00000000
00000000
00000000
,
00010000
00000000
00000000
00000000
,
00020000
00000000
00000000
00000000
,
00230000
00000000
00000000
00000000
,
01300000
01000000
01000000
00000000
,
00000000
10010000
00000000
00000000
00000000
00000000
00000000
00000000
;
