#TITLE:cat's Scat;
#SUBTITLE:;
#ARTIST:Q-Mex;
#TITLETRANSLIT:;
#SUBTITLETRANSLIT:;
#ARTISTTRANSLIT:;
#CREDIT:DMAxel;
#BANNER:cat's Scat.png;
#BACKGROUND:cat's Scat-bg.png;
#LYRICSPATH:;
#CDTITLE:pop'n stage.png;
#MUSIC:cat's Scat.mp3;
#OFFSET:-6.060;
#SAMPLESTART:0.640;
#SAMPLELENGTH:12.000;
#SELECTABLE:YES;
#BPMS:0.000=135.000;
#STOPS:;
#BGCHANGES:;

//---------------dance-single - ----------------
#NOTES:
     dance-single:
     :
     Easy:
     2:
     0.154,0.205,0.223,0.000,0.000:
1001
0000
0000
0000
,
0110
0000
0000
0000
,
1001
0000
0000
0000
,
0001
0000
0010
0000
,
0100
1000
0100
1000
,
0001
0001
0001
0000
,
1000
1000
1000
0000
,
0001
0001
0001
0000
,
1000
1000
1000
0000
,
0010
0010
0010
0000
,
0100
0100
0100
0000
,
0010
0010
0010
0000
,
0100
0100
0100
0000
,
0101
0000
0000
0000
,
0010
0000
0000
0000
,
1010
0000
0000
0000
,
0100
0000
0000
0000
,
1001
0000
0001
0000
,
0011
0000
1000
0000
,
1100
0000
1000
0000
,
1001
0000
0001
0000
,
1001
0000
0000
0000
,
0001
0000
0001
0000
,
0010
0000
0010
0000
,
0100
0000
0100
0000
,
1000
0000
1000
0000
,
0001
0000
0000
0000
,
0000
0000
0000
0000
,
1001
0000
0000
0000
,
1100
0000
0000
0000
,
1000
0000
0000
0000
,
1001
0000
0000
0000
,
0011
0000
0000
0000
,
0001
0000
0000
0000
,
1001
0000
0000
0000
,
0001
0000
0000
0000
,
0100
0000
0100
0000
,
0100
0000
0000
0000
,
0110
0000
0000
0000
,
1000
0000
0000
0000
,
1001
0000
0000
0000
,
0010
0000
0000
0000
,
0110
0000
0000
0000
,
0001
0000
0000
0000
,
1001
0000
1000
0000
,
1001
0000
0001
0000
,
0001
0000
0000
0000
;

//---------------dance-single - ----------------
#NOTES:
     dance-single:
     :
     Medium:
     4:
     0.282,0.384,0.367,0.056,0.000:
1001
1000
1000
1000
,
0110
0001
0001
0001
,
0110
0000
0000
0000
,
1001
0000
0110
0000
,
1001
1000
1000
1000
,
1001
0100
1000
0000
,
0001
0010
0001
0000
,
1000
0010
1000
0000
,
0001
0100
0001
0100
,
0010
0100
0010
0000
,
1000
0010
1000
0000
,
0001
0010
0001
0000
,
1000
0100
1000
1000
,
2001
0000
0000
0000
,
3020
0000
0000
0000
,
0230
0000
0000
0000
,
0301
0001
0001
0001
,
0011
0100
0001
0010
,
0011
0100
0001
0010
,
0011
0100
1000
0001
,
1100
0001
1000
0100
,
0010
0000
0000
0000
,
1001
0100
1001
0100
,
1000
0100
0010
0001
,
1001
0010
1001
0010
,
0001
0010
0100
1000
,
0220
0000
0000
0000
,
0000
0000
0330
0000
,
1001
0000
0000
0000
,
0011
0000
0000
0000
,
1010
0000
0000
0000
,
1100
0000
0100
0000
,
0101
0000
0001
0000
,
1001
0000
0000
0000
,
1100
1000
1000
1000
,
1001
0001
0001
0001
,
0011
0100
1000
0001
,
1100
0010
0001
1000
,
0001
0001
0010
1000
,
0100
0010
0001
1000
,
0100
0001
0010
0100
,
1000
0010
0001
0010
,
0100
1000
0001
0010
,
1000
0100
0010
0001
,
1001
0100
1001
0010
,
1001
0110
0110
1001
,
1000
0000
0000
0000
;

//---------------dance-single - ----------------
#NOTES:
     dance-single:
     :
     Hard:
     6:
     0.425,0.435,0.401,0.189,0.000:
1001
0000
0001
0000
0001
0000
0001
0100
,
1000
0000
1000
0000
1000
0000
1000
0100
,
0002
0000
0000
0003
,
1001
0000
0110
0000
,
1001
0011
1010
0011
,
1001
0000
0010
0000
0001
0000
0010
0100
,
1000
0000
0100
0000
1000
0000
0100
0010
,
0001
0000
0100
0000
0001
0000
0100
0010
,
1000
0000
0010
0000
1000
0000
0010
0100
,
0010
0000
1000
0000
1010
0000
0100
0010
,
0100
0000
0001
0000
0101
0000
0010
0100
,
0010
0000
1000
0000
1010
0000
0100
0010
,
0100
0001
0101
1100
,
2001
0001
0100
0100
,
3002
1000
0010
0010
,
2003
0001
0100
0100
,
3001
1000
0001
1000
0001
1000
0001
0000
,
0010
0001
0010
0100
1000
0001
0010
0000
,
0100
1000
0100
0010
0001
1000
0100
0000
,
0010
0001
0010
0100
1000
0001
0010
0000
,
0100
1000
0100
0010
0001
1000
0100
0000
,
0010
0010
0010
0010
,
0001
0100
1000
0000
0100
0001
1000
0000
,
0001
0200
0000
0001
0301
1000
0100
0000
,
1000
0100
0001
0000
0100
1000
0001
0000
,
1001
0000
0001
0000
0001
0100
0010
1000
,
0220
0000
0000
0000
,
0000
0000
0000
0330
,
2002
0000
0000
3003
,
2200
0000
0000
3300
,
0202
0000
0000
0303
,
0012
0000
0010
0003
,
2100
0000
0100
3000
,
0220
0000
0000
0330
,
1001
0000
0001
0000
0001
0000
0001
0100
,
1000
0000
1000
0000
1000
0000
1000
0100
,
0001
0110
1001
1001
,
1010
0011
1010
0011
,
0100
1000
0100
0010
0001
1000
0010
0000
,
0100
0001
0001
0001
0100
0001
0001
0001
,
1000
0001
0010
0100
1000
0001
0100
0000
,
0010
1000
1000
1000
0010
1000
1000
1000
,
0001
1000
0100
0010
0001
0100
0001
0000
,
0100
0001
0001
0001
0100
0001
0001
0001
,
1001
0000
0010
1000
1010
0000
0100
0001
,
0101
1100
0101
1001
,
0001
0000
0000
0000
;

//---------------dance-single - ----------------
#NOTES:
     dance-single:
     :
     Beginner:
     1:
     0.064,0.077,0.000,0.000,0.000:
1000
0000
0000
0000
,
1000
0000
0000
0000
,
1000
0000
0000
0000
,
0001
0000
0000
0000
,
0001
0000
0000
0000
,
0001
0000
0000
0000
,
0000
0000
0000
0000
,
0010
0000
0000
0000
,
0000
0000
0000
0000
,
0100
0000
0000
0000
,
0000
0000
0000
0000
,
1000
0000
0000
0000
,
0000
0000
0000
0000
,
0001
0000
0000
0000
,
0000
0000
0000
0000
,
1000
0000
0000
0000
,
0000
0000
0000
0000
,
0001
0000
0000
0000
,
0001
0000
0000
0000
,
1000
0000
0000
0000
,
1000
0000
0000
0000
,
1000
0000
0000
0000
,
0010
0000
0000
0000
,
0010
0000
0000
0000
,
0100
0000
0000
0000
,
0100
0000
0000
0000
,
0010
0000
0000
0000
,
0000
0000
0000
0000
,
1000
0000
0000
0000
,
0001
0000
0000
0000
,
1000
0000
0000
0000
,
0010
0000
0000
0000
,
0100
0000
0000
0000
,
0010
0000
0000
0000
,
1000
0000
0000
0000
,
1000
0000
0000
0000
,
0001
0000
0000
0000
,
0001
0000
0000
0000
,
1000
0000
0000
0000
,
0100
0000
0000
0000
,
0010
0000
0000
0000
,
0001
0000
0000
0000
,
0100
0000
0000
0000
,
0010
0000
0000
0000
,
1000
0000
0000
0000
,
1000
0000
0000
0000
,
0001
0000
0000
0000
;

//---------------dance-single - ----------------
#NOTES:
     dance-single:
     :
     Challenge:
     8:
     0.585,0.618,0.479,0.189,0.228:
1000
0000
0100
0000
1000
0000
0100
0000
1000
0000
0001
0100
0000
0000
0000
0000
,
0001
0000
0010
0000
0001
0000
0010
0000
0001
0000
1000
0010
0000
0000
0000
0000
,
2002
0000
0000
3003
,
1100
1000
0001
0001
1100
1000
0001
0001
,
1100
0101
1010
0011
,
1001
0010
0100
1000
0001
0000
0001
1000
,
0010
0000
1010
0000
0110
0000
0100
0001
,
1000
0100
0010
0001
1000
0000
1000
0001
,
0100
0000
0101
0000
0110
0000
0010
1000
,
1001
0000
0011
0000
1100
0000
1000
0100
,
0001
0100
1000
0100
0010
0001
1000
0000
,
1001
0000
1010
0000
0101
0000
0001
0100
,
1000
0000
0100
0000
0001
0000
0100
0000
0010
1000
0010
1000
0010
1000
0010
0000
,
1001
0000
0000
1000
0001
0000
0000
0001
0100
0000
0010
0000
0010
0000
1000
0000
,
0100
0000
0000
1000
0001
0000
0000
0001
0100
0000
0010
0000
0010
0000
1000
0000
,
0100
0000
0000
1000
0001
0000
0000
0001
0100
0000
0010
0000
0010
0000
1000
0000
,
0100
0010
0100
0000
1000
0001
1000
0000
0001
0100
0001
0100
0001
0100
0001
0000
,
1000
0100
1000
0000
0010
0100
0010
0000
1000
0000
0100
0000
0010
0000
0001
0000
,
1000
0100
1000
0000
0010
0100
0010
0000
1000
0000
0100
0000
0010
0000
0001
0000
,
1001
0000
0000
0000
1100
0000
0000
0000
0101
0000
0000
0000
0100
0010
0100
0000
,
1001
0000
0000
0000
0011
0000
0000
0000
1010
0000
0000
0000
0010
0100
0010
0000
,
1000
0000
0000
0000
1000
0000
0000
0000
1000
0000
0000
0000
1000
0000
0000
0001
,
0200
0000
0010
0000
0310
0000
0000
1000
0020
0000
0100
0000
0130
0000
0000
0000
,
0101
0000
1000
0000
0000
0000
1000
0000
0100
0000
0010
0000
0001
0000
0000
0100
,
0002
0000
1000
0000
1003
0000
0000
0010
2000
0000
0001
0000
3001
0000
0010
0000
,
0100
1000
0010
0100
0010
1000
0100
0001
,
0220
0000
0000
0000
,
0000
0000
0000
0330
,
0001
0000
0100
0000
0001
0000
0100
0000
0001
0000
1000
0100
0000
0000
0000
0000
,
1000
0000
0010
0000
1000
0000
0010
0000
1000
0000
0001
0010
0000
0000
0000
0000
,
0220
0000
0000
0330
,
1100
1000
0001
1000
0220
0000
0330
0000
,
0011
0001
1000
0001
0220
0000
0330
0000
,
2002
0000
0000
3003
,
0010
0000
1000
0000
0010
0000
1000
0000
0010
0000
0100
0010
0000
0000
0000
0000
,
0100
0000
0001
0000
0100
0000
0001
0000
0100
0000
0010
0100
0000
0000
0000
0000
,
1001
0101
0101
1100
,
0011
1010
1010
1010
,
0100
0001
0100
0000
0001
1000
0001
0000
1000
0000
0100
0000
0010
0000
0100
0000
,
1000
0001
0001
0100
0001
1000
1000
0001
,
0010
0001
0010
0000
0001
1000
0001
0000
1000
0000
0100
0000
0010
0000
0100
0000
,
1000
0000
0001
0000
0001
0000
0100
0000
0001
0000
1000
0000
1000
0001
1000
0000
,
0100
1000
0100
0000
1000
0001
1000
0000
0001
0000
0010
0000
0100
0000
0010
0000
,
0001
1000
1000
0010
0100
0001
0001
1000
,
0011
0001
1000
1000
0011
0001
1000
1000
,
0001
0010
0001
0000
0100
0010
0100
0000
0010
1000
0010
0000
1000
0001
1000
0000
,
0200
0300
0000
0000
;

//---------------dance-double - ----------------
#NOTES:
     dance-double:
     :
     Easy:
     3:
     0.278,0.307,0.312,0.245,0.000: // measure 1
00001001
00000000
00000000
00000000
,  // measure 2
00001001
00000000
00000000
00000000
,  // measure 3
00000220
00000000
00000000
00000330
,  // measure 4
00001001
00000000
00001010
00000000
,  // measure 5
00011000
00001000
00001000
00001000
,  // measure 6
00010000
01000000
10000000
00000000
,  // measure 7
00100000
01000000
00100000
00000000
,  // measure 8
10000000
01000000
00010000
00000000
,  // measure 9
00001000
00010000
00001000
00010000
,  // measure 10
00001000
00000100
00000001
00000000
,  // measure 11
00000100
00000010
00000100
00000000
,  // measure 12
00000001
00000100
00001000
00000000
,  // measure 13
00010000
00001000
00010000
00001000
,  // measure 14
00022000
00000000
00000000
00033000
,  // measure 15
00220000
00000000
00000000
00330000
,  // measure 16
00022000
00000000
00000000
00033000
,  // measure 17
00002200
00000000
00000000
00003300
,  // measure 18
00011000
00100000
01000000
00100000
,  // measure 19
01000000
10000000
01000000
10000000
,  // measure 20
01000000
00100000
01000000
00100000
,  // measure 21
00001000
00100000
00001000
00100000
,  // measure 22
00022000
00000000
00000000
00033000
,  // measure 23
00011000
00000100
00000010
00000000
,  // measure 24
00001001
00000000
00000100
00000000
,  // measure 25
00001001
00000001
00000010
00000100
,  // measure 26
00001000
00100000
00001000
00100000
,  // measure 27
00022000
00000000
00000000
00000000
,  // measure 28
00000000
00000000
00033000
00000000
,  // measure 29
00202000
00000000
00000000
00303000
,  // measure 30
00022000
00000000
00000000
00033000
,  // measure 31
00011000
00000000
00000000
00000000
,  // measure 32
00020200
00000000
00000000
00030300
,  // measure 33
00022000
00000000
00000000
00033000
,  // measure 34
00011000
00000000
00000000
00000000
,  // measure 35
00010000
00100000
00010000
00100000
,  // measure 36
00010000
10000000
00010000
10000000
,  // measure 37
00010000
10000000
10000000
10000000
,  // measure 38
10000000
00010000
00010000
00010000
,  // measure 39
00101000
00001000
00001000
00001000
,  // measure 40
00001000
00000100
00000010
00000001
,  // measure 41
00001001
00000001
00000001
00000001
,  // measure 42
00000001
00000010
00000100
00001000
,  // measure 43
00010100
00010000
00010000
00010000
,  // measure 44
00010000
00100000
01000000
10000000
,  // measure 45
11000000
10000000
00110000
00010000
,  // measure 46
00011000
00000100
00010000
00001000
,  // measure 47
00100000
00000000
00000000
00000000
;
