#TITLE:breathless;
#SUBTITLE:;
#ARTIST:Studio Bongo Mango feat. Tomoko Kataoka;
#TITLETRANSLIT:;
#SUBTITLETRANSLIT:;
#ARTISTTRANSLIT:;
#CREDIT:DMAxel;
#BANNER:breathless.png;
#BACKGROUND:breathless-bg.png;
#LYRICSPATH:breathless.lrc;
#CDTITLE:beatmaniaIIDX.png;
#MUSIC:breathless.mp3;
#OFFSET:-7.200;
#SAMPLESTART:50.997;
#SAMPLELENGTH:12.000;
#SELECTABLE:YES;
#BPMS:0.000=175.000;
#STOPS:;
#BGCHANGES:-20.000=breathless.avi=1.000=1=0=0,
99999=-nosongbg-=1.000=0=0=0 // don't automatically add -songbackground-
;

//---------------dance-single - ----------------
#NOTES:
     dance-single:
     :
     Easy:
     5:
     0.363,0.403,0.350,0.193,0.000:
0000
0000
0000
0000
,
0110
0000
0110
0000
,
1001
0000
1001
0000
,
0100
0100
0100
0100
,
0110
0000
1000
0100
,
1000
0100
1000
0100
,
0001
0010
0001
0010
,
0002
0000
0000
1000
0000
1003
0000
0000
,
0001
0010
0001
0010
,
0001
1000
0100
1000
,
0100
0001
1000
0001
,
2000
0000
0000
0001
0000
3001
0000
0000
,
1001
0000
1100
0000
,
1001
0000
0100
0010
,
0100
0000
0100
0000
,
0100
0010
0100
0001
,
1001
0000
0011
0000
,
1001
0000
0010
0100
,
0010
0000
0010
0000
,
0010
0100
0010
0000
,
1002
0000
0000
1000
0000
0000
1003
0000
,
0200
0000
0000
0010
0000
0000
0310
0000
,
2001
0000
0000
0001
0000
0000
3001
0000
,
0020
0000
0000
0100
0000
0000
0130
0000
,
2001
0000
0001
0000
,
3002
0000
1000
0000
,
1003
0000
0000
1000
0000
0000
1001
0000
,
0000
0000
0000
0000
,
0001
0100
0001
0100
,
0001
0100
1000
0100
,
0001
1000
0010
1000
,
0002
0000
0000
1000
0000
1003
0000
0000
,
1001
0000
1100
0000
,
1001
0000
0010
0100
,
0010
0000
0010
0000
,
0010
0100
0010
1000
,
1001
0000
0011
0000
,
1001
0000
0100
0010
,
0100
0000
0100
0000
,
0100
0010
1000
0000
,
1002
0000
0000
1000
0000
0000
1003
0000
,
0200
0000
0000
0010
0000
0000
0310
0000
,
2001
0000
0000
0001
0000
0000
3001
0000
,
0020
0000
0000
0100
0000
0000
0130
0000
,
2001
0000
0001
0000
,
3002
0000
1000
0000
,
1003
0000
0000
1000
0000
0000
1001
0000
,
0000
0000
0000
0000
,
1001
0001
0001
0010
,
1000
0010
0001
1000
,
1001
1000
1000
0100
,
0001
0100
1000
0001
,
1001
0001
0100
0100
,
1000
1000
0010
0010
,
0001
0000
0001
0000
,
0001
0000
0000
0000
,
2000
0000
3200
0000
,
0320
0000
0032
0000
,
2003
0000
3002
0000
,
1003
0100
0010
0001
,
1001
0101
0100
0000
,
1001
1010
0010
0000
,
1001
1001
0110
0110
,
1000
0000
1000
0000
,
1001
1000
0001
0010
,
0100
1000
0100
0001
,
1000
0100
0010
0001
,
0010
0100
1000
0001
,
1000
0001
1000
0000
1000
0000
0001
0000
,
0001
1000
0001
0000
0001
0000
1000
0000
,
1000
0010
0100
0001
,
1001
0000
0000
0001
0000
0000
0100
0000
,
0000
1000
0000
0000
0010
0000
0000
0001
;

//---------------dance-single - ----------------
#NOTES:
     dance-single:
     :
     Hard:
     8:
     0.583,0.604,0.727,0.028,0.000:
0000
0000
0000
0000
,
1000
0100
1000
0000
0100
0010
0001
0000
,
0001
0010
0001
0000
0010
0100
1000
0000
,
1000
0010
0100
0001
1000
0100
0010
0000
,
1001
0000
0001
0000
0001
0100
0010
0000
,
1001
0000
1000
0000
1000
0010
0100
0000
,
1001
0000
0001
0000
0001
0100
0010
0000
,
1000
0100
0000
0001
0000
0100
0000
0000
,
1001
0000
1000
0000
1000
0100
0010
0000
,
1001
0000
0001
0000
0001
0010
0100
0000
,
1001
0000
1000
0000
0100
0010
0001
0000
,
1000
0010
0000
0001
0000
0100
0000
0000
,
1001
1000
0011
1000
,
0011
0000
1000
0001
0010
0001
0010
0000
,
1001
0000
1000
0000
1000
0010
0100
0000
,
0001
0100
0000
1000
0000
0100
0001
0000
,
1001
0001
1100
0001
,
1100
0000
0001
1000
0100
1000
0100
0000
,
1001
0000
0001
0000
0001
0100
0010
0000
,
1000
0100
0000
0001
0100
0010
0100
0000
,
1001
0000
0000
1100
0000
0000
1100
0000
,
1001
0000
0000
0011
0000
0000
0011
0000
,
1001
0000
0000
1100
0000
0000
1100
0000
,
1001
0000
0000
0011
0000
0000
0011
0000
,
1001
0000
0000
1000
0010
0000
0000
1000
,
0010
0000
0000
1000
0100
0010
0001
0000
,
1001
0000
0001
0100
0000
1000
0010
0000
,
1000
0100
0010
0001
1000
0000
1000
0000
,
1001
0000
0010
0000
1000
0001
0010
0000
,
0001
0000
0100
0000
0001
1000
0100
0000
,
1001
0000
0100
0000
0001
1000
0100
0000
,
1000
0100
0000
0001
0000
0010
0000
0000
,
1001
1000
0101
1000
,
0101
0000
1000
0001
0100
0001
0100
0000
,
1001
0000
0010
0001
0010
1000
0000
0010
,
0000
1010
0000
0100
0000
0101
0000
0000
,
1001
0001
1010
0001
,
1010
0000
0001
1000
0010
1000
0010
0000
,
1001
0000
0100
1000
0100
0001
0000
0100
,
0000
0101
0000
1001
0000
0000
0000
0000
,
1001
0000
0000
0011
0000
0000
0011
0000
,
1001
0000
0000
1100
0000
0000
1100
0000
,
1001
0000
0000
0011
0000
0000
0011
0000
,
1001
0000
0000
1100
0000
0000
1100
0000
,
1001
0000
1000
0100
0001
0000
1000
0100
,
0001
0000
0010
0100
1000
0010
1000
0000
,
1001
0000
1000
0010
0000
0001
0100
0000
,
0220
0000
0000
0330
,
1010
0000
1001
0000
1000
0001
0100
0000
,
0101
0000
1001
0000
0001
1000
0010
0000
,
1010
0000
1001
0000
1000
0001
0100
0000
,
0101
0000
1001
0000
0100
0001
1000
0000
,
0001
0010
1000
0000
0001
0010
1000
0000
,
0001
0010
1000
0000
0010
0100
0001
0000
,
1000
0100
0001
0000
1000
0100
0001
0000
,
1000
0000
0100
0000
0001
0010
0100
0000
,
1001
0000
0100
0000
0001
0010
1000
0000
,
0100
0000
0001
0010
1000
0010
0001
0000
,
1001
0000
0010
0000
1000
0100
0001
0000
,
1000
0000
0001
0010
1000
0010
0001
0000
,
0100
0010
1010
0000
0010
0000
1001
0000
,
0010
0100
0101
0000
0100
0000
1001
0000
,
0001
0010
0100
1000
0001
0010
0100
1000
,
0020
0000
0130
0000
,
1001
0001
0010
0100
1000
0010
0001
0010
,
1000
0001
0010
0100
1000
0100
0001
0100
,
1000
0001
0010
0100
1000
0010
0001
0010
,
1000
0100
0001
0010
0100
1000
0010
0000
,
1000
0010
0110
0000
0001
0010
1000
0010
,
0001
0100
0110
0000
1000
0100
0001
0100
,
1100
0011
1100
0011
,
1001
0000
0001
0010
0000
1000
0010
0000
,
0001
0100
0000
1000
0100
0000
0001
1000
;

//---------------dance-single - ----------------
#NOTES:
     dance-single:
     :
     Challenge:
     8:
     0.687,0.637,0.617,0.129,0.009:
0100
0010
0001
1000
,
0001
0100
0010
1000
0002
0010
0013
0000
,
1000
0010
0100
0001
2000
0100
3100
0000
,
0001
0010
0100
1000
0010
0100
0001
0000
,
1001
0000
0001
0100
0001
1000
0100
0000
,
0100
1000
0100
0010
0001
0010
0001
0000
,
1001
0000
1000
0010
1000
0001
1000
0001
,
0010
0001
0000
0101
0000
0101
0000
0000
,
0010
1000
0100
1000
0100
0010
0001
0000
,
0001
0010
0001
1000
0010
1000
0010
0000
,
0100
0001
0010
0001
0010
0100
1000
0010
,
1000
0010
0000
1010
0000
1010
0000
0000
,
0110
0001
0110
1000
,
0110
0000
0001
1000
0100
0010
0001
1000
,
1001
0000
0001
1000
0010
1000
0010
0100
,
0001
0010
0000
0011
0000
1001
0000
0000
,
0110
1000
0110
0001
,
0110
0000
1000
0001
0010
0100
1000
0001
,
1001
0000
1000
0001
0100
0001
0100
0010
,
1000
0100
0000
1100
0000
1001
0000
0000
,
0001
0100
0001
2000
0000
0001
3001
0000
,
1001
0000
1000
0020
0000
1000
1030
0000
,
1001
0000
0001
0200
0000
0001
0301
0000
,
1000
0100
1000
0002
0000
1000
1003
0000
,
1001
0000
1000
0100
0001
0000
0001
0100
,
1000
0000
1000
0100
0001
0010
0100
1000
,
1001
0000
0001
0101
0000
1000
1100
0000
,
1000
0100
0010
0001
0010
0100
1000
0000
,
1001
0000
0001
0100
0001
1000
0100
0000
,
1100
0000
0010
0001
1000
0010
1000
0000
,
1001
0000
1000
0010
1000
0001
0010
0100
,
1000
0010
0000
1010
0000
1001
0000
0000
,
0110
1000
0110
0001
,
0110
0000
1000
0001
0010
0100
1000
0001
,
1001
0000
1000
0001
1000
0100
0000
1000
,
0000
1001
0000
0001
0000
0101
0000
0000
,
0110
0001
0110
1000
,
0110
0000
0001
1000
0100
0010
0001
1000
,
1001
0000
0001
1000
0001
0010
0000
0001
,
0000
1001
0000
1000
0010
1000
1010
0000
,
1001
0000
1000
0020
0000
1000
1030
0001
,
0100
0000
0001
0200
0000
0001
0301
1000
,
0100
0000
1000
0200
0000
1000
1300
0001
,
0010
0000
0001
0020
0000
0001
0031
1000
,
1001
0000
0001
0100
1000
0000
1000
0100
,
0001
0000
0001
0100
1000
0100
0010
0001
,
1001
0000
1000
1100
0000
0001
0202
0000
,
0000
0000
0000
0303
,
1001
0000
0011
0000
0100
1000
0001
1000
,
1001
0000
1100
0000
0010
0001
1000
0001
,
1001
0000
1010
0000
0100
0001
1000
0001
,
1001
0000
0101
0000
0010
1000
0001
0000
,
1001
0000
0001
1000
0100
0000
1000
0001
,
0100
0000
0001
1000
0010
0000
1000
0001
,
0010
0000
0001
1000
0100
0000
1000
0001
,
0010
0000
0010
0000
0010
0010
0010
0000
,
0001
0010
0100
1000
0100
0001
0100
0000
,
1000
0100
0010
0001
0010
1000
0010
0000
,
0001
0010
0100
1000
0100
0001
0100
1000
,
0100
0010
0001
0010
1000
0010
0001
0000
,
1000
0010
1010
0000
0100
0001
0101
0000
,
0010
1000
1100
0000
0010
0001
0011
0000
,
1001
0100
0010
0001
0010
1000
0100
0010
,
0002
1003
2000
3001
,
1001
0010
0100
1000
0100
0001
0100
1000
,
0010
0000
0100
0000
0001
0000
1000
0000
0001
1000
0001
0000
0010
0000
0100
0000
,
1000
0010
0001
0010
0100
1000
0001
0100
,
1000
0000
0001
0000
0100
0000
0001
1000
0001
0000
0010
0000
0100
0000
1000
0000
,
1001
0100
0010
0001
1000
0100
0001
0010
,
1000
0100
0010
0001
1000
0100
0001
0010
,
1000
0001
0010
0100
1000
0001
0100
1000
,
1001
0000
0001
0101
0000
1000
1100
0000
,
0001
0011
0000
1000
1010
0000
0001
1000
;

//---------------dance-single - ----------------
#NOTES:
     dance-single:
     :
     Medium:
     6:
     0.480,0.470,0.598,0.009,0.000:
0000
0000
0000
0000
,
0010
1001
0010
1001
,
0100
1001
0100
1001
,
0010
0001
0010
0100
,
1001
0000
1000
0000
0010
0100
0001
0000
,
1000
0000
0001
0000
0100
0010
1000
0000
,
1001
0000
1000
0000
0010
0100
0001
0000
,
0100
0001
0000
1000
0000
1000
0000
0000
,
1001
0000
0001
0000
0100
0010
1000
0000
,
1001
0000
1000
0000
0010
0100
0001
0000
,
1001
0000
0001
0000
0100
0010
1000
0000
,
0010
1000
0000
0001
0000
0001
0000
0000
,
1001
1000
1001
0001
,
1001
0000
0000
0100
0000
0100
0001
0000
,
1001
1000
0010
1000
,
0001
0010
0000
0100
0000
0100
0000
0000
,
1001
0001
1001
1000
,
1001
0000
0000
0010
0000
0010
1000
0000
,
1001
0001
0100
0001
,
1000
0100
0000
0010
0001
0010
0000
0000
,
1001
0000
0000
0001
0000
0000
0101
0000
,
1001
0000
0000
1000
0000
0000
1010
0000
,
1001
0000
0000
0001
0000
0000
0101
0000
,
1001
0000
0000
1000
0000
0000
1010
0000
,
1001
0000
0000
0001
0010
0000
0000
0001
,
0010
1000
0010
0100
,
0110
0000
0000
0110
0000
0000
1001
0000
,
0000
0000
0000
0000
,
1001
0100
0010
0001
,
0100
1000
0001
0100
,
1001
0010
0100
1000
,
0100
0001
0000
0100
0000
0100
0000
0000
,
1001
0001
1001
1000
,
1001
0000
0000
0010
0000
0010
1000
0000
,
1001
0000
0001
0000
0010
0000
1000
0100
,
0000
0100
0000
0010
0000
0010
0000
0000
,
1001
1000
1001
0001
,
1001
0000
0000
0100
0000
0100
0001
0000
,
1001
0000
0100
0000
0010
0000
0001
0010
,
0000
0010
0000
0100
1000
0100
0000
0000
,
1001
0000
0000
1100
0000
0000
0100
0000
,
1001
0000
0000
0011
0000
0000
0010
0000
,
1001
0000
0000
1100
0000
0000
0100
0000
,
1001
0000
0000
0011
0000
0000
0010
0000
,
1001
0000
0000
1000
0100
0000
0000
1000
,
0100
0000
0000
1000
0001
0000
0100
0000
,
0110
0000
0000
0110
0000
0000
1001
0000
,
0000
0000
0000
0000
,
1000
0000
0100
0000
0001
1000
0001
0000
,
1000
0000
0100
0000
0001
1000
0001
0000
,
0010
0000
1000
0000
0001
1000
0001
0000
,
0010
0000
1000
0000
0001
1000
0001
0000
,
1001
0001
0101
0001
,
1001
1000
1010
1000
,
1001
0000
0001
0000
,
0100
0000
0100
0000
0100
0010
0100
0000
,
1001
1000
0010
0000
,
1001
0001
0100
0000
,
1001
1000
0010
1000
,
0100
0010
0001
1000
,
0010
0100
0001
0000
0010
0100
1000
0000
,
0010
0100
0001
0000
0010
0100
1000
0000
,
0010
0100
0010
0100
0010
0100
0010
0000
,
0020
0000
0130
0000
,
0001
0010
0100
0000
1000
0100
0010
0000
,
0001
0100
0010
0000
1000
0100
0010
0001
,
1000
0010
0100
0000
0001
0010
0100
0000
,
1000
0010
0100
0001
1000
0100
0010
0000
,
0001
0100
0010
0000
1000
0100
0010
0000
,
0001
0100
0010
0000
1000
0100
0010
0001
,
1000
0010
0100
0000
0001
0100
1000
0000
,
1001
0000
0000
0101
0000
0000
1001
0000
,
0000
1100
0000
0000
1001
0000
0000
0011
;

//---------------dance-single - ----------------
#NOTES:
     dance-single:
     :
     Beginner:
     2:
     0.112,0.202,0.092,0.000,0.000: // measure 1
0000
0000
0000
0000
,  // measure 2
0000
1000
0000
0001
,  // measure 3
0000
0001
0000
0001
,  // measure 4
0000
1000
0000
1000
,  // measure 5
1001
0000
0000
0000
,  // measure 6
0000
0010
0000
0100
,  // measure 7
0000
0010
0000
1000
,  // measure 8
0000
0000
0000
0000
,  // measure 9
0000
0001
0000
1000
,  // measure 10
0000
0001
0000
0100
,  // measure 11
0000
0010
0000
0100
,  // measure 12
0000
0000
0000
0000
,  // measure 13
0001
0000
0001
0000
,  // measure 14
0001
0000
0000
1000
,  // measure 15
0000
0010
0000
1000
,  // measure 16
0000
0000
0000
0000
,  // measure 17
1000
0000
1000
0000
,  // measure 18
1000
0000
0000
0000
,  // measure 19
0000
0001
0000
0100
,  // measure 20
0000
0001
0000
0000
,  // measure 21
1001
0000
0000
0000
,  // measure 22
0000
0000
0000
0000
,  // measure 23
1001
0000
0000
0000
,  // measure 24
0000
0000
0000
0000
,  // measure 25
1001
0000
0000
0000
,  // measure 26
0000
0000
0000
0000
,  // measure 27
0010
0000
0000
0000
,  // measure 28
0000
0000
0000
0000
,  // measure 29
0100
0000
0000
0000
,  // measure 30
0000
0000
0000
0000
,  // measure 31
0010
0000
0000
0000
,  // measure 32
0000
0000
0000
0000
,  // measure 33
1000
0000
1000
0000
,  // measure 34
1000
0000
0000
0000
,  // measure 35
0000
0001
0000
0100
,  // measure 36
0000
0001
0000
0000
,  // measure 37
0001
0000
0001
0000
,  // measure 38
0001
0000
0000
0000
,  // measure 39
0000
1000
0000
0010
,  // measure 40
0000
1000
0000
0000
,  // measure 41
0010
0000
0000
0000
,  // measure 42
0000
0000
0000
0000
,  // measure 43
0100
0000
0000
0000
,  // measure 44
0000
0000
0000
0000
,  // measure 45
0001
0000
0000
0000
,  // measure 46
1000
0000
0000
0000
,  // measure 47
0001
0000
0000
0000
,  // measure 48
0000
0000
0000
0000
,  // measure 49
1001
0000
0000
0000
,  // measure 50
0000
0000
0000
0000
,  // measure 51
0110
0000
0000
0000
,  // measure 52
0000
0000
0000
0000
,  // measure 53
1001
0000
0000
0000
,  // measure 54
0000
0000
0000
0000
,  // measure 55
1000
0000
0000
0000
,  // measure 56
0001
0000
0000
0000
,  // measure 57
0100
0000
0000
0000
,  // measure 58
0100
0000
0000
0000
,  // measure 59
0100
0000
0000
0000
,  // measure 60
0010
0000
0000
0000
,  // measure 61
0010
0000
0000
0000
,  // measure 62
0010
0000
0000
0000
,  // measure 63
1001
0000
0000
0000
,  // measure 64
1000
0000
0001
0000
,  // measure 65
1000
0000
0000
0000
,  // measure 66
0010
0000
0000
0000
,  // measure 67
0100
0000
0000
0000
,  // measure 68
0001
0000
0000
0000
,  // measure 69
0010
0000
0000
0000
,  // measure 70
0001
0000
0000
0000
,  // measure 71
1000
0000
0000
0000
,  // measure 72
1001
0000
0000
0000
,  // measure 73
0000
0000
0000
0000
,  // measure 74
1001
0000
0000
0000
;
