#TITLE:검은고양이;
#SUBTITLE:;
#ARTIST:TURBO;
#TITLETRANSLIT:black cat;
#SUBTITLETRANSLIT:;
#ARTISTTRANSLIT:;
#CREDIT:DMAxel;
#BANNER:black cat.png;
#BACKGROUND:black cat-bg.PNG;
#LYRICSPATH:;
#CDTITLE:PUMP IT UP.png;
#MUSIC:black cat.MP3;
#OFFSET:0.040;
#SAMPLESTART:40.640;
#SAMPLELENGTH:12.000;
#SELECTABLE:YES;
#BPMS:0.000=143.000;
#STOPS:;
#BGCHANGES:-0.500=black cat.avi=1.000=1=1=0,
99999=-nosongbg-=1.000=0=0=0 // don't automatically add -songbackground-
;

//---------------dance-single - ----------------
#NOTES:
     dance-single:
     :
     Easy:
     2:
     0.166,0.253,0.100,0.000,0.000: // measure 1
0000
0000
0000
0000
,  // measure 2
0000
0000
0000
0000
,  // measure 3
1001
0000
0000
0000
,  // measure 4
0110
0000
0000
0000
,  // measure 5
1001
0000
0000
0000
,  // measure 6
0110
0000
0000
0000
,  // measure 7
0000
0000
0000
0000
,  // measure 8
1000
0000
1000
0000
,  // measure 9
0001
0000
0001
0000
,  // measure 10
0010
0000
0010
0000
,  // measure 11
0001
0000
1000
0000
,  // measure 12
0001
0000
0001
0000
,  // measure 13
1000
1000
1000
0000
,  // measure 14
0010
0000
0010
0000
,  // measure 15
0100
0000
0100
0000
,  // measure 16
0001
1000
0001
0000
,  // measure 17
1000
0000
0000
0000
,  // measure 18
0010
0000
0000
0000
,  // measure 19
1000
0000
0000
0000
,  // measure 20
0001
0000
0000
0000
,  // measure 21
0100
0000
0000
0000
,  // measure 22
0001
0000
0000
0000
,  // measure 23
1000
0000
0000
0000
,  // measure 24
0001
0000
0000
0000
,  // measure 25
1001
0000
0000
0000
,  // measure 26
1000
0000
0100
0000
,  // measure 27
0010
0000
0001
0000
,  // measure 28
0001
0000
0001
0000
,  // measure 29
1001
0000
0000
0000
,  // measure 30
0001
0000
0010
0000
,  // measure 31
0100
0000
1000
0000
,  // measure 32
1000
0000
1000
0000
,  // measure 33
1001
0000
0000
0000
,  // measure 34
0000
0010
0010
0000
,  // measure 35
1001
0000
1000
0000
,  // measure 36
0100
0000
0010
0000
,  // measure 37
0001
0000
1000
0000
,  // measure 38
0001
0000
1000
0000
,  // measure 39
0001
0000
0010
0000
,  // measure 40
0100
0000
1000
0000
,  // measure 41
0001
0000
1000
0000
,  // measure 42
0010
0000
0000
0000
,  // measure 43
0010
0100
0010
0000
,  // measure 44
0100
0010
0100
0000
,  // measure 45
0001
1000
0001
1000
,  // measure 46
0001
0001
1000
1000
,  // measure 47
0010
0100
0010
0000
,  // measure 48
0100
0010
0100
0000
,  // measure 49
0001
0001
1000
1000
,  // measure 50
0001
0010
0100
1000
,  // measure 51
0001
1000
1000
1001
;

//---------------dance-single - ----------------
#NOTES:
     dance-single:
     :
     Medium:
     5:
     0.382,0.422,0.399,0.067,0.000:
0000
0000
0000
0000
,
0000
0000
0000
0000
,
1001
0001
0001
0010
,
1001
1000
1000
0100
,
1001
0001
0001
0100
,
1001
1000
1000
0010
,
2002
0000
0000
3003
,
1000
1000
0001
0010
,
0001
0001
1000
0100
,
1000
0001
1000
0000
0110
0000
0110
0000
,
0001
1000
0001
0000
0110
0000
0110
0000
,
1000
1000
0001
0100
,
0001
0001
1000
0010
,
1000
0001
1000
0000
0001
1000
0001
0000
,
1000
0001
1000
0000
0001
1000
0001
0000
,
0010
0100
1000
1001
,
1000
0100
1000
0100
,
1000
0001
1000
0001
,
0010
0001
0010
0001
,
1000
0001
1000
0000
,
0010
0100
0010
0100
,
0001
0100
0001
0100
,
0010
1000
0010
1000
,
0100
0000
0010
0000
0001
0000
1000
0001
,
1000
0000
0000
0000
,
1100
0001
1100
0001
,
1100
0001
0010
0100
,
1001
0000
0010
0100
0010
0000
0010
0000
,
1001
0000
0000
1001
0000
0000
0000
0000
,
0011
1000
0011
1000
,
0011
1000
0100
0010
,
1001
0000
0100
0010
0100
0000
0100
0000
,
1001
0000
0001
1000
0001
1000
0001
1000
,
0001
0011
0011
0000
,
1002
0000
0000
0010
,
0010
0013
0100
1100
,
2001
0000
0000
0100
,
0100
3100
0010
0011
,
1002
0000
0000
0010
,
0010
0013
0100
1100
,
2001
0000
0000
3100
,
1001
0000
0000
0000
,
0001
0000
0001
0000
1000
0001
1000
0000
,
1000
0000
1000
0000
0001
1000
0001
0000
,
0100
0010
0100
0000
0001
0001
0001
0000
,
0100
0010
0100
0000
0001
0001
0001
0000
,
1001
0000
0001
0000
1000
0001
1000
0000
,
0110
0110
1001
0000
,
0001
1000
0001
0000
1000
0100
1000
0000
,
0001
0010
0001
0000
1000
0001
1000
0000
,
0010
0100
0010
0100
0010
0000
1001
0000
;

//---------------dance-single - ----------------
#NOTES:
     dance-single:
     :
     Hard:
     7:
     0.458,0.478,0.721,0.067,0.044:
0000
0000
0000
0000
,
0000
0000
0000
0000
,
1100
0000
0000
0100
0000
0000
0100
0000
0000
0000
0000
0000
0000
0000
0000
0000
,
0011
0000
0000
0010
0000
0000
0010
0000
0000
0000
0000
0000
0000
0000
0000
0000
,
1010
0000
0000
1000
0000
0000
1000
0000
0000
0000
0000
0000
0000
0000
0000
0000
,
0101
0000
0000
0001
0000
0000
0001
0000
0000
0000
0000
0000
0000
0000
0000
0000
,
2002
0000
0000
3003
,
0011
0000
1000
0000
0010
1000
0010
0000
,
1100
0000
0001
0000
0100
0001
0100
0001
,
0100
0000
0110
0000
0001
0001
0001
0000
,
0110
0000
0110
0000
1000
1000
1000
0000
,
1100
0000
0001
0000
0100
0001
0100
0000
,
0011
1000
0110
0001
,
0100
0010
0100
0000
0010
1000
0010
1000
,
0010
0000
0110
0000
1000
0100
0010
0001
,
1000
0100
1000
0100
1000
0000
1001
0000
,
0010
1000
0010
0001
,
0010
0100
1000
0100
,
0001
0100
1000
0100
,
0010
0000
0001
0000
1000
0010
0010
0000
,
0110
1000
0001
1000
,
0010
0001
0010
1000
,
0100
0010
0001
0100
,
1000
0000
0100
0000
0001
0000
0100
0100
,
0220
0000
0000
0330
,
1100
1001
1100
1001
,
0011
0000
1001
0000
0100
1000
0100
0000
,
1001
0110
0101
0110
,
1001
0000
0000
1001
0000
0000
0010
0000
,
0011
1001
0011
1001
,
1100
0000
1001
0000
0010
0001
0010
0000
,
1001
0000
0010
0100
0010
1000
0010
0000
,
1001
0000
1000
0001
1000
0001
1000
0001
,
1000
1100
1100
0010
,
1001
0000
0000
0001
0000
0000
0010
0000
0000
0000
0000
0000
0010
0000
0000
0000
,
0010
0010
0011
1010
,
1001
0000
0000
1000
0000
0000
0100
0000
0000
0000
0000
0000
0100
0000
0000
0000
,
0100
0100
1100
0101
,
1001
0000
0000
1000
0000
0000
0010
0000
0000
0000
0000
0000
0110
0000
0000
0000
,
0001
1000
0011
1010
,
1001
0000
0000
0001
0000
0000
0100
0000
0000
0000
0000
0000
0100
0000
0000
0000
,
2002
0000
0000
3003
,
1100
0000
0101
0000
0010
1000
0100
0000
,
0011
0000
1010
0000
0100
0001
0010
0001
,
0010
0000
0110
0000
1000
1000
1000
0000
,
0110
0000
0110
0000
0001
0001
0001
0000
,
1001
0000
0011
0000
0010
1000
0100
0000
,
0110
0000
0110
0000
1000
0010
1000
0010
,
1000
0001
1000
0000
1100
0000
0100
0001
,
0010
0000
0110
0000
0001
0010
0100
1000
,
0001
1000
0001
1000
0001
0000
1001
0000
;

//---------------dance-single - ----------------
#NOTES:
     dance-single:
     :
     Challenge:
     8:
     0.621,0.619,0.710,0.044,0.233:
0000
0000
0000
0000
,
0000
0000
0000
0000
,
1001
0000
0000
0000
0000
0000
0000
0000
0000
0011
0000
0000
0000
0000
0000
0000
0000
0000
0011
0000
0000
0000
0000
0000
0000
0000
0000
0000
0000
0000
0000
1000
0000
0000
0000
0010
0000
0000
0000
1000
0000
0000
0000
0010
0000
0000
0000
0000
,
1001
0000
0000
0000
0000
0000
0000
0000
0000
1100
0000
0000
0000
0000
0000
0000
0000
0000
1100
0000
0000
0000
0000
0000
0000
0000
0000
0000
0000
0000
0000
0001
0000
0000
0000
0100
0000
0000
0000
0001
0000
0000
0000
0100
0000
0000
0000
0000
,
1001
0000
0000
0000
0000
0000
0000
0000
0000
0101
0000
0000
0000
0000
0000
0000
0000
0000
0101
0000
0000
0000
0000
0000
0000
0000
0000
0000
0000
0000
0000
1000
0000
0000
0000
0100
0000
0000
0000
1000
0000
0000
0000
0100
0000
0000
0000
0000
,
1001
0000
0000
0000
0000
0000
0000
0000
0000
1010
0000
0000
0000
0000
0000
0000
0000
0000
1010
0000
0000
0000
0000
0000
0000
0000
0000
0000
0000
0000
0000
0001
0000
0000
0000
0010
0000
0000
0000
0001
0000
0000
0000
0010
0000
0000
0000
0000
,
2002
0000
0000
0000
0000
3003
0000
0100
,
0100
1000
0100
0001
0010
0100
1000
0010
,
0010
0001
0010
1000
0100
0010
0001
1000
,
0001
0100
0100
1000
0100
0010
1001
0000
,
0010
0010
0010
0001
0010
0100
1001
0000
,
0100
0100
0100
0001
0010
0100
1000
0001
,
1000
1100
1001
0101
,
0010
0010
0010
1000
0100
0010
0001
0100
,
1000
1000
0100
0010
0001
0010
0100
1000
,
0001
0010
0001
0010
0001
0000
1001
0000
,
0100
0001
0100
0000
1001
0000
0110
0000
,
0010
1000
0010
0000
1001
0000
0110
0000
,
0100
0001
0100
0000
1001
0000
0110
0000
,
0010
1000
0010
0000
0100
0001
0001
1000
,
0001
0010
0001
0010
0001
0000
0110
0000
,
1000
0100
1000
0100
0010
0000
1001
0000
,
0010
0001
0010
0001
1000
0100
1000
0100
,
0010
0001
0010
0100
1000
0000
0010
1000
,
1100
0000
1000
0100
0010
0001
1000
0000
,
1100
1000
0001
0000
1100
1000
0001
0000
,
1100
1000
0001
0001
0010
0001
0010
0100
,
1001
0110
1010
0110
,
0101
0000
1000
1001
0000
1000
0100
0010
,
0011
0001
1000
0000
0011
0001
1000
0000
,
0011
0001
1000
1000
0100
1000
0100
0010
,
1001
0000
0001
0001
0010
0001
0010
0100
,
1001
0000
0001
0010
0100
0010
0100
0010
,
0100
1010
1001
0110
,
1001
0000
0000
0000
0000
0000
0000
0000
0000
1100
0000
0000
0000
0000
0000
0000
0000
0000
1100
0000
0000
0000
0000
0000
0000
0000
0000
0000
0000
0000
0000
0000
1000
0000
0000
0000
0010
0000
0000
0000
1000
0000
0000
0000
0010
0000
0000
0000
,
1000
0000
0010
0000
1000
0000
0010
0000
0000
0000
0000
0000
1010
0000
0000
1000
0000
0000
0001
0000
0000
0000
0000
0000
,
1001
0000
0000
0000
0000
0000
0000
0000
0000
0011
0000
0000
0000
0000
0000
0000
0000
0000
0011
0000
0000
0000
0000
0000
0000
0000
0000
0000
0000
0000
0000
0000
0001
0000
0000
0000
0100
0000
0000
0000
0001
0000
0000
0000
0100
0000
0000
0000
,
0001
0000
0100
0000
0001
0000
0100
0000
0000
0000
0000
0000
0101
0000
0000
0001
0000
0000
1000
0000
0000
0000
0000
0000
,
1001
0000
0000
0000
0000
0000
0000
0000
0000
0101
0000
0000
0000
0000
0000
0000
0000
0000
0101
0000
0000
0000
0000
0000
0000
0000
0000
0000
0000
0000
0000
0000
0001
0000
0000
0000
0010
0000
0000
0000
0001
0000
0000
0000
0010
0000
0000
0000
,
0001
0000
0010
0000
0001
0000
0010
0000
0000
0000
0000
0000
0011
0000
0000
0001
0000
0000
1000
0000
0000
0000
0000
0000
,
1001
0000
0000
0000
0000
0000
0000
0000
0000
1010
0000
0000
0000
0000
0000
0000
0000
0000
1010
0000
0000
0000
0000
0000
0000
0000
0000
0000
0000
0000
0000
0000
1000
0000
0000
0000
0100
0000
0000
0000
1000
0000
0000
0000
0100
0000
0000
0000
,
2002
0000
0000
0000
0000
3003
0000
0010
,
0010
0001
0010
1000
0100
0010
0001
0100
,
0100
1000
0100
0001
0010
0100
1000
0001
,
1000
0010
0100
0001
0100
0100
0110
0000
,
0001
0010
0100
1000
0010
0010
0110
0000
,
0100
0100
1000
0100
0001
0010
0100
1000
,
0010
0010
0100
0100
0001
0010
0100
1000
,
0010
0010
0001
0010
1000
0100
0010
0001
,
0100
0100
1000
0100
0001
0010
0100
1000
,
0100
0010
0100
0010
0100
0000
1001
0000
;

//---------------dance-single - ----------------
#NOTES:
     dance-single:
     :
     Beginner:
     1:
     0.070,0.113,0.033,0.000,0.000:
0000
0000
0000
0000
,
0000
0000
0000
0000
,
0001
0000
0000
0000
,
0001
0000
0000
0000
,
0001
0000
0000
0000
,
1000
0000
0000
0000
,
1000
0000
0000
0000
,
0001
0000
0000
0000
,
0001
0000
0000
0000
,
1000
0000
0000
0000
,
1000
0000
0000
0000
,
0100
0000
0000
0000
,
0010
0000
0000
0000
,
0001
0000
0000
0000
,
0001
0000
0000
0000
,
1000
0000
0000
0000
,
0001
0000
0000
0000
,
0000
0000
0000
0000
,
0100
0000
0000
0000
,
0000
0000
0000
0000
,
0010
0000
0000
0000
,
0000
0000
0000
0000
,
1000
0000
0000
0000
,
0000
0000
0000
0000
,
1001
0000
0000
0000
,
1000
0000
0000
0000
,
0010
0000
0000
0000
,
0100
0000
0000
0000
,
0001
0000
0000
0000
,
0010
0000
0000
0000
,
0100
0000
0000
0000
,
1000
0000
0000
0000
,
0001
0000
0000
0000
,
0000
0000
0000
0000
,
1000
0000
0000
0000
,
0000
0000
0000
0000
,
1000
0000
0000
0000
,
0000
0000
0000
0000
,
0001
0000
0000
0000
,
0000
0000
0000
0000
,
0001
0000
0000
0000
,
1001
0000
0000
0000
,
0010
0000
0000
0000
,
0010
0000
0000
0000
,
0100
0000
0000
0000
,
0100
0000
0000
0000
,
0010
0000
0000
0000
,
0010
0000
0000
0000
,
1000
0000
0000
0000
,
0001
0000
0000
0000
,
0000
0000
0000
1001
;
