#TITLE:beatmaniaII ENDING THEME ~Cross fade;
#SUBTITLE:;
#ARTIST:dj nagureo;
#TITLETRANSLIT:;
#SUBTITLETRANSLIT:;
#ARTISTTRANSLIT:;
#CREDIT:DMAxel;
#BANNER:beatmaniaII ENDING THEME ~Cross fade.png;
#BACKGROUND:beatmaniaII ENDING THEME ~Cross fade-bg.png;
#LYRICSPATH:;
#CDTITLE:Konami original.png;
#MUSIC:beatmaniaII ENDING THEME ~Cross fade.mp3;
#OFFSET:-10.800;
#SAMPLESTART:10.840;
#SAMPLELENGTH:12.000;
#SELECTABLE:YES;
#BPMS:0.000=100.000;
#STOPS:;
#BGCHANGES:;

//---------------dance-single - ----------------
#NOTES:
     dance-single:
     :
     Easy:
     2:
     0.113,0.110,0.041,0.095,0.000: // measure 1
0001
0000
1000
0000
,  // measure 2
0020
0000
1000
0030
,  // measure 3
1000
0000
0001
0000
,  // measure 4
0200
0000
0001
0300
,  // measure 5
0001
0000
1000
0000
,  // measure 6
0200
0000
0010
0300
,  // measure 7
1001
0000
0000
0001
0000
0000
0000
0000
,  // measure 8
2000
0000
0010
0000
,  // measure 9
3010
0000
1000
0000
,  // measure 10
0002
0000
1000
0000
,  // measure 11
1003
0000
0010
0000
,  // measure 12
0100
0001
0100
0000
,  // measure 13
0002
0000
1000
0000
,  // measure 14
1003
0000
0001
0000
,  // measure 15
1001
0000
0000
1000
0000
0000
0000
0000
,  // measure 16
0002
0000
0000
1003
,  // measure 17
1000
0000
0001
0000
,  // measure 18
1000
0000
0100
0000
,  // measure 19
0010
0000
0001
0000
,  // measure 20
0100
0000
0001
0000
,  // measure 21
1001
0000
1000
0000
,  // measure 22
0001
0000
1000
0000
,  // measure 23
0010
0000
0100
0000
,  // measure 24
0010
0000
0000
0000
;

//---------------dance-single - ----------------
#NOTES:
     dance-single:
     :
     Hard:
     7:
     0.389,0.314,0.123,0.123,0.198: // measure 1
0001
0010
0100
0010
0000
0001
0100
1000
,  // measure 2
0002
0000
0000
0000
1003
0000
0000
1000
0001
0000
0100
0000
0001
0000
0001
0000
,  // measure 3
1000
0100
0010
0100
0000
1000
0100
0001
,  // measure 4
2000
0000
0000
0000
3001
0000
0000
0001
1000
0000
0100
0000
1000
0000
1000
0000
,  // measure 5
0001
0000
0010
0000
0100
0000
1000
0010
1000
0000
0001
0000
0001
0000
0100
0000
,  // measure 6
0020
0000
0000
0000
1030
0000
0000
0010
1000
0000
0001
0000
0010
0000
0010
0000
,  // measure 7
0011
0000
0000
1001
0000
0100
0001
1000
,  // measure 8
0100
0000
0010
0000
0110
0000
0000
0100
0001
0000
1000
0000
0100
1000
0100
1000
,  // measure 9
0100
0000
1000
0000
0001
0000
0010
0001
0100
0000
0010
0000
1000
0000
0100
0000
,  // measure 10
0020
0000
0000
0000
0130
0000
0000
1000
0001
0000
0010
0000
0001
0000
0001
0000
,  // measure 11
0100
0000
0001
0000
1000
0000
0100
1000
0010
0000
0100
0000
0001
0000
0010
0000
,  // measure 12
0200
0000
0000
0000
0310
0000
0000
0001
1000
0000
0100
0000
1000
0000
1000
0000
,  // measure 13
0110
0000
0001
0000
1000
0000
0100
0010
0001
0000
1000
0000
0100
0000
0010
0000
,  // measure 14
0200
0000
0000
0000
1300
0000
0000
1000
0001
0000
0010
0000
0001
0000
0001
0000
,  // measure 15
0110
0000
1000
0000
0010
0000
0101
0000
0000
0000
0010
1000
0001
0000
0010
0000
,  // measure 16
0100
0100
1000
1000
0001
0001
1001
0000
,  // measure 17
1100
0000
0000
0001
0100
0000
0100
0001
1000
0000
0100
0000
0010
0200
0000
0000
,  // measure 18
0310
0000
0001
0000
1000
0000
0000
0001
1000
0000
1000
0000
1000
0000
0100
0000
,  // measure 19
0010
0000
0000
0000
0001
0000
0010
0100
1000
0000
0001
0000
0100
0000
0010
1000
,  // measure 20
0000
0100
0000
0010
0000
0100
0000
1000
0001
0000
0001
0000
1000
0000
1000
0000
,  // measure 21
0011
0000
0000
1000
0010
0000
0010
1000
0001
0000
0010
0000
0100
0020
0000
0000
,  // measure 22
0130
0000
1000
0000
0001
0000
0000
1000
0001
0000
0001
0000
0001
0000
0010
0000
,  // measure 23
0100
0000
0000
0000
1000
0000
0100
0010
0001
0000
1000
0000
0020
0000
0100
0000
,  // measure 24
0130
0000
0000
0000
;

//---------------dance-single - ----------------
#NOTES:
     dance-single:
     :
     Medium:
     4:
     0.278,0.235,0.164,0.286,0.000: // measure 1
0001
0100
0001
2000
0000
0000
0100
0000
,  // measure 2
3100
0000
1000
0001
0000
0000
1001
0000
,  // measure 3
1000
0010
1000
0002
0000
0000
0010
0000
,  // measure 4
0023
0032
2003
3200
,  // measure 5
1300
0100
1000
0002
0000
0000
0100
0000
,  // measure 6
0203
0302
2003
3010
,  // measure 7
1010
0000
0000
1001
0000
0000
0001
1000
,  // measure 8
0001
0100
0101
0000
1100
0000
0001
0001
,  // measure 9
0001
0010
0001
2000
0000
0000
0010
0000
,  // measure 10
3010
0000
1000
0001
0000
0000
0000
0000
,  // measure 11
1000
0100
1000
0002
0000
0000
0100
0000
,  // measure 12
0203
0302
2003
3200
,  // measure 13
1300
0100
0010
0002
0000
0000
1000
0000
,  // measure 14
2003
3020
0230
0301
,  // measure 15
0101
0000
0000
1001
0000
0000
0000
0000
,  // measure 16
1001
1000
1000
1001
,  // measure 17
0011
0000
0100
1000
0100
0000
0010
0001
,  // measure 18
0010
0000
0100
0000
1000
1000
1000
0000
,  // measure 19
1001
0000
0100
0000
0010
0001
0010
0000
,  // measure 20
0100
1000
0100
0000
0010
0001
1000
1000
,  // measure 21
1001
0000
0001
0200
0000
0010
0000
0310
,  // measure 22
1000
0000
1000
0000
0001
0001
0001
0010
,  // measure 23
0100
0000
1000
0001
1000
0000
0100
0010
,  // measure 24
0001
0000
0000
0000
;

//---------------dance-single - ----------------
#NOTES:
     dance-single:
     :
     Beginner:
     1:
     0.049,0.063,0.027,0.000,0.000: // measure 1
1000
0000
0000
0000
,  // measure 2
0001
0000
0000
0000
,  // measure 3
0001
0000
0000
0000
,  // measure 4
1000
0000
0000
0000
,  // measure 5
0010
0000
0000
0000
,  // measure 6
0100
0000
0000
0000
,  // measure 7
0100
0000
0000
0000
,  // measure 8
0010
0000
0000
0000
,  // measure 9
1000
0000
0000
0000
,  // measure 10
0001
0000
0000
0000
,  // measure 11
1000
0000
0000
0000
,  // measure 12
1000
0000
0000
0000
,  // measure 13
0001
0000
0000
0000
,  // measure 14
0001
0000
0000
0000
,  // measure 15
1001
0000
0000
0000
,  // measure 16
0000
0000
0000
0000
,  // measure 17
1001
0000
0000
0000
,  // measure 18
1000
0000
0000
0000
,  // measure 19
0001
0000
0000
0000
,  // measure 20
1000
0000
0000
0000
,  // measure 21
0010
0000
0000
0000
,  // measure 22
0100
0000
0000
0000
,  // measure 23
0001
0000
0000
0000
,  // measure 24
1000
0000
0000
0000
;
