#TITLE:beatmania CORE REMIX ENDING;
#SUBTITLE:;
#ARTIST:dj nagureo;
#TITLETRANSLIT:;
#SUBTITLETRANSLIT:;
#ARTISTTRANSLIT:;
#CREDIT:DMAxel;
#BANNER:beatmania CORE REMIX ENDING.png;
#BACKGROUND:beatmania CORE REMIX ENDING-bg.png;
#LYRICSPATH:;
#CDTITLE:Konami original.png;
#MUSIC:beatmania CORE REMIX ENDING.mp3;
#OFFSET:-0.620;
#SAMPLESTART:31.312;
#SAMPLELENGTH:12.000;
#SELECTABLE:YES;
#BPMS:0.000=125.020;
#STOPS:;
#BGCHANGES:;

//---------------dance-single - ----------------
#NOTES:
     dance-single:
     :
     Easy:
     2:
     0.132,0.183,0.076,0.089,0.000: // measure 1
0000
0000
0000
0000
,  // measure 2
0000
0000
0000
0000
,  // measure 3
0000
0000
0000
0000
,  // measure 4
0000
0000
0000
0000
,  // measure 5
1001
1000
0000
0000
,  // measure 6
0020
0000
0000
0030
,  // measure 7
0001
0001
0000
0000
,  // measure 8
2002
0000
0000
3003
,  // measure 9
1001
0001
0000
0000
,  // measure 10
0200
0000
0000
0300
,  // measure 11
1000
1000
0000
0000
,  // measure 12
0200
0000
0000
0300
,  // measure 13
0001
0001
0000
0000
,  // measure 14
0020
0000
0000
0030
,  // measure 15
1000
1000
0000
0000
,  // measure 16
0010
0000
0000
0000
,  // measure 17
0010
0000
0100
0000
0010
0000
0000
2000
,  // measure 18
0000
0000
0000
0000
0000
3001
0000
0000
,  // measure 19
0100
0010
0100
0000
,  // measure 20
0001
0100
0001
0000
,  // measure 21
0100
0010
0100
0000
,  // measure 22
0010
1000
0010
0000
,  // measure 23
0100
0010
0100
0000
,  // measure 24
0100
0000
0100
0000
,  // measure 25
0110
0000
0000
0000
0000
0000
0000
0001
,  // measure 26
0000
0000
0000
0000
,  // measure 27
0100
0000
0000
0000
0000
0000
0000
0010
,  // measure 28
0000
0000
0000
0000
,  // measure 29
1000
0000
0000
0000
0000
0000
0000
0100
,  // measure 30
0000
0000
0000
0000
,  // measure 31
0010
0000
0000
0000
0000
0000
0000
0001
,  // measure 32
0000
0000
0000
0000
,  // measure 33
1001
0000
0001
0010
,  // measure 34
0001
0000
1000
0100
,  // measure 35
1000
0000
1000
0000
,  // measure 36
0010
0100
0010
0000
,  // measure 37
1001
0000
0000
0000
;

//---------------dance-single - ----------------
#NOTES:
     dance-single:
     :
     Hard:
     5:
     0.257,0.311,0.025,0.000,0.000: // measure 1
0000
0000
0000
0000
,  // measure 2
0000
0000
0000
0000
,  // measure 3
0000
0000
0000
0000
,  // measure 4
0000
0000
0000
0000
,  // measure 5
0001
0010
0100
1000
0000
0000
0010
0000
,  // measure 6
0100
0010
1000
0010
,  // measure 7
1000
0100
0010
0001
0000
0000
0100
0000
,  // measure 8
0010
0000
1000
0000
0001
0010
0100
1000
,  // measure 9
0001
0010
0100
1000
0000
0000
0001
0100
,  // measure 10
0001
0000
1000
0010
1000
0000
0001
0000
,  // measure 11
1000
0100
0010
0001
0000
0000
0100
0000
,  // measure 12
0010
1000
0010
1000
,  // measure 13
0001
0010
0100
1000
0000
0000
0010
0000
,  // measure 14
0100
0001
1000
0010
,  // measure 15
1000
0010
0100
0001
0000
0000
0100
0000
,  // measure 16
0010
0000
1000
0100
0010
0001
0010
0100
,  // measure 17
1000
0001
0100
0010
0000
0000
1000
0000
,  // measure 18
0100
1000
0010
0100
,  // measure 19
0001
0010
0100
1000
0001
0000
1000
0000
,  // measure 20
0010
0100
0010
0100
,  // measure 21
0001
0010
0100
1000
0010
0000
0100
0000
,  // measure 22
0010
0000
1000
0010
1000
0000
0100
0000
,  // measure 23
0010
0001
1000
0010
0000
0000
0100
0000
,  // measure 24
0001
0010
0001
1000
,  // measure 25
0001
0000
0000
0000
0000
0000
0000
1000
,  // measure 26
0000
0000
0010
0100
,  // measure 27
1001
0000
0000
0000
0000
0000
0000
0010
,  // measure 28
0000
0000
0000
0000
,  // measure 29
0100
0000
0000
0000
0000
0000
0000
0001
,  // measure 30
0000
0000
0100
0010
,  // measure 31
1001
0000
0000
0000
0000
0000
0000
0100
,  // measure 32
0000
0000
0000
0000
,  // measure 33
0001
0010
0100
1000
,  // measure 34
0100
0010
0001
1000
,  // measure 35
0010
0000
0100
0000
0001
1000
0001
0000
,  // measure 36
0100
0000
0010
0000
1000
0010
0100
0000
,  // measure 37
0010
0000
0100
0000
0001
0100
0010
0000
,  // measure 38
1000
0000
0010
0000
1000
0001
1000
0000
;

//---------------dance-single - ----------------
#NOTES:
     dance-single:
     :
     Challenge:
     7:
     0.388,0.411,0.152,0.140,0.178: // measure 1
0000
0000
0000
0000
,  // measure 2
0000
0000
0000
0000
,  // measure 3
0000
0000
0000
0000
,  // measure 4
0000
0000
0000
0000
,  // measure 5
0010
0100
1000
0001
0000
0000
0000
0000
,  // measure 6
0000
0000
0000
0000
,  // measure 7
0010
0100
1000
0001
0000
0000
0000
0000
,  // measure 8
0101
1000
0000
0000
1000
0001
0000
0000
,  // measure 9
0010
0000
0100
0000
1000
0000
0010
0000
0100
0000
0000
0001
0000
0000
0100
0000
,  // measure 10
0000
0000
0001
0000
1000
0000
0100
0000
1000
0000
0000
0010
0000
0000
1000
0000
,  // measure 11
0100
0000
0010
0000
0001
0000
0100
0000
0010
0000
0000
1000
0000
0000
0010
0000
,  // measure 12
0000
0000
1000
0000
0001
0000
0010
0000
0001
0000
0000
0100
0000
0000
0001
0000
,  // measure 13
0010
0000
0100
0000
1000
0000
0001
0000
0010
0000
0000
0001
0000
0000
0100
0000
,  // measure 14
0000
0000
0001
0000
1000
0000
0100
0000
1000
0000
0000
0010
0000
0000
1000
0000
,  // measure 15
0100
0000
0010
0000
0001
0000
1000
0000
0100
0000
0000
1000
0000
0000
0010
0000
,  // measure 16
0000
0000
1000
0000
0000
1000
0000
0000
1000
0000
0001
0010
0000
0000
0001
0000
,  // measure 17
1001
0000
0100
0000
0010
0000
0001
0000
0100
0000
0001
0010
0000
0000
0002
0000
,  // measure 18
0000
0000
1000
0000
0000
1000
0000
0000
1003
0000
0100
1000
0000
0000
0001
0000
,  // measure 19
0001
0000
0010
0000
0100
0000
1000
0000
0010
0000
1000
0100
0000
0000
2000
0000
,  // measure 20
0000
0000
0001
0000
0000
0001
0000
0000
3001
0000
0100
0010
0000
0000
1000
0000
,  // measure 21
1000
0000
0100
0000
0010
0000
0001
0000
0100
0000
0001
0010
0000
0000
0002
0000
,  // measure 22
0000
0000
1000
0000
0000
1000
0000
0000
1003
0000
0010
0100
0000
0000
0001
0000
,  // measure 23
0001
0000
0010
0000
0100
0000
1000
0000
0010
0000
1000
0100
0000
0000
1000
0000
,  // measure 24
0001
0101
0000
0000
0100
0001
0000
0000
,  // measure 25
0200
0001
0001
0000
0000
1300
0000
1020
,  // measure 26
0000
1000
1030
0000
0110
0000
0110
0000
,  // measure 27
0020
1000
1000
0000
0000
0031
0000
0201
,  // measure 28
0000
0001
0301
1000
0100
0010
0001
1000
,  // measure 29
0020
1000
1000
0000
0000
1030
0000
1200
,  // measure 30
0000
1000
1300
0000
0110
0000
0110
0000
,  // measure 31
0200
0001
0001
0000
0000
0301
0000
0021
,  // measure 32
0000
0001
0001
0000
1000
0000
1030
0000
,  // measure 33
0100
0000
0010
0000
0001
0000
0100
0000
0001
0000
0100
0010
0000
0000
1000
0000
,  // measure 34
0000
0000
0001
0000
0100
0010
0000
0100
0010
0000
1000
0001
0000
1000
0001
0000
,  // measure 35
0010
0000
0100
0000
1000
0000
0010
0000
1000
0000
0010
0100
0000
0000
0001
0000
,  // measure 36
1000
0000
0100
0010
0000
0100
0010
0000
0001
0000
1000
0000
0000
0010
0000
0000
,  // measure 37
1001
0000
0000
0000
;

//---------------dance-single - ----------------
#NOTES:
     dance-single:
     :
     Medium:
     3:
     0.185,0.228,0.076,0.051,0.000: // measure 1
0000
0000
0000
0000
,  // measure 2
0000
0000
0000
0000
,  // measure 3
0000
0000
0000
0000
,  // measure 4
0000
0000
0000
0000
,  // measure 5
1001
1000
1000
0000
,  // measure 6
0001
0000
1000
0000
,  // measure 7
0001
0001
0001
0000
,  // measure 8
0011
0000
0000
0000
,  // measure 9
1001
0001
0001
0000
,  // measure 10
1000
0000
0010
0000
,  // measure 11
1000
1000
1000
0000
,  // measure 12
0001
0000
0100
0000
,  // measure 13
0001
1000
0001
0000
,  // measure 14
0001
0000
1000
0000
,  // measure 15
0010
0100
0010
0000
,  // measure 16
0010
0000
0000
0000
,  // measure 17
0010
0100
0010
1000
,  // measure 18
1000
0001
0001
1000
,  // measure 19
0100
0010
0001
0001
,  // measure 20
1000
1000
0001
0010
,  // measure 21
0100
1000
0010
1000
,  // measure 22
0001
0010
0001
0010
,  // measure 23
0001
0010
0100
1000
,  // measure 24
0000
1010
0000
0000
0000
1001
0000
0000
,  // measure 25
0002
0000
0000
0000
0000
0010
0000
0013
,  // measure 26
0000
0000
0001
0010
,  // measure 27
2000
0000
0000
0000
0000
0100
0000
3100
,  // measure 28
0000
0000
1000
0100
,  // measure 29
0002
0000
0000
0000
0000
0100
0000
0103
,  // measure 30
0000
0000
0001
0010
,  // measure 31
2000
0000
0000
0000
0000
0000
0000
3010
,  // measure 32
0000
0000
0000
0000
,  // measure 33
0010
0100
0010
0100
,  // measure 34
0010
1000
0100
1000
,  // measure 35
0100
0010
0001
0010
,  // measure 36
0001
0010
0100
1000
,  // measure 37
1001
0000
0000
0000
;

//---------------dance-single - ----------------
#NOTES:
     dance-single:
     :
     Beginner:
     1:
     0.060,0.091,0.063,0.000,0.000: // measure 1
0000
0000
0000
0000
,  // measure 2
0000
0000
0000
0000
,  // measure 3
0000
0000
0000
0000
,  // measure 4
0000
0000
0000
0000
,  // measure 5
1000
0000
0000
0000
,  // measure 6
0000
0000
0000
0000
,  // measure 7
1000
0000
0000
0000
,  // measure 8
1001
0000
0000
0000
,  // measure 9
0001
0000
0000
0000
,  // measure 10
0010
0000
0000
0000
,  // measure 11
0001
0000
0000
0000
,  // measure 12
0010
0000
0000
0000
,  // measure 13
0001
0000
0000
0000
,  // measure 14
1000
0000
0000
0000
,  // measure 15
0100
0000
0000
0000
,  // measure 16
1000
0000
0000
0000
,  // measure 17
1001
0000
0000
0000
,  // measure 18
0001
0000
0000
0000
,  // measure 19
0100
0000
0000
0000
,  // measure 20
0001
0000
0000
0000
,  // measure 21
1000
0000
0000
0000
,  // measure 22
0010
0000
0000
0000
,  // measure 23
1000
0000
0000
0000
,  // measure 24
1000
0000
0000
0000
,  // measure 25
1001
0000
0000
0000
,  // measure 26
0000
0000
0000
0000
,  // measure 27
0010
0000
0000
0000
,  // measure 28
0000
0000
0000
0000
,  // measure 29
0010
0000
0000
0000
,  // measure 30
0000
0000
0000
0000
,  // measure 31
0001
0000
0000
0000
,  // measure 32
0000
0000
0000
0000
,  // measure 33
1001
0000
0000
0000
,  // measure 34
0001
0000
0000
0000
,  // measure 35
1000
0000
0000
0000
,  // measure 36
0001
0000
0000
0000
,  // measure 37
1001
0000
0000
0000
;

//---------------dance-double - ----------------
#NOTES:
     dance-double:
     :
     Easy:
     2:
     0.154,0.206,0.038,0.051,0.000:
00000000
00000000
00000000
00000000
,
00000000
00000000
00000000
00000000
,
00000000
00000000
00000000
00000000
,
00000000
00000000
00000000
00000000
,
01000000
00002000
00000000
00000000
,
00013000
00000000
00000000
00000000
,
00000100
00020000
00000000
00000000
,
00031000
00000000
00000000
00000000
,
00001000
00000000
00001000
00000000
,
00000100
00000000
00000001
00000000
,
00000001
00000000
00000001
00000000
,
00000010
00000000
00001000
00000000
,
00001000
00000000
00010000
00000000
,
00001000
00000000
00010000
00000000
,
00100000
00000000
10000000
00000000
,
00010000
00000000
00000000
00000000
,
00010000
00001000
00010000
00000000
,
00001000
00010000
00001000
00000100
,
00000010
00000001
00000010
00000000
,
00000001
00001000
00000001
00000010
,
00000100
00001000
00000000
00000000
,
00010000
00001000
00010000
00100000
,
01000000
10000000
00010000
00000000
,
02200000
00000000
00000000
03300000
,
10010000
00000000
00000000
00000000
00000000
01000000
00000000
00001000
,
00000000
00000000
00001000
00010000
,
00001000
00000000
00000000
00000000
00000000
00000100
00000000
00010000
,
00000000
00000000
00010000
00001000
,
00010000
00000000
00000000
00000000
00000000
00100000
00000000
00001000
,
00000000
00000000
00001000
00010000
,
00001000
00000000
00000000
00000000
00000000
00000010
00000000
00010000
,
00000000
00000000
00000000
00000000
,
00010000
00001000
00010000
00100000
,
00010000
00000000
00001000
00010000
,
00001000
00000100
00001000
00000000
,
00010000
00001000
00010000
00100000
,
00011000
00000000
00000000
00000000
;
