#TITLE:autumn G;
#SUBTITLE:;
#ARTIST:HASHED BOX;
#TITLETRANSLIT:;
#SUBTITLETRANSLIT:;
#ARTISTTRANSLIT:;
#CREDIT:DMAxel;
#BANNER:autumn G.png;
#BACKGROUND:autumn G-bg.png;
#LYRICSPATH:;
#CDTITLE:ee'mall.png;
#MUSIC:autumn G.mp3;
#OFFSET:-0.220;
#SAMPLESTART:11.311;
#SAMPLELENGTH:12.000;
#SELECTABLE:YES;
#BPMS:0.000=86.000;
#STOPS:;
#BGCHANGES:;

//---------------dance-single - ----------------
#NOTES:
     dance-single:
     :
     Easy:
     1:
     0.090,0.149,0.073,0.009,0.000: // measure 1
0000
0000
0000
0000
,  // measure 2
0000
0000
0000
0000
,  // measure 3
0001
0000
0000
0000
,  // measure 4
1001
0000
0000
0000
,  // measure 5
1100
0000
0000
0000
,  // measure 6
1000
0000
0000
0000
,  // measure 7
0001
0000
0000
0000
,  // measure 8
1000
0000
0000
0000
,  // measure 9
0011
0000
0000
0000
,  // measure 10
0001
0000
0000
0000
,  // measure 11
1000
0000
0000
0000
,  // measure 12
0001
0000
0000
0000
,  // measure 13
1001
0000
0000
0000
,  // measure 14
1000
0000
0000
0000
,  // measure 15
0001
0000
0000
0000
,  // measure 16
1000
0000
1000
0000
,  // measure 17
1000
1000
1000
0000
,  // measure 18
0001
0001
0001
0000
,  // measure 19
0100
0100
0100
0000
,  // measure 20
0020
0000
0000
0030
,  // measure 21
1001
0000
1000
0000
,  // measure 22
1001
0000
0000
0000
,  // measure 23
0001
0000
0100
0000
,  // measure 24
0001
0000
0000
0000
,  // measure 25
1000
1000
1000
0000
,  // measure 26
0001
0001
0001
0000
,  // measure 27
0100
0100
0100
0000
,  // measure 28
0010
0010
0010
0000
,  // measure 29
1001
0000
0000
0000
,  // measure 30
1000
0000
0000
0000
,  // measure 31
0001
0000
0000
0000
,  // measure 32
1000
0010
0100
0010
,  // measure 33
0100
0000
0000
0000
,  // measure 34
0001
0000
0000
0000
,  // measure 35
1000
0001
1000
0000
,  // measure 36
0010
0100
0010
0100
,  // measure 37
1001
0000
0000
0000
;

//---------------dance-single - ----------------
#NOTES:
     dance-single:
     :
     Hard:
     6:
     0.282,0.281,0.119,0.055,0.105: // measure 1
0000
0000
0000
0000
,  // measure 2
0000
0000
0000
0000
,  // measure 3
1100
0000
0000
0000
0000
0000
1000
0000
0000
0000
0000
0100
0000
0000
0010
0000
0000
0000
0001
0000
0000
0000
0000
0000
,  // measure 4
0001
0000
1000
0000
0000
0000
0000
0000
0000
1000
0000
0001
0000
0000
0000
0000
0000
0000
0000
0000
0000
0000
0000
0000
,  // measure 5
1001
0000
1000
0001
0010
0100
0100
0000
,  // measure 6
1000
0001
0010
0100
2000
0000
0001
0000
,  // measure 7
3001
0000
1000
0100
0010
0100
0000
0000
,  // measure 8
2001
0000
0000
0000
0100
3100
0000
0000
,  // measure 9
0011
0000
0000
0001
0010
0100
1000
1000
,  // measure 10
0001
0100
0001
1000
0100
0010
0001
0000
,  // measure 11
0200
0000
0000
0001
0301
0000
1000
0001
,  // measure 12
0000
0100
0001
0010
0100
1000
0001
0000
,  // measure 13
1001
0100
0001
0010
,  // measure 14
1000
0001
0100
0010
0100
0000
0101
0000
,  // measure 15
1001
0000
0100
0100
1000
0100
1000
0100
,  // measure 16
0002
0000
1000
0000
1000
0000
1003
0100
,  // measure 17
0001
0100
0001
0100
0001
0010
0100
1000
,  // measure 18
1000
0010
1000
0010
1000
0100
0010
0001
,  // measure 19
0001
0000
0000
0100
0000
0000
0001
0000
0000
0000
0000
1000
0000
0000
0100
0000
0000
1000
0000
0000
0100
0000
0000
0000
,  // measure 20
1000
0100
0001
0010
,  // measure 21
0001
0000
1000
0000
0000
1000
0000
0000
0000
0000
0000
0000
1000
0000
0001
0000
0000
0001
0000
0000
0000
0000
0000
0000
,  // measure 22
0001
0000
1000
0000
0000
1000
0000
0000
0000
0000
0000
0000
0000
0000
1000
0000
0000
0000
0001
0000
0000
0001
0000
0000
,  // measure 23
0001
0100
0001
0100
0001
1000
0100
0100
,  // measure 24
1000
0000
0000
0000
0000
0000
0000
0000
0000
0000
0000
0000
0000
0000
0001
0000
0000
0000
1000
0000
0000
0100
0000
0000
,  // measure 25
1000
0100
0010
0001
1000
0100
0010
0001
,  // measure 26
0000
0000
1000
0000
0000
1000
0000
0000
0000
0000
0000
1000
0000
0000
0001
0000
0000
2000
0000
0000
0000
0000
0000
0000
,  // measure 27
3000
0000
0010
0100
0001
0010
0000
0000
,  // measure 28
2100
0000
0000
0000
0100
3100
0000
0000
,  // measure 29
1001
0000
0000
0100
0001
0010
0100
0100
,  // measure 30
0000
1000
0001
0010
0100
1000
0001
0000
,  // measure 31
1001
0000
0000
0010
1000
0100
0010
0010
,  // measure 32
0000
0001
0010
0100
1000
0001
0010
0000
,  // measure 33
1001
0000
0000
0000
0000
0000
0001
0000
0000
0000
0000
0010
0000
0000
0001
0000
0000
0000
0100
0000
0000
0001
0000
0000
,  // measure 34
0011
0100
1000
0100
,  // measure 35
0001
1000
0001
1000
0100
0000
0001
0100
,  // measure 36
1000
0010
0100
0010
0100
0001
0010
0100
,  // measure 37
1001
0000
0000
0000
;

//---------------dance-single - ----------------
#NOTES:
     dance-single:
     :
     Challenge:
     8:
     0.423,0.396,0.101,0.101,0.486: // measure 1
0000
0000
0000
0000
,  // measure 2
0000
0000
0000
0000
,  // measure 3
0001
0000
0000
0100
0000
0000
0001
0000
0100
0001
0000
1000
0000
0000
1000
0000
0000
0000
0010
0000
0000
1000
0000
0000
,  // measure 4
0010
0000
0220
0000
0000
0000
0330
0000
0000
1000
0000
2002
0000
0000
0000
0000
0000
0000
3003
0000
0000
0000
0000
0000
,  // measure 5
1001
0000
0000
1000
0000
0000
0010
0000
0000
1000
0000
0010
1000
0000
0001
0000
0000
0001
0000
0000
0000
0000
0000
1000
,  // measure 6
0001
0000
0000
0001
0000
0000
0010
0000
0000
0100
0000
0000
1000
0000
0010
0000
0000
0100
0000
0000
0100
0000
0000
0001
,  // measure 7
1000
0000
0000
1000
0000
0000
0100
0000
0000
0010
0000
0000
0001
0000
0000
1000
0000
0000
0000
0000
0010
0000
1000
0000
,  // measure 8
0002
0000
0000
0000
0000
0000
0100
0000
0000
0000
0000
0000
0100
0000
0000
0103
0000
0000
0001
0000
0000
0000
0000
1000
,  // measure 9
0001
0000
0000
0001
0000
0000
0010
0000
0000
0001
0000
1000
0000
0000
0100
0000
0000
1000
0010
0000
0000
0100
0000
0001
,  // measure 10
1000
0000
0000
1000
0000
0000
0100
0000
0000
0010
0000
0000
0001
0000
0000
1000
0000
0000
0100
0000
0000
0000
0000
1000
,  // measure 11
0001
0000
0000
0000
0000
0000
0010
0000
0000
0001
0000
0010
0100
0000
1000
0000
0000
0000
0001
0000
0000
1000
0000
0001
,  // measure 12
1000
0000
0000
0010
0000
0000
1000
0000
0000
0100
0000
0000
0010
0000
0000
0001
0000
0000
1000
0000
0000
0000
0000
0001
,  // measure 13
1000
0000
0000
0000
0000
0000
0100
0000
0010
0000
0000
0001
0000
0000
1001
0000
0000
0000
0001
0000
0000
0010
0000
0001
,  // measure 14
1000
0000
0000
0100
0000
0000
0010
0000
0001
0010
0000
0001
0000
0000
0000
1000
0000
0000
1010
0000
0000
1000
0000
0000
,  // measure 15
1001
0000
0000
0010
0000
0000
0100
0000
1000
0100
0000
1000
0000
0000
0010
0000
0000
0000
0100
0000
0000
0001
0000
0001
,  // measure 16
1000
0000
0000
0100
0000
0000
0010
0000
0000
0001
0000
0000
1000
0000
0001
0000
0000
0001
1000
0000
0001
1000
0000
0001
,  // measure 17
1000
0000
0000
0010
0000
0100
0000
0000
0000
0001
0000
0000
0010
0000
0100
0010
0000
0001
1000
0000
0001
1000
0000
0001
,  // measure 18
1000
0000
0000
0100
0000
0010
0000
0000
0000
0001
0000
0000
0100
0000
0010
0000
0000
1000
0100
0000
1000
0100
0000
0000
,  // measure 19
1000
0000
0010
0100
0000
0000
0001
0000
0010
0000
0000
0001
0000
0000
0100
0000
0000
0010
0000
0000
1000
0000
0000
1000
,  // measure 20
0001
0010
0100
1000
0001
0010
0100
1000
,  // measure 21
1010
0000
1000
0000
0000
0002
0000
0000
0000
0003
0000
0000
0101
0000
0001
0000
0000
2000
0000
0000
0000
3000
0000
0000
,  // measure 22
1001
0000
1000
0000
0000
0020
0000
0000
0000
0000
0000
0000
0000
0000
0130
0000
0000
0000
0100
0000
0001
1000
0000
0001
,  // measure 23
1000
0000
0000
1000
0000
0010
0100
0000
0000
0001
0000
0100
0010
0000
0000
1000
0000
0000
0101
0000
0000
0001
0000
0000
,  // measure 24
1001
0000
0000
1000
0000
0000
0010
0000
0000
0010
0000
0000
0100
0000
0100
0010
0000
1000
0100
0000
1000
0100
0000
0000
,  // measure 25
1000
0000
0010
0100
0000
0000
0001
0000
0100
0010
0000
0000
1000
0000
0100
0010
0000
0000
0001
0000
0010
0100
0000
1000
,  // measure 26
0000
0000
0001
0000
0000
0001
0000
0000
0000
1000
0000
0010
0000
0000
0100
0000
0000
0002
0000
0000
0000
0003
0000
1000
,  // measure 27
0001
0000
0000
0010
0000
0000
0001
0000
0000
1000
0000
0000
0100
0000
0000
0010
0000
0000
0001
0000
0100
0000
0001
0000
,  // measure 28
0200
0000
0000
0000
0000
0000
0001
0000
0000
0000
0000
0000
0001
0000
0000
0301
0000
0000
1000
0000
0000
0000
0000
0001
,  // measure 29
1000
0000
0000
0100
0000
0000
1000
0000
0000
0010
0000
1000
0000
0000
0100
0000
0000
1000
0010
0000
0000
0010
0000
1000
,  // measure 30
0001
0000
0000
1000
0000
0000
0100
0000
0000
0010
0000
0000
0001
0000
0000
0100
0000
0000
0001
0000
0000
0000
0000
0001
,  // measure 31
1000
0000
0000
0000
0000
0000
1000
0000
0000
0010
0000
1000
0010
0000
1000
0000
0000
0010
0000
0000
0100
0000
0000
0001
,  // measure 32
1000
0000
0000
0001
0000
0000
0010
0000
0000
0100
0000
0000
1000
0000
0000
0010
0000
0000
1000
0000
0000
0000
0000
1000
,  // measure 33
0001
0000
0000
0000
0000
0000
0100
0000
0010
0100
0000
0001
0000
0000
0001
0000
0000
0000
1000
0000
0000
0010
0000
1000
,  // measure 34
0001
0000
0000
0000
0000
0000
1000
0000
0010
0000
0100
0000
0020
0000
0000
1000
0000
0000
1030
0000
0000
0100
0000
0000
,  // measure 35
0010
0000
0000
0001
0000
0000
0100
0000
0001
0000
0010
0000
0001
0000
0000
0000
0000
0000
0010
0000
0000
0100
0000
1000
,  // measure 36
0001
0000
0000
0010
0000
0000
0100
0000
0000
1000
0000
0000
0100
0000
0000
0010
0000
0001
0010
0000
0001
0010
0000
0001
,  // measure 37
1000
0000
0000
0000
;

//---------------dance-single - ----------------
#NOTES:
     dance-single:
     :
     Medium:
     3:
     0.189,0.231,0.128,0.009,0.000: // measure 1
0000
0000
0000
0000
,  // measure 2
0000
0000
0000
0000
,  // measure 3
1000
0001
1000
0001
,  // measure 4
0011
0000
0000
1001
0000
0000
0000
0000
,  // measure 5
1100
0000
0001
0010
,  // measure 6
0001
0000
1000
0001
,  // measure 7
1000
0010
0010
0000
,  // measure 8
2000
0000
3000
0000
,  // measure 9
1001
0000
0100
0010
,  // measure 10
1000
0001
1000
0001
,  // measure 11
1001
0000
0010
0001
,  // measure 12
0010
0001
1000
0001
,  // measure 13
1001
0100
1000
0100
,  // measure 14
0000
1000
0001
1000
,  // measure 15
1000
0100
0100
0010
,  // measure 16
0010
0001
0010
0100
,  // measure 17
1000
0001
1000
0000
0000
0000
0000
0000
,  // measure 18
0001
1000
0001
0000
0000
0000
0000
0000
,  // measure 19
0100
0010
0100
0010
0100
0000
0000
0000
,  // measure 20
0001
0010
0100
1000
,  // measure 21
1001
0000
0110
0000
,  // measure 22
1001
0000
0000
0000
0000
0000
0100
1000
,  // measure 23
0100
0000
1000
0000
0100
0000
0010
0001
,  // measure 24
0010
0001
0010
0000
,  // measure 25
0001
1000
0001
1000
0001
0000
0000
0000
,  // measure 26
1000
0001
1000
0001
1000
0000
0000
0000
,  // measure 27
0010
0000
0010
0100
0010
0100
0010
0000
,  // measure 28
0110
1000
0001
0000
,  // measure 29
1001
0000
0000
0000
1000
0001
1000
0000
,  // measure 30
0001
0010
0100
1000
,  // measure 31
1001
0000
0000
0000
0010
0001
0010
0000
,  // measure 32
0001
1000
0100
0010
,  // measure 33
1001
0000
0000
0000
0000
0000
0010
1000
,  // measure 34
0010
0000
1000
0000
0100
0000
0010
0001
,  // measure 35
0010
0000
0001
1000
0001
0000
0100
0000
,  // measure 36
0100
0010
0100
0010
0100
0010
0100
0000
,  // measure 37
1001
0000
0000
0000
;

//---------------dance-single - ----------------
#NOTES:
     dance-single:
     :
     Beginner:
     1:
     0.047,0.083,0.046,0.000,0.000: // measure 1
0000
0000
0000
0000
,  // measure 2
0000
0000
0000
0000
,  // measure 3
0001
0000
0000
0000
,  // measure 4
1000
0000
0000
0000
,  // measure 5
1001
0000
0000
0000
,  // measure 6
1000
0000
0000
0000
,  // measure 7
0001
0000
0000
0000
,  // measure 8
1000
0000
0000
0000
,  // measure 9
0010
0000
0000
0000
,  // measure 10
0100
0000
0000
0000
,  // measure 11
0010
0000
0000
0000
,  // measure 12
1000
0000
0000
0000
,  // measure 13
0001
0000
0000
0000
,  // measure 14
1000
0000
0000
0000
,  // measure 15
0010
0000
0000
0000
,  // measure 16
0010
0000
0000
0000
,  // measure 17
1001
0000
0000
0000
,  // measure 18
0000
0000
0000
0000
,  // measure 19
0100
0000
0000
0000
,  // measure 20
0000
0000
0000
0000
,  // measure 21
1001
0000
0000
0000
,  // measure 22
1001
0000
0000
0000
,  // measure 23
1000
0000
0000
0000
,  // measure 24
0001
0000
0000
0000
,  // measure 25
0100
0000
0000
0000
,  // measure 26
0000
0000
0000
0000
,  // measure 27
0010
0000
0000
0000
,  // measure 28
0000
0000
0000
0000
,  // measure 29
1000
0000
0000
0000
,  // measure 30
0001
0000
0000
0000
,  // measure 31
1000
0000
0000
0000
,  // measure 32
0010
0000
0000
0000
,  // measure 33
0100
0000
0000
0000
,  // measure 34
0010
0000
0000
0000
,  // measure 35
1000
0000
0000
0000
,  // measure 36
0001
0000
0000
0000
,  // measure 37
1001
0000
0000
0000
;
