#TITLE:and his name is Pluto;
#SUBTITLE:;
#ARTIST:2KB;
#TITLETRANSLIT:;
#SUBTITLETRANSLIT:;
#ARTISTTRANSLIT:;
#CREDIT:DMAxel;
#BANNER:and his name is Pluto.png;
#BACKGROUND:and his name is Pluto-bg.png;
#LYRICSPATH:;
#CDTITLE:BEMANI game remix.png;
#MUSIC:and his name is Pluto.mp3;
#OFFSET:-0.220;
#SAMPLESTART:33.807;
#SAMPLELENGTH:12.000;
#SELECTABLE:YES;
#DISPLAYBPM:*;
#BPMS:0.000=50.000,20.000=200.000,44.500=50.000,50.500=100.000,66.000=200.000,130.000=399.998,164.000=799.996,172.125=399.998,184.000=799.996,192.000=399.998,200.000=100.000,201.000=799.996,215.000=399.998,224.000=799.996,239.000=399.998,244.000=99.999,245.000=800.002,265.000=399.998,271.000=799.996,291.000=399.998,293.000=99.999,294.000=800.000,318.000=400.000,322.000=800.000,345.000=400.000,349.000=800.000,396.125=400.000,403.000=800.000;
#STOPS:20.000=2.250
,44.500=0.300
,46.250=0.300
,46.500=0.300
,47.750=0.300
,48.000=0.300
,48.250=0.150
,49.125=0.300
,49.375=0.300
,49.625=0.150
;
#BGCHANGES:;

//---------------dance-single - ----------------
#NOTES:
     dance-single:
     :
     Challenge:
     10:
     0.788,1.000,0.878,0.654,0.346: // measure 1
0110
0000
0001
1000
0000
1000
0010
0000
1100
0000
0001
0100
0000
0010
1000
0000
0011
0000
1000
0001
0000
0001
0010
0000
0100
0000
1000
0000
1010
0000
0000
0000
,  // measure 2
0011
0000
0100
0010
0000
0010
0100
0000
1010
0000
0100
0001
0000
0001
1000
0000
0110
0000
0001
1000
0000
1000
0001
0000
0100
0000
0000
0010
0010
0000
0000
0000
,  // measure 3
1000
0100
1100
0000
0010
0001
0101
0000
0010
0100
1001
0000
0011
0000
1000
0001
,  // measure 4
0011
0000
0101
0000
1001
0101
0011
0000
1100
0000
1010
0000
1001
1010
1100
0000
,  // measure 5
1001
0000
0110
0000
0011
1010
1001
0000
0010
0100
0001
1000
0010
0100
0010
1000
,  // measure 6
1001
0010
0100
1001
0000
0010
0010
0010
,  // measure 7
0000
1001
0000
0010
0100
1001
1001
0000
,  // measure 8
0000
1000
0010
1100
0000
0010
1000
0011
,  // measure 9
0000
1000
0100
0010
0001
0100
0010
1000
,  // measure 10
0000
0001
0010
0011
0000
1000
0100
1100
,  // measure 11
0000
1010
0000
0011
0000
0100
0010
1001
,  // measure 12
0000
0000
0000
0000
0001
0000
0110
0000
0010
0000
1000
0001
0100
0000
0010
0000
0010
0000
1001
0000
0110
0000
0001
0010
0001
0000
0100
0000
1001
0000
0110
0000
,  // measure 13
1001
0000
0110
0001
0100
1010
0100
0010
0001
0101
0000
1010
0000
1100
0000
0110
0011
0001
1000
0100
0010
0000
0000
0000
0001
0000
0000
0000
0100
0000
0010
0000
,  // measure 14
1000
0000
0010
0000
0100
0000
0001
0010
0001
1000
0010
0000
0100
0000
0010
0000
,  // measure 15
1000
0000
0001
0100
0010
1000
0100
1000
0001
0000
0100
0010
1000
0000
0001
0100
,  // measure 16
0010
0000
0100
0010
1000
0010
1000
0000
0010
0000
1000
0001
0100
0010
0100
0010
,  // measure 17
1000
0001
0010
0100
1000
0100
1001
0000
0010
0000
1001
0000
0100
0000
0010
0000
,  // measure 18
1000
0001
0100
0001
1000
0100
1000
0010
,  // measure 19
0100
0001
0010
0001
1000
0010
0100
0001
,  // measure 20
1000
0010
1000
0001
0100
0001
0200
0000
,  // measure 21
0302
0000
2003
0000
3020
0000
0130
0010
,  // measure 22
1000
0100
1000
0010
0100
0001
0010
0100
,  // measure 23
0010
0001
1000
0010
0100
0001
1000
0100
,  // measure 24
1000
0001
0100
0010
1000
0001
2000
0000
,  // measure 25
3020
0000
0230
0000
0302
0000
1003
0010
,  // measure 26
0001
0010
0001
1000
0010
0100
0001
0010
,  // measure 27
1000
0010
0001
0100
1000
0100
0001
1000
,  // measure 28
0001
0100
0010
1000
0001
1000
0020
0000
,  // measure 29
2030
0000
3020
0000
0230
0000
0301
0010
,  // measure 30
0100
1000
0010
0100
0001
0010
0001
1000
,  // measure 31
0100
1000
0010
0100
0010
0100
0001
0010
,  // measure 32
0001
0100
0010
1000
0010
0100
0200
0000
,  // measure 33
0302
2003
3000
0000
,  // measure 34
0001
1000
0001
1000
,  // measure 35
0010
0100
0010
0000
,  // measure 36
1000
0010
1000
0010
,  // measure 37
0100
0001
0110
0000
,  // measure 38
0001
0010
0100
1000
,  // measure 39
0010
0100
0001
1000
,  // measure 40
0010
1000
0001
0000
,  // measure 41
0011
0000
1100
0000
,  // measure 42
1001
0000
0000
0000
,  // measure 43
0000
0000
0000
0000
,  // measure 44
0001
1000
0001
0000
0200
0000
0010
0000
,  // measure 45
0310
0100
1001
1000
,  // measure 46
0010
0100
0001
0010
,  // measure 47
2002
0000
0000
0000
,  // measure 48
0000
0000
0000
3003
,  // measure 49
1001
0000
0010
0100
0001
0000
1000
0010
,  // measure 50
0100
0001
0010
0100
,  // measure 51
1001
0010
2200
0000
0000
0000
0000
0000
,  // measure 52
0000
0000
0000
0000
,  // measure 53
3300
0022
0000
0000
,  // measure 54
0000
0000
0000
0033
,  // measure 55
0001
1000
0010
0000
0100
0000
1000
0000
,  // measure 56
0010
0100
0001
0000
1000
0000
0010
0000
,  // measure 57
0202
0000
0000
0000
,  // measure 58
0000
0000
0000
0303
,  // measure 59
2020
0000
0000
0000
,  // measure 60
0000
0000
3030
1000
,  // measure 61
0001
0100
0010
0000
1000
0000
0010
0100
,  // measure 62
1001
0010
2002
0000
0000
0000
0000
0000
,  // measure 63
0000
0000
0000
0000
,  // measure 64
3003
2200
0000
0000
,  // measure 65
0000
0000
0000
0000
,  // measure 66
3300
0022
0000
0000
,  // measure 67
0033
0000
1000
0001
1000
0010
0100
0000
,  // measure 68
0001
1001
1001
0022
,  // measure 69
0000
0000
0000
0000
,  // measure 70
0000
0000
0033
2200
,  // measure 71
0000
0000
0000
0000
,  // measure 72
0000
0000
3300
2002
,  // measure 73
0000
0000
0000
0000
3003
0000
0010
0100
,  // measure 74
0001
0000
0100
0010
2002
0000
0000
0000
,  // measure 75
0000
0000
0000
0000
,  // measure 76
0000
3003
0022
0000
,  // measure 77
0000
0000
0000
0000
,  // measure 78
0000
0033
0202
0000
,  // measure 79
0000
0303
2020
0000
,  // measure 80
0000
0000
3030
0000
1001
0000
0010
1000
,  // measure 81
0001
0100
0010
0000
2020
0000
0000
0000
,  // measure 82
0000
0000
0000
0000
,  // measure 83
0000
3030
0202
0000
,  // measure 84
0000
0000
0000
0000
,  // measure 85
0000
0303
0022
0000
,  // measure 86
0000
0033
2200
0000
,  // measure 87
0000
0000
3300
0000
0010
0100
0001
1000
,  // measure 88
0100
0010
0001
0000
2020
0000
0000
0000
,  // measure 89
0000
0000
0000
0000
,  // measure 90
0000
3030
2200
0000
,  // measure 91
0000
0000
0000
0000
,  // measure 92
0000
3300
0202
0000
,  // measure 93
0000
0303
0022
0000
,  // measure 94
0000
0033
2002
0000
,  // measure 95
0000
0000
0000
0000
,  // measure 96
0000
3003
0202
0000
,  // measure 97
0000
0000
0000
0000
,  // measure 98
0000
0303
2020
0000
,  // measure 99
0000
0000
0000
0000
,  // measure 100
3030
1001
0000
1010
,  // measure 101
0000
1001
0000
0220
,  // measure 102
0000
0000
0000
0000
,  // measure 103
0000
0000
0000
0000
,  // measure 104
0000
0000
0000
0000
,  // measure 105
0000
0000
0000
0000
,  // measure 106
0330
0000
0000
0000
;

//---------------dance-single - ----------------
#NOTES:
     dance-single:
     :
     Hard:
     10:
     0.595,1.000,0.710,0.159,0.145: // measure 1
1001
0000
0010
0000
0100
0000
0001
0010
1000
0000
0010
0000
0100
0000
0001
0100
,  // measure 2
1000
0000
0000
0000
0010
0000
0000
0000
0100
0000
0000
0000
0001
0000
1000
0000
0100
0000
0000
0000
0010
0000
0000
0000
0001
0000
0000
1000
1000
0000
0000
0000
,  // measure 3
0001
0010
1100
0000
0010
0001
0101
0000
0010
0100
1001
0000
0011
0000
1000
0001
,  // measure 4
0011
0000
0101
0000
1001
0101
0011
0000
1100
0000
1010
0000
1001
1010
1100
0000
,  // measure 5
1001
0000
0110
0000
0011
1010
1001
0000
0010
0100
0001
1000
0010
0100
0000
0001
,  // measure 6
1001
0100
0000
1001
0000
0010
0010
0010
,  // measure 7
0000
1001
0000
0100
0000
0001
1000
0000
,  // measure 8
0000
0001
0000
1100
0000
0010
0010
0010
,  // measure 9
0000
1000
0000
0010
0000
0100
0001
0000
,  // measure 10
0000
1100
0000
0011
0000
0100
0100
0100
,  // measure 11
0000
1010
0000
0011
0000
0100
0010
1001
,  // measure 12
0000
0000
0000
0000
0001
0000
0100
0000
0010
0000
1000
0001
0100
0000
0010
0000
0010
0000
0100
0000
0010
0000
1000
0000
0100
0000
0010
0000
0001
0000
0010
0000
,  // measure 13
0100
0000
1000
0100
0000
0010
0000
0001
0000
0100
0000
0010
0000
1000
0000
0000
0010
0000
1000
0000
0001
0000
0000
0000
1000
0000
0000
0000
0010
0000
0000
0000
,  // measure 14
0000
1000
0100
0001
0000
1100
0000
0011
,  // measure 15
0000
1000
0010
0100
0001
1010
0000
1000
,  // measure 16
0000
0100
0000
0010
0001
1001
0000
0110
,  // measure 17
0000
1000
0001
1001
0000
0000
0010
1000
,  // measure 18
0001
0100
0001
1000
0100
1000
0010
0100
,  // measure 19
0001
0010
0001
1000
0010
0100
0001
1000
,  // measure 20
0010
1000
0001
0100
0001
1000
0002
0000
,  // measure 21
2003
0000
3020
0000
0230
0000
0301
0010
,  // measure 22
0100
1000
0010
0100
0001
0010
0100
0010
,  // measure 23
0001
1000
0010
0100
0001
1000
0100
1000
,  // measure 24
0001
0100
0010
1000
0001
0100
0020
0000
,  // measure 25
2030
0000
3002
0000
0203
0000
0310
0100
,  // measure 26
0001
0010
0001
1000
0010
0100
0001
0010
,  // measure 27
1000
0010
0001
0100
1000
0100
0001
1000
,  // measure 28
0001
0100
0010
1000
0001
0100
0002
0000
,  // measure 29
2003
0000
3020
0000
0230
0000
0301
0010
,  // measure 30
0100
1000
0010
0100
0001
0010
0001
1000
,  // measure 31
0100
1000
0010
0100
0010
0100
0001
0010
,  // measure 32
0001
0100
0010
1000
0010
0000
1001
0000
,  // measure 33
1100
0011
0000
0000
,  // measure 34
0001
1000
0001
1000
,  // measure 35
0010
0100
0010
0000
,  // measure 36
1000
0010
1000
0010
,  // measure 37
0100
0001
0110
0000
,  // measure 38
0001
0010
0100
1000
,  // measure 39
0010
0100
0001
1000
,  // measure 40
0010
1000
0001
0000
,  // measure 41
0011
0000
1100
0000
,  // measure 42
1001
0000
0000
0000
,  // measure 43
0000
0000
0000
0000
,  // measure 44
0001
0100
0020
1000
,  // measure 45
1030
0100
0010
0001
,  // measure 46
0010
0100
1000
0010
,  // measure 47
2002
0000
0000
0000
,  // measure 48
0000
0000
0000
3003
,  // measure 49
1001
0010
0100
0010
,  // measure 50
0100
0001
0010
0100
,  // measure 51
1001
0010
1100
0000
0000
0000
0000
0000
,  // measure 52
0000
0000
0000
0000
,  // measure 53
0000
0011
0000
0000
,  // measure 54
0000
0000
0000
0000
,  // measure 55
0001
0010
0100
1000
,  // measure 56
0100
0010
0001
1000
,  // measure 57
0101
0000
0000
0000
,  // measure 58
0000
0000
0000
0000
,  // measure 59
1010
0000
0000
0000
,  // measure 60
0000
0000
0000
1000
,  // measure 61
0001
0010
1000
0010
,  // measure 62
1001
0100
1001
0000
0000
0000
0000
0000
,  // measure 63
0000
0000
0000
0000
,  // measure 64
0000
1100
0000
0000
,  // measure 65
0000
0000
0000
0000
,  // measure 66
0000
0011
0000
0000
,  // measure 67
0000
1000
0010
0100
,  // measure 68
0001
1000
0001
0011
,  // measure 69
0000
0000
0000
0000
,  // measure 70
0000
0000
0000
1100
,  // measure 71
0000
0000
0000
0000
,  // measure 72
0000
0000
0000
1001
,  // measure 73
0000
0000
0000
0010
,  // measure 74
0001
0000
0100
0010
1001
0000
0000
0000
,  // measure 75
0000
0000
0000
0000
,  // measure 76
0000
0000
0011
0000
,  // measure 77
0000
0000
0000
0000
,  // measure 78
0000
0000
0101
0000
,  // measure 79
0000
0000
1010
0000
,  // measure 80
0000
0000
1001
0010
,  // measure 81
0100
0010
1010
0000
,  // measure 82
0000
0000
0000
0000
,  // measure 83
0000
0000
0101
0000
,  // measure 84
0000
0000
0000
0000
,  // measure 85
0000
0000
0011
0000
,  // measure 86
0000
0000
1100
0000
,  // measure 87
0000
0010
0001
0100
,  // measure 88
0001
1010
0000
0000
,  // measure 89
0000
0000
0000
0000
,  // measure 90
0000
1100
0000
0000
,  // measure 91
0000
0000
0000
0000
,  // measure 92
0000
0101
0000
0000
,  // measure 93
0000
0011
0000
0000
,  // measure 94
0000
1001
0000
0000
,  // measure 95
0000
0000
0000
0000
,  // measure 96
0000
0101
0000
0000
,  // measure 97
0000
0000
0000
0000
,  // measure 98
0000
1010
0000
0000
,  // measure 99
0000
0000
0000
0000
,  // measure 100
0000
1001
0000
1010
,  // measure 101
0000
1001
0000
0220
,  // measure 102
0000
0000
0000
0000
,  // measure 103
0000
0000
0000
0000
,  // measure 104
0000
0000
0000
0000
,  // measure 105
0000
0000
0000
0000
,  // measure 106
0330
0000
0000
0000
;

//---------------dance-single - ----------------
#NOTES:
     dance-single:
     :
     Medium:
     7:
     0.470,1.000,0.579,0.065,0.107: // measure 1
0000
0000
0000
0000
,  // measure 2
1001
0000
0100
0000
0010
0000
1000
0001
0100
0000
0010
0000
0002
0000
1003
0000
,  // measure 3
0001
0000
1000
0000
0010
0000
0100
0000
0010
0000
1000
0000
0001
0100
0000
0000
,  // measure 4
0010
0000
0100
0000
0001
0100
1000
0000
0010
0000
0100
0000
0001
0010
1000
0000
,  // measure 5
0001
0000
0100
0000
0001
1000
0001
0000
0100
0010
1000
0100
0010
0001
0000
0000
,  // measure 6
1001
0010
0000
0100
0000
0001
0000
1000
,  // measure 7
0000
0001
0000
0100
0000
0010
0000
1000
,  // measure 8
0000
1100
0000
0011
0000
1000
0000
0010
,  // measure 9
0000
0100
0000
0001
0000
0011
0000
0000
,  // measure 10
0000
1100
0000
0010
0000
0100
0000
0001
,  // measure 11
0000
1000
0000
0010
0000
1001
0000
1001
,  // measure 12
0000
0000
0001
0100
0010
1000
0100
0010
0001
0100
0010
1000
0100
0010
0001
0010
,  // measure 13
0100
0000
1000
0100
0000
0010
0000
0001
0000
0100
0000
0010
0000
1000
0000
0000
0010
0000
1000
0000
0001
0000
0000
0000
1000
0000
0000
0000
0010
0000
0000
0000
,  // measure 14
0000
1000
0100
0001
0000
1100
0000
0011
,  // measure 15
0000
1000
0010
0000
0000
1001
0000
1000
,  // measure 16
0000
0100
0000
0010
0001
1001
0000
0110
,  // measure 17
0000
1000
0001
1001
0000
0000
0200
0000
,  // measure 18
0010
0010
0010
0010
,  // measure 19
0010
0310
0001
0010
,  // measure 20
0100
1000
0010
1001
,  // measure 21
1001
1001
1001
0020
,  // measure 22
0100
0100
0100
0100
,  // measure 23
0130
0001
1000
0001
,  // measure 24
0100
0010
1000
1100
,  // measure 25
0001
0011
1001
0001
,  // measure 26
0200
0010
0010
0010
,  // measure 27
0010
0310
1000
0100
,  // measure 28
0010
0001
0100
1001
,  // measure 29
1001
1001
1001
0020
,  // measure 30
0100
0100
0100
0100
,  // measure 31
0100
0030
1000
0000
0001
0000
0010
0000
,  // measure 32
0100
0000
1000
0000
0010
0100
0001
0000
,  // measure 33
1100
0011
0000
0000
,  // measure 34
0001
0100
0010
1000
,  // measure 35
0010
0100
0001
0010
,  // measure 36
0100
1000
0100
0010
,  // measure 37
0001
0100
0001
0010
,  // measure 38
0100
1000
0010
0100
,  // measure 39
0010
1000
0001
0100
,  // measure 40
0010
1000
0100
0000
,  // measure 41
0000
0000
0000
0000
,  // measure 42
1001
0000
0000
0000
,  // measure 43
0000
0000
0000
0000
,  // measure 44
0001
0100
0010
1000
,  // measure 45
0001
0100
0010
1000
,  // measure 46
0100
0010
0001
0100
,  // measure 47
1001
0000
0000
0000
,  // measure 48
0000
0000
0000
0000
,  // measure 49
1001
0010
0100
0010
,  // measure 50
0100
0001
0010
0100
,  // measure 51
1001
0010
1100
0000
0000
0000
0000
0000
,  // measure 52
0000
0000
0000
0000
,  // measure 53
0000
0011
0000
0000
,  // measure 54
0000
0000
0000
0000
,  // measure 55
0001
0010
0100
1000
,  // measure 56
0100
0010
0001
1000
,  // measure 57
0101
0000
0000
0000
,  // measure 58
0000
0000
0000
0000
,  // measure 59
1010
0000
0000
0000
,  // measure 60
0000
0000
0000
1000
,  // measure 61
0001
0010
1000
0010
,  // measure 62
1001
0100
1001
0000
0000
0000
0000
0000
,  // measure 63
0000
0000
0000
0000
,  // measure 64
0000
1100
0000
0000
,  // measure 65
0000
0000
0000
0000
,  // measure 66
0000
0011
0000
0000
,  // measure 67
0000
1000
0010
0100
,  // measure 68
0001
1000
0001
0011
,  // measure 69
0000
0000
0000
0000
,  // measure 70
0000
0000
0000
1100
,  // measure 71
0000
0000
0000
0000
,  // measure 72
0000
0000
0000
1001
,  // measure 73
0000
0000
0000
0010
,  // measure 74
0001
0000
0100
0010
1001
0000
0000
0000
,  // measure 75
0000
0000
0000
0000
,  // measure 76
0000
0000
0011
0000
,  // measure 77
0000
0000
0000
0000
,  // measure 78
0000
0000
0101
0000
,  // measure 79
0000
0000
1010
0000
,  // measure 80
0000
0000
1001
0010
,  // measure 81
0100
0010
1010
0000
,  // measure 82
0000
0000
0000
0000
,  // measure 83
0000
0000
0101
0000
,  // measure 84
0000
0000
0000
0000
,  // measure 85
0000
0000
0011
0000
,  // measure 86
0000
0000
1100
0000
,  // measure 87
0000
0010
0001
0100
,  // measure 88
0001
1010
0000
0000
,  // measure 89
0000
0000
0000
0000
,  // measure 90
0000
1100
0000
0000
,  // measure 91
0000
0000
0000
0000
,  // measure 92
0000
0101
0000
0000
,  // measure 93
0000
0011
0000
0000
,  // measure 94
0000
1001
0000
0000
,  // measure 95
0000
0000
0000
0000
,  // measure 96
0000
0101
0000
0000
,  // measure 97
0000
0000
0000
0000
,  // measure 98
0000
1010
0000
0000
,  // measure 99
0000
0000
0000
0000
,  // measure 100
0000
1001
0000
1010
,  // measure 101
0000
1001
0000
0220
,  // measure 102
0000
0000
0000
0000
,  // measure 103
0000
0000
0000
0000
,  // measure 104
0000
0000
0000
0000
,  // measure 105
0000
0000
0000
0000
,  // measure 106
0330
0000
0000
0000
;

//---------------dance-single - ----------------
#NOTES:
     dance-single:
     :
     Easy:
     6:
     0.356,1.000,0.644,0.084,0.070: // measure 1
0000
0000
0000
0000
,  // measure 2
1001
0100
0010
1000
0100
0010
0001
1000
,  // measure 3
0002
0100
0100
0103
0010
1000
1001
0000
,  // measure 4
0010
0100
2002
3003
0010
0100
2002
3003
,  // measure 5
0100
0010
2002
3003
0010
1000
0001
0000
,  // measure 6
1001
0010
0000
0100
0000
0001
0000
1000
,  // measure 7
0000
0001
0000
0100
0000
0010
0000
1000
,  // measure 8
0000
1100
0000
0011
0000
1000
0000
0010
,  // measure 9
0000
0100
0000
0001
0000
0011
0000
0000
,  // measure 10
0000
1100
0000
0010
0000
0100
0000
0001
,  // measure 11
0000
1000
0000
0010
0000
1001
0000
1001
,  // measure 12
0000
0000
0000
0001
0000
0010
0000
0100
0000
1000
0001
0100
0000
0010
0000
1000
,  // measure 13
0100
0000
1000
0100
0000
0010
0000
0001
0000
0100
0000
0010
0000
1000
0000
0000
0010
0000
1000
0000
0001
0000
0000
0000
1000
0000
0000
0000
0010
0000
0000
0000
,  // measure 14
0000
1000
0100
0001
0000
1100
0000
0011
,  // measure 15
0000
1000
0010
0000
0000
1001
0000
1000
,  // measure 16
0000
0100
0000
0010
0001
1001
0000
0110
,  // measure 17
0000
1000
0001
1001
0000
0000
1000
0000
,  // measure 18
0000
0010
0000
0100
,  // measure 19
0000
0001
0000
0100
,  // measure 20
0000
0010
0000
1001
,  // measure 21
1001
1001
1001
0001
,  // measure 22
0000
0100
0000
0010
,  // measure 23
0000
1000
0000
0001
,  // measure 24
0000
0100
0000
1001
,  // measure 25
1001
1001
1001
1001
,  // measure 26
0000
1000
0000
0010
,  // measure 27
0000
1000
0000
0010
,  // measure 28
0000
0100
0000
1001
,  // measure 29
1001
1001
1001
0010
,  // measure 30
0000
0100
0000
0001
,  // measure 31
0000
1000
0000
0001
,  // measure 32
0000
0000
0100
0000
0000
0001
0100
0000
,  // measure 33
1100
0011
0000
0000
,  // measure 34
0001
0000
0000
0000
,  // measure 35
1000
0000
0000
0000
,  // measure 36
0010
0000
0100
0000
,  // measure 37
0001
0000
0000
0000
,  // measure 38
1000
0000
0000
0000
,  // measure 39
0010
0000
0000
0000
,  // measure 40
0100
0000
0100
0000
,  // measure 41
0000
0000
0000
0000
,  // measure 42
1001
0000
0000
0000
,  // measure 43
0000
0000
0000
0000
,  // measure 44
0001
0000
0000
0000
,  // measure 45
1000
0000
0010
0000
,  // measure 46
0100
0000
0000
0000
,  // measure 47
1001
0000
0000
0000
,  // measure 48
0000
0000
0000
0000
,  // measure 49
1001
0000
0000
0000
,  // measure 50
0100
0000
0100
0000
,  // measure 51
1001
1001
0000
0000
,  // measure 52
0000
0000
0000
0000
,  // measure 53
0000
0011
0000
0000
,  // measure 54
0000
0000
0000
0000
,  // measure 55
0001
0000
0100
0000
,  // measure 56
0010
0000
0000
0000
,  // measure 57
0101
0000
0000
0000
,  // measure 58
0000
0000
0000
0000
,  // measure 59
1010
0000
0000
0000
,  // measure 60
0000
0000
0000
0000
,  // measure 61
0010
0000
0100
0000
,  // measure 62
1001
1001
0000
0000
,  // measure 63
0000
0000
0000
0000
,  // measure 64
0000
1100
0000
0000
,  // measure 65
0000
0000
0000
0000
,  // measure 66
0000
0011
0000
0000
,  // measure 67
0000
1000
0000
0001
,  // measure 68
0000
0000
0000
0011
,  // measure 69
0000
0000
0000
0000
,  // measure 70
0000
0000
0000
1100
,  // measure 71
0000
0000
0000
0000
,  // measure 72
0000
0000
0000
1001
,  // measure 73
0000
0000
0000
0010
,  // measure 74
0000
0100
1001
0000
,  // measure 75
0000
0000
0000
0000
,  // measure 76
0000
0000
0011
0000
,  // measure 77
0000
0000
0000
0000
,  // measure 78
0000
0000
0101
0000
,  // measure 79
0000
0000
1010
0000
,  // measure 80
0000
0000
1001
0000
,  // measure 81
0000
0000
1010
0000
,  // measure 82
0000
0000
0000
0000
,  // measure 83
0000
0000
0101
0000
,  // measure 84
0000
0000
0000
0000
,  // measure 85
0000
0000
0011
0000
,  // measure 86
0000
0000
1100
0000
,  // measure 87
0000
1001
0000
0000
,  // measure 88
0000
1010
0000
0000
,  // measure 89
0000
0000
0000
0000
,  // measure 90
0000
1100
0000
0000
,  // measure 91
0000
0000
0000
0000
,  // measure 92
0000
0101
0000
0000
,  // measure 93
0000
0011
0000
0000
,  // measure 94
0000
1001
0000
0000
,  // measure 95
0000
0000
0000
0000
,  // measure 96
0000
0101
0000
0000
,  // measure 97
0000
0000
0000
0000
,  // measure 98
0000
1010
0000
0000
,  // measure 99
0000
0000
0000
0000
,  // measure 100
0000
1001
0000
1010
,  // measure 101
0000
1001
0000
0220
,  // measure 102
0000
0000
0000
0000
,  // measure 103
0000
0000
0000
0000
,  // measure 104
0000
0000
0000
0000
,  // measure 105
0000
0000
0000
0000
,  // measure 106
0330
0000
0000
0000
;

//---------------dance-single - ----------------
#NOTES:
     dance-single:
     :
     Beginner:
     4:
     0.139,0.518,0.121,0.000,0.000: // measure 1
0000
0000
0000
0000
,  // measure 2
1000
0001
1000
0001
,  // measure 3
0100
0000
0010
0000
,  // measure 4
0100
0000
0010
0000
,  // measure 5
1000
0001
1000
0001
0100
0010
0100
0010
,  // measure 6
0100
0001
0000
0000
0000
0001
0000
0000
,  // measure 7
0000
0001
0000
0000
0000
0001
0000
0000
,  // measure 8
0000
1000
0000
0000
0000
1000
0000
0000
,  // measure 9
0000
1000
0000
0000
0000
1000
0000
0000
,  // measure 10
0000
0010
0000
0000
0000
0010
0000
0000
,  // measure 11
0000
0100
0000
0000
0000
0100
0000
0000
,  // measure 12
0000
1001
0000
0000
0000
0000
0000
0000
,  // measure 13
0000
0000
0000
0000
0000
1000
0000
0000
,  // measure 14
0000
0001
0000
0000
0000
1000
0000
0000
,  // measure 15
0000
0001
0000
0000
0000
0100
0000
0000
,  // measure 16
0000
0010
0000
0000
0000
0100
0000
0000
,  // measure 17
0000
0010
0000
0000
0000
0000
1000
0000
,  // measure 18
0000
0001
0000
1000
,  // measure 19
0000
0001
0000
0100
,  // measure 20
0000
0010
0000
0100
,  // measure 21
0000
0000
0000
0010
,  // measure 22
0000
0100
0000
0010
,  // measure 23
0000
1000
0000
0001
,  // measure 24
0000
1000
0000
0001
,  // measure 25
0000
0000
0000
0010
,  // measure 26
0000
0001
0000
0010
,  // measure 27
0000
0001
0000
1000
,  // measure 28
0000
0100
0000
1000
,  // measure 29
0000
0000
0000
0001
,  // measure 30
0000
0100
0000
0001
,  // measure 31
0000
0100
0000
0010
,  // measure 32
0000
1000
0000
0010
,  // measure 33
0000
0000
0000
0000
,  // measure 34
1000
0000
0000
0000
,  // measure 35
0000
0000
0000
0000
,  // measure 36
0001
0000
0000
0000
,  // measure 37
0000
0000
0000
0000
,  // measure 38
1000
0000
0000
0000
,  // measure 39
0000
0000
0000
0000
,  // measure 40
0000
0001
0000
0000
,  // measure 41
0000
0000
0000
0000
,  // measure 42
1001
0000
0000
0000
,  // measure 43
0000
0000
0000
0000
,  // measure 44
0000
0000
0000
0000
,  // measure 45
0000
0000
0000
0000
,  // measure 46
0000
0000
0000
0000
,  // measure 47
1001
0000
0000
0000
,  // measure 48
0000
0000
0000
0000
,  // measure 49
0000
0000
0000
0000
,  // measure 50
0000
0000
0000
0000
,  // measure 51
0000
0000
1001
0000
,  // measure 52
0000
0000
0000
0000
,  // measure 53
0000
0000
0000
0000
,  // measure 54
0000
0000
0000
0000
,  // measure 55
0000
0000
0000
0000
,  // measure 56
0000
0000
0000
0000
,  // measure 57
0000
1001
0000
0000
,  // measure 58
0000
0000
0000
0000
,  // measure 59
0000
0000
0000
0000
,  // measure 60
0000
0000
0000
0000
,  // measure 61
0000
0000
0000
0000
,  // measure 62
0000
1001
0000
0000
,  // measure 63
0000
0000
0000
0000
,  // measure 64
0000
0000
0000
0000
,  // measure 65
0000
0000
0000
0000
,  // measure 66
0000
0000
0000
0000
,  // measure 67
0000
0000
0000
0000
,  // measure 68
0000
0000
0000
1001
,  // measure 69
0000
0000
0000
0000
,  // measure 70
0000
0000
0000
0000
,  // measure 71
0000
0000
0000
0000
,  // measure 72
0000
0000
0000
0000
,  // measure 73
0000
0000
0000
0000
,  // measure 74
0000
0000
1001
0000
,  // measure 75
0000
0000
0000
0000
,  // measure 76
0000
0000
0000
0000
,  // measure 77
0000
0000
0000
0000
,  // measure 78
0000
0000
0000
0000
,  // measure 79
0000
0000
0000
0000
,  // measure 80
0000
0000
0000
0000
,  // measure 81
0000
0000
1001
0000
,  // measure 82
0000
0000
0000
0000
,  // measure 83
0000
0000
0000
0000
,  // measure 84
0000
0000
0000
0000
,  // measure 85
0000
0000
0010
0000
,  // measure 86
0000
0000
0100
0000
,  // measure 87
0000
1001
0000
0000
,  // measure 88
0000
0000
1001
0000
,  // measure 89
0000
0000
0000
0000
,  // measure 90
0000
0000
0000
0000
,  // measure 91
0000
0000
0000
0000
,  // measure 92
0000
0000
0100
0000
,  // measure 93
0000
0000
0010
0000
,  // measure 94
0000
0000
1001
0000
,  // measure 95
0000
0000
0000
0000
,  // measure 96
0000
0000
0010
0000
,  // measure 97
0000
0000
0000
0000
,  // measure 98
0000
0000
0100
0000
,  // measure 99
0000
0000
0000
0000
,  // measure 100
0000
0001
0000
1000
,  // measure 101
0000
0001
0000
1001
;
