#TITLE:airflow;
#SUBTITLE:;
#ARTIST:Mr.T;
#TITLETRANSLIT:;
#SUBTITLETRANSLIT:;
#ARTISTTRANSLIT:;
#CREDIT:DMAxel;
#BANNER:airflow.png;
#BACKGROUND:airflow-bg.png;
#LYRICSPATH:;
#CDTITLE:beatmaniaIIDX.png;
#MUSIC:airflow.mp3;
#OFFSET:-7.320;
#SAMPLESTART:13.789;
#SAMPLELENGTH:12.000;
#SELECTABLE:YES;
#BPMS:0.000=148.000,228.000=142.000,232.000=136.000,236.000=131.000,238.000=118.000,239.000=105.000,239.500=124.000,241.000=109.000,242.000=95.000,243.000=75.000,244.000=70.000;
#STOPS:;
#BGCHANGES:-20.000=airflow.avi=1.000=1=1=0,
99999=-nosongbg-=1.000=0=0=0 // don't automatically add -songbackground-
;

//---------------dance-single - ----------------
#NOTES:
     dance-single:
     :
     Hard:
     7:
     0.487,0.487,0.654,0.105,0.013: // measure 1
0011
0000
0000
0000
,  // measure 2
0000
0000
0000
0000
0000
0000
0000
0100
,  // measure 3
1000
0000
0000
0000
,  // measure 4
2002
0000
0000
3003
,  // measure 5
1001
0001
1000
0001
,  // measure 6
0011
0100
1000
0100
,  // measure 7
1001
0000
1000
0000
0001
0000
1000
0010
,  // measure 8
0200
0001
0301
1000
,  // measure 9
1001
0000
0001
0000
1000
0001
0010
0100
,  // measure 10
2000
0010
3010
0110
,  // measure 11
1001
0000
1000
0000
0001
1000
0100
0010
,  // measure 12
0001
1000
0100
1000
0010
0100
0001
1000
,  // measure 13
1001
1000
0001
1000
,  // measure 14
1100
0010
0001
0010
,  // measure 15
1001
0000
0001
0000
1000
0000
0001
0100
,  // measure 16
0020
1000
1030
1010
,  // measure 17
1001
0001
0101
0101
,  // measure 18
1001
0000
1000
0001
1000
0000
0100
0010
,  // measure 19
0001
1000
0010
1000
0001
0010
0100
1000
,  // measure 20
1001
0000
1010
1010
,  // measure 21
1001
0001
2000
0100
,  // measure 22
3100
0000
1000
0001
0010
0000
0001
0000
,  // measure 23
0011
0011
1100
1100
,  // measure 24
1001
0000
1000
0001
0010
0100
1000
0001
,  // measure 25
1001
1000
0002
0010
,  // measure 26
0013
0000
0001
1000
0100
0000
1000
0000
,  // measure 27
1100
1100
0011
0011
,  // measure 28
1001
0000
0001
1000
0100
0010
0001
1000
,  // measure 29
1001
1010
0110
0110
,  // measure 30
1001
0000
0101
0000
1001
0000
0010
1000
,  // measure 31
1001
0101
0110
0110
,  // measure 32
1001
0000
1010
0000
1001
0000
0100
0001
,  // measure 33
1001
0011
0110
0110
,  // measure 34
1001
0000
1100
0000
1001
0000
0010
1000
,  // measure 35
0001
0000
0010
0001
0100
0000
0001
0000
,  // measure 36
0101
0000
0010
1000
0001
0000
0010
0100
,  // measure 37
1000
0000
0010
1000
0001
0010
0100
1000
,  // measure 38
2002
0000
3003
1001
,  // measure 39
1100
0010
0001
1000
,  // measure 40
1010
0100
0001
0010
,  // measure 41
0011
0000
0100
0000
1000
0000
0001
0100
,  // measure 42
2000
3001
1001
1000
,  // measure 43
0011
0000
0100
0000
1000
0001
0100
0010
,  // measure 44
1000
1000
1010
0010
,  // measure 45
1001
0000
1000
0000
1000
0001
0010
0100
,  // measure 46
1000
0001
0010
0001
1000
0010
0100
0001
,  // measure 47
1001
1000
0001
0101
,  // measure 48
1010
0001
1000
1010
,  // measure 49
0101
0000
1000
0000
0001
0000
0100
0001
,  // measure 50
1000
0010
1010
0011
,  // measure 51
1001
0001
0101
1100
,  // measure 52
1001
0000
0001
1000
0001
0000
0010
0100
,  // measure 53
1000
0001
0100
0001
1000
0100
0010
0001
,  // measure 54
1000
0100
1000
0001
0100
0010
1000
0100
,  // measure 55
1000
0001
0010
0100
1000
0001
0100
0010
,  // measure 56
0110
0000
0000
0000
0000
0000
1000
0100
,  // measure 57
0001
0000
1000
0000
0100
0000
0000
0000
1000
0000
0001
0000
0010
0000
0001
0010
,  // measure 58
0001
0000
1000
0000
0010
0000
0000
0000
1001
0000
0000
0000
0100
0000
1000
0100
,  // measure 59
1000
0000
0001
0000
0100
0000
0010
0000
1000
0000
0000
0000
0001
0000
0010
0001
,  // measure 60
0010
0100
1000
0010
0100
0000
0000
0001
,  // measure 61
1000
0100
0010
0001
0100
0010
1000
0100
,  // measure 62
0002
0000
0000
2000
0000
0000
0000
0000
,  // measure 63
3003
0000
0000
0000
;

//---------------dance-single - ----------------
#NOTES:
     dance-single:
     :
     Medium:
     4:
     0.274,0.297,0.017,0.384,0.000:
1000
0000
0000
0000
,
0000
0000
0000
0000
,
0001
0000
0000
0000
,
2000
0000
0000
0000
,
3002
0000
0000
0103
,
0020
0000
0000
1030
,
0002
0000
0000
0000
0003
0000
0100
0010
,
0200
0000
0302
0000
,
2003
0000
0000
0000
3000
0010
0100
0010
,
0200
0000
0301
1000
,
0200
0000
0000
1300
,
0001
0010
0001
1000
,
0020
0000
0000
0130
,
0002
0000
0000
1003
,
0020
0000
0000
0130
,
0110
0000
1000
0001
,
0200
0000
0301
0010
,
0100
2000
0000
3001
,
1000
0001
0010
0100
,
1000
0000
0001
0001
,
0002
0000
1003
0100
,
2000
0000
3001
0010
,
0001
0100
0010
1000
,
0001
0010
0100
1000
,
0002
0000
1003
0010
,
2000
0000
3001
0100
,
0002
0000
2003
0000
,
3002
0000
0000
0000
,
1003
0010
1000
0010
,
1000
0010
1000
0000
,
0001
0100
0001
0100
,
0001
0001
1000
1000
,
0001
0010
0001
0010
,
0001
0010
0001
1000
,
0200
0000
1300
0001
,
0020
0000
0032
0000
,
2003
0000
3200
0000
,
0300
0000
0000
0000
,
2000
0000
0000
3010
,
0200
0000
0000
0301
,
0020
0000
0000
0031
,
2000
0000
3200
0000
,
2300
0000
0000
0000
3000
0010
0100
0010
,
0200
0000
0301
0100
,
0002
0000
0000
0000
0003
0100
0010
0100
,
0010
0100
0001
0010
,
0200
0000
0000
1300
,
0002
0000
0000
0103
,
0020
0000
0000
0130
,
0002
0000
0013
0100
,
2000
0000
3100
0010
,
0001
2000
0000
3001
,
0010
0001
0010
0100
,
1000
0001
0010
0100
,
1000
0010
0100
0001
,
1001
0000
0000
0000
0000
0000
1000
0010
,
1000
0000
1000
0000
1000
0000
0001
0010
,
0001
0000
0001
0000
0001
0000
1000
0010
,
2000
0000
0000
0000
3001
0000
0001
0010
,
0001
0000
0010
0000
0100
0000
0000
1000
,
0002
0000
0000
0003
,
2000
0000
0000
0002
0000
0000
0000
0000
,
3003
0000
0000
0000
;

//---------------dance-single - ----------------
#NOTES:
     dance-single:
     :
     Easy:
     2:
     0.155,0.216,0.026,0.035,0.000:
0001
0000
0000
0000
,
0000
0000
0000
0000
,
1000
0000
0000
0000
,
0000
0000
0000
0000
,
0001
0000
0000
1000
,
0100
0000
0000
1000
,
0001
0000
0000
0001
,
0100
0000
0010
0000
,
1000
0000
0000
0001
,
1000
0000
0001
1000
,
0001
0000
0000
1000
,
0010
0100
0010
0100
,
0010
0000
0000
1000
,
0001
0000
0000
0100
,
0001
0000
0000
0001
,
1000
0000
0010
0100
,
0010
0000
0100
0010
,
0100
0000
0000
0001
,
0100
0010
0100
0010
,
0100
0000
0001
1000
,
0001
0000
0000
0000
,
0001
0000
1000
0000
,
0001
0000
0100
0000
,
0100
0000
0000
0000
,
0100
0000
0000
0000
,
0010
0000
0000
0000
,
0100
0000
0100
0000
,
0100
0000
0000
0000
,
0001
0000
0010
0000
,
0100
0000
1000
0000
,
0010
0000
0100
0000
,
0001
0000
0001
0000
,
1000
0000
0100
0000
,
0010
0000
0001
0000
,
2000
0000
0000
0000
,
3002
0000
0000
0000
,
2003
0000
0000
0000
,
3001
0000
0000
0000
,
1001
0000
0000
1000
,
0001
0000
0000
0100
,
0001
0000
0000
0001
,
1000
0000
1000
0000
,
1001
0000
0000
0001
,
1000
0000
0001
1000
,
0001
0000
0000
1000
,
0010
0100
0010
0100
,
1001
0000
0000
0001
,
1000
0000
0000
0100
,
1000
0000
0000
1000
,
0001
0000
0001
0000
,
1000
0000
0010
0100
,
0010
0000
0000
0000
,
0100
0010
0100
0010
,
1000
0000
1000
0000
,
0010
0100
0010
0100
,
0001
0000
0000
0000
,
0001
0000
0000
0000
,
1000
0000
0000
0000
,
0001
0000
0000
0000
,
0100
0000
0000
0000
,
0010
0000
0000
0000
,
2000
0000
0000
0000
,
3000
0000
0000
0000
;

//---------------dance-single - ----------------
#NOTES:
     dance-single:
     :
     Beginner:
     1:
     0.050,0.106,0.044,0.000,0.000:
0001
0000
0000
0000
,
0000
0000
0000
0000
,
0001
0000
0000
0000
,
0000
0000
0000
0000
,
1001
0000
0000
0000
,
0000
0000
0000
0000
,
1000
0000
0000
0000
,
0000
0000
0000
0000
,
0001
0000
0000
0000
,
0000
0000
0000
0000
,
1000
0000
0000
0000
,
0000
0000
0000
0000
,
0010
0000
0000
0000
,
0000
0000
0000
0000
,
0010
0000
0000
0000
,
0000
0000
0000
0000
,
0010
0000
0000
0000
,
0000
0000
0000
0000
,
0100
0000
0000
0000
,
0000
0000
0000
0000
,
0100
0000
0000
0000
,
0000
0000
0000
0000
,
0100
0000
0000
0000
,
0000
0000
0000
0000
,
0010
0000
0000
0000
,
0000
0000
0000
0000
,
0010
0000
0000
0000
,
0000
0000
0000
0000
,
0110
0000
0000
0000
,
0000
0000
0000
0000
,
0001
0000
0000
0000
,
0000
0000
0000
0000
,
1000
0000
0000
0000
,
0000
0000
0000
0000
,
1000
0000
0000
0000
,
0000
0000
0000
0000
,
0001
0000
0000
0000
,
0001
0000
0000
0000
,
1001
0000
0000
0000
,
0000
0000
0000
0000
,
0001
0000
0000
0000
,
0000
0000
0000
0000
,
1000
0000
0000
0000
,
0000
0000
0000
0000
,
0001
0000
0000
0000
,
0000
0000
0000
0000
,
1001
0000
0000
0000
,
0000
0000
0000
0000
,
1000
0000
0000
0000
,
0000
0000
0000
0000
,
0001
0000
0000
0000
,
0000
0000
0000
0000
,
1000
0000
0000
0000
,
0000
0000
0000
0000
,
1000
0000
0000
0000
,
1001
0000
0000
0000
,
0001
0000
0000
0000
,
0000
0000
0000
0000
,
0010
0000
0000
0000
,
0100
0000
0000
0000
,
1000
0000
0000
0000
,
0001
0000
0000
0000
;
