#TITLE:焼きたて!! ジャぱん;
#SUBTITLE:;
#ARTIST:岩崎琢;
#TITLETRANSLIT:Yakitate!! Japan;
#SUBTITLETRANSLIT:;
#ARTISTTRANSLIT:Taku Iwasaki;
#CREDIT:DMAxel;
#BANNER:Yakitate!! Japan.png;
#BACKGROUND:Yakitate!! Japan-bg.png;
#LYRICSPATH:;
#CDTITLE:DMAxel Original Simfile.png;
#MUSIC:Yakitate!! Japan.mp3;
#OFFSET:-0.920;
#SAMPLESTART:8.379;
#SAMPLELENGTH:12.000;
#SELECTABLE:YES;
#BPMS:0.000=106.000;
#STOPS:;
#BGCHANGES:;

//---------------dance-single - ----------------
#NOTES:
     dance-single:
     :
     Easy:
     1:
     0.108,0.126,0.029,0.153,0.000: // measure 1
0000
0000
0000
0000
,  // measure 2
0000
0000
0000
0000
,  // measure 3
0000
0000
0000
0000
,  // measure 4
0000
0010
0000
0000
,  // measure 5
0001
0000
0000
0010
,  // measure 6
0000
0000
0001
0000
,  // measure 7
0000
1000
0000
0000
,  // measure 8
0100
0000
0000
1000
,  // measure 9
0000
0000
0100
0000
,  // measure 10
0000
2000
0000
0000
,  // measure 11
0000
0000
0000
3002
,  // measure 12
0000
0000
0000
0000
,  // measure 13
0000
0203
0000
0000
,  // measure 14
0000
0000
0000
0320
,  // measure 15
0000
0000
2030
0000
,  // measure 16
0000
3001
0000
0000
,  // measure 17
0100
0000
0000
0010
,  // measure 18
0000
0000
0200
0000
,  // measure 19
0000
0310
0000
0000
,  // measure 20
0100
0000
0000
0010
,  // measure 21
0000
0000
1000
0000
,  // measure 22
0000
0200
0000
0000
,  // measure 23
0000
0000
0000
0320
,  // measure 24
0000
0000
0000
0000
,  // measure 25
0000
0032
0000
0000
,  // measure 26
0000
0023
0000
0000
,  // measure 27
0000
0000
0130
0000
,  // measure 28
0000
0000
1000
0000
0000
0010
0000
0000
,  // measure 29
0100
0000
0000
0001
0000
0000
0100
0000
,  // measure 30
0000
0010
0000
0000
1000
0000
0000
0001
,  // measure 31
0000
0000
0010
0000
0000
0100
0000
0000
,  // measure 32
1000
0000
0000
0010
0000
0000
0100
0000
,  // measure 33
0000
0001
0000
0000
0010
0000
0000
0001
,  // measure 34
0000
0200
0000
0000
,  // measure 35
0310
0000
0000
0000
,  // measure 36
2000
0000
3001
0010
,  // measure 37
0100
2000
0000
0000
,  // measure 38
0000
3002
0000
1003
,  // measure 39
0000
0000
0110
0000
,  // measure 40
0000
0000
0000
0002
0000
0000
0000
0000
,  // measure 41
1003
0000
0000
0001
,  // measure 42
0000
0000
0100
0000
,  // measure 43
0000
0001
0000
0000
,  // measure 44
1000
0000
0000
0010
,  // measure 45
0000
0000
0100
0000
,  // measure 46
0000
0001
0000
0000
,  // measure 47
0200
0000
0000
0000
,  // measure 48
0000
0301
0000
0000
0010
0000
0000
0000
,  // measure 49
0000
0002
0000
0000
0000
0000
0000
0000
,  // measure 50
0003
0010
0000
0000
1001
0000
0000
0000
,  // measure 51
0000
0200
0000
0000
0000
0000
0000
0000
,  // measure 52
0320
0000
0000
0000
,  // measure 53
0032
0000
0000
0000
,  // measure 54
2003
0000
0000
0000
,  // measure 55
3010
0000
1000
0000
,  // measure 56
0001
0000
0100
0000
,  // measure 57
0010
0000
0100
0000
,  // measure 58
1001
0000
0000
0000
0000
0000
0000
1001
;

//---------------dance-single - ----------------
#NOTES:
     dance-single:
     :
     Medium:
     4:
     0.208,0.274,0.116,0.160,0.004: // measure 1
0000
0000
0000
0000
,  // measure 2
0000
0000
0000
0000
,  // measure 3
0000
0000
0000
0000
,  // measure 4
0000
0000
1001
0000
0000
0010
0000
0000
,  // measure 5
0000
0001
0000
0010
0000
1001
0000
0100
,  // measure 6
1000
0100
0000
1000
0001
1000
0000
0010
,  // measure 7
0000
0000
0010
0100
0010
0100
0000
0000
,  // measure 8
0001
1000
0001
1000
0000
0000
1000
0010
,  // measure 9
1000
0010
0000
0000
0100
0001
0100
0001
,  // measure 10
0000
0100
0020
0000
0000
0000
0000
0000
,  // measure 11
0000
0000
0000
0230
,  // measure 12
0000
0000
0000
0000
,  // measure 13
0000
0302
0000
0000
,  // measure 14
0000
0000
0000
2003
,  // measure 15
0000
0000
0000
0000
0000
0000
0000
3010
,  // measure 16
0000
0000
1001
0000
0000
0100
0000
0000
,  // measure 17
0001
0010
0001
0010
0000
0000
0100
1000
,  // measure 18
0100
1000
0000
0000
0010
0100
0001
1000
,  // measure 19
0001
0000
1000
0010
1000
0010
0000
0000
,  // measure 20
0100
0001
0100
0001
0000
0000
0010
0001
,  // measure 21
0010
0001
0000
0000
1000
0100
1000
0100
,  // measure 22
0000
1000
0002
0000
0000
0000
0000
0000
,  // measure 23
0000
0000
0000
0203
,  // measure 24
0000
0000
0000
0000
,  // measure 25
0000
0302
0000
0000
,  // measure 26
0000
0023
0000
0000
,  // measure 27
0000
0000
0130
0000
,  // measure 28
0000
0000
0001
0000
0000
1001
0000
0000
,  // measure 29
1000
0000
0000
1001
0000
0000
0001
0000
,  // measure 30
0000
0101
0000
0000
1000
0000
0000
1010
,  // measure 31
0000
0000
0001
0000
0000
0011
0000
0000
,  // measure 32
1000
0000
0000
1100
0000
0000
0010
0000
,  // measure 33
0000
0110
0000
0000
0100
0000
0000
0110
,  // measure 34
0000
0000
0000
0000
0001
0000
0000
0010
0000
0000
0001
0000
0000
0000
0100
0000
,  // measure 35
0010
0000
0000
0000
0000
0000
1000
0100
,  // measure 36
1000
0100
1000
0000
0001
0000
0010
0000
,  // measure 37
0100
0000
1000
0010
0100
0010
0100
0010
,  // measure 38
0000
0000
0101
0000
0000
0010
1010
0000
,  // measure 39
0000
0000
0101
0000
,  // measure 40
0000
0000
0000
0001
0100
0001
0000
0000
,  // measure 41
1010
0000
0000
0000
0000
0000
0000
0001
,  // measure 42
0010
0001
0000
0000
0000
1000
0010
1000
,  // measure 43
0000
0000
0000
0010
0100
0010
0000
0000
,  // measure 44
1000
0001
1000
0001
0100
0000
0000
0001
,  // measure 45
0100
0001
0000
0000
0000
0100
0010
0100
,  // measure 46
0000
0000
0000
0010
1000
0010
0100
0010
,  // measure 47
0200
0000
0000
0000
,  // measure 48
0000
0302
0000
0000
0000
0000
0000
0000
,  // measure 49
0000
0023
0000
0000
0000
0000
0000
0000
,  // measure 50
0000
0230
0000
0000
0000
0000
0000
0000
,  // measure 51
0000
2300
0000
0000
0000
0000
0000
0000
,  // measure 52
3200
0000
0000
0000
,  // measure 53
0320
0000
0032
0000
,  // measure 54
0203
0000
0000
0000
0000
0320
0000
0000
,  // measure 55
0230
0000
0000
0000
0302
0000
0000
1000
,  // measure 56
1003
0000
0000
0000
0020
0000
0000
0100
,  // measure 57
0130
0000
0000
0000
2000
0000
0000
0001
,  // measure 58
3001
0000
0010
0000
1000
0000
0000
1001
;

//---------------dance-single - ----------------
#NOTES:
     dance-single:
     :
     Hard:
     6:
     0.306,0.337,0.116,0.218,0.036: // measure 1
0000
0000
0000
0000
,  // measure 2
0000
0000
0000
0000
,  // measure 3
0000
0000
0000
0000
,  // measure 4
0000
0000
0010
1000
0010
0002
0000
0103
,  // measure 5
0000
0001
0010
2000
0000
3100
0000
0001
,  // measure 6
0010
0100
1000
0010
0100
0010
1000
0010
,  // measure 7
0100
0000
0000
0010
0100
0010
0000
0101
,  // measure 8
0000
0100
0010
1000
1000
1000
0000
0010
,  // measure 9
0100
0002
0000
0000
0000
0103
0010
2000
,  // measure 10
0000
3010
0200
0000
0000
0000
0000
0000
,  // measure 11
0302
0000
0000
0023
,  // measure 12
0000
0000
0230
0000
,  // measure 13
0000
0000
2300
0000
0000
0000
3001
0010
,  // measure 14
0100
1000
0100
0010
0000
0001
0010
0100
,  // measure 15
1000
0010
0000
1000
0010
0100
0001
0100
,  // measure 16
0000
0110
0000
0000
1001
0000
0010
0000
0100
0000
0002
0000
0000
0000
0000
0000
,  // measure 17
0000
0013
0001
0200
0000
0000
0000
0310
,  // measure 18
1000
0200
0000
0000
1300
0010
0100
0001
,  // measure 19
0010
0000
0000
0001
0100
2000
0000
0000
,  // measure 20
3000
0010
0100
0001
0001
0001
0000
0100
,  // measure 21
0010
2000
0000
0000
0000
3010
0100
0002
,  // measure 22
0000
0103
0020
0000
0000
0000
0000
0000
,  // measure 23
2030
0000
0000
3200
,  // measure 24
0000
0000
0320
0000
,  // measure 25
0000
0000
0032
0000
0000
0103
0000
0010
,  // measure 26
0100
0000
0001
0000
0010
0000
0100
0000
0000
0000
1000
0000
0010
0000
0000
0010
,  // measure 27
0000
0000
0100
0000
0000
0100
0000
0000
1001
0000
0000
0000
0000
0000
0000
0000
,  // measure 28
1000
0010
0100
0010
0000
0010
0100
0000
,  // measure 29
0100
0001
0000
0001
0010
0000
0010
0001
,  // measure 30
0000
0001
0100
0000
0100
0010
0000
0010
,  // measure 31
1000
0010
0100
0010
0000
0010
1000
0000
,  // measure 32
1000
0100
0000
0100
0010
0000
0010
0001
,  // measure 33
0000
0001
0100
0000
0100
0010
0000
0010
,  // measure 34
1000
0000
0001
0000
1000
0000
0000
0100
0000
0000
0010
0000
0001
0000
1000
0000
,  // measure 35
0001
0000
0100
0010
0100
0010
0100
0000
,  // measure 36
0001
0010
0100
1000
0011
0000
1100
0000
,  // measure 37
0011
0000
1100
0000
0010
0100
0010
1000
,  // measure 38
0000
0000
0002
0000
0103
0010
1100
0000
,  // measure 39
0000
0000
0101
0000
,  // measure 40
0000
0000
0000
0000
0000
0000
0001
0000
0010
0000
0100
0000
0000
1000
0000
0000
,  // measure 41
1001
0000
0000
0000
0000
0000
0001
1000
0000
1000
0001
0000
0100
0000
0010
0000
,  // measure 42
0100
0001
0000
0010
0001
0100
0010
1000
,  // measure 43
0000
0010
0000
1000
0010
0100
0000
0010
,  // measure 44
0100
0010
1000
0010
0100
0000
0000
0001
,  // measure 45
0100
0010
0000
1001
0000
0010
1000
0010
,  // measure 46
0100
0010
0000
0100
0001
0010
0001
0100
,  // measure 47
0020
0000
0000
0000
0000
0000
0000
1030
,  // measure 48
0200
0000
0000
0000
,  // measure 49
0000
1300
0100
0010
0001
0000
0000
0100
,  // measure 50
0020
0000
0000
0000
,  // measure 51
0000
1030
0010
0100
0002
0000
0000
0013
,  // measure 52
0200
0000
0000
0000
0000
1300
0010
0100
,  // measure 53
0002
0000
0023
0000
,  // measure 54
0230
0000
0000
0000
0000
1300
0100
0010
,  // measure 55
0002
0000
0000
0000
0000
0000
0000
0000
0103
0000
0000
0010
0000
0000
0100
0000
,  // measure 56
1001
0000
0000
0000
0000
0000
0000
0000
0100
0000
0000
0010
0000
0000
0100
0000
,  // measure 57
1001
0000
0000
0000
0000
0000
0000
0000
0010
0000
0000
0100
0000
0000
0010
0000
,  // measure 58
1001
0000
0000
0000
0000
0000
0000
1001
;

//---------------dance-single - ----------------
#NOTES:
     dance-single:
     :
     Challenge:
     7:
     0.442,0.463,0.320,0.182,0.251: // measure 1
0000
0000
0000
0000
,  // measure 2
0000
0000
0000
0000
,  // measure 3
0000
0000
0000
0000
0000
0000
0000
0011
,  // measure 4
0000
1010
0000
0000
0000
1000
0100
1000
0100
1000
0010
0000
0000
0000
1001
0000
,  // measure 5
0010
0000
0001
0000
0100
0000
1000
0000
0000
0000
1001
0000
0000
0010
0001
0010
,  // measure 6
0001
0100
0010
0000
1000
0000
0100
0000
0001
0000
0010
0000
0100
0000
1000
0000
,  // measure 7
1001
0000
0000
0000
0000
0010
1000
0010
1000
0010
0100
0000
0000
0000
1001
0000
,  // measure 8
0000
0100
0001
0100
0001
0100
0010
0000
1000
0000
0100
0000
0000
0000
1001
0000
,  // measure 9
0010
2000
0000
3100
0000
1001
0100
0002
,  // measure 10
0000
0013
0200
0000
0000
0000
1300
0010
,  // measure 11
0200
0000
0001
0000
0301
0010
0100
1000
,  // measure 12
0100
0010
0001
0100
0020
0000
0000
0000
,  // measure 13
0130
0001
2000
0000
0000
0000
3010
0100
,  // measure 14
0001
0100
0010
1000
0000
1000
0010
0100
,  // measure 15
0001
0000
0100
0000
0000
0000
0100
0000
0001
0000
0010
0000
0100
0000
1000
0010
,  // measure 16
0000
0100
0010
0000
1001
0000
0100
0001
0100
0001
0010
0000
0000
0000
0101
0000
,  // measure 17
0010
0000
1000
0000
0100
0000
0001
0000
0000
0000
1001
0000
0000
0010
1000
0010
,  // measure 18
1000
0010
0100
0000
0000
0000
1001
0000
0100
0000
0001
0000
0010
0000
0100
0000
,  // measure 19
1001
0000
0000
0000
0000
0100
1000
0100
1000
0010
0200
0000
0000
0000
0310
0000
,  // measure 20
0000
0010
0001
0010
0001
0100
0010
0000
1000
0000
1001
0000
0000
0000
1000
0000
,  // measure 21
0100
0002
0000
0013
0000
0001
0010
2000
,  // measure 22
0000
3100
0020
0000
0000
0031
0010
0100
,  // measure 23
1000
0100
0010
0001
0100
0001
0010
1000
,  // measure 24
0010
0001
0010
0100
2000
0000
0010
0000
,  // measure 25
3010
0000
0100
0000
1001
0000
0010
0001
0010
0001
0100
0000
0000
0000
0010
0000
,  // measure 26
1000
0000
0100
0000
0010
0000
0001
0000
0000
0000
0100
0010
0100
0000
0000
0101
,  // measure 27
0000
0000
0010
0000
0000
1010
0000
0000
1001
0000
0000
0000
0000
0000
0000
0000
,  // measure 28
0001
0000
0100
0000
1000
0000
0000
0000
0000
1000
0100
0000
0000
0000
0000
0100
,  // measure 29
0001
0010
0100
1000
0000
0010
0100
0000
,  // measure 30
0000
0100
0001
0000
0000
0000
0000
0001
0100
0000
0010
0000
1000
0000
0100
0000
,  // measure 31
0001
0000
0100
0000
1000
0000
0000
0000
0000
0001
0010
0000
0000
0000
0000
0010
,  // measure 32
1000
0100
1000
0010
0000
0100
0002
0000
,  // measure 33
0000
0203
0000
0000
0320
0000
0000
1030
,  // measure 34
0010
0100
0010
0100
0010
0000
1000
0100
0000
1000
0010
0000
0100
0000
0001
0000
,  // measure 35
0020
0000
0031
0010
0100
1000
0000
0010
,  // measure 36
0001
0010
0100
1000
0011
0000
1100
0000
,  // measure 37
0011
0000
0000
0000
1100
0000
0001
0010
0000
0001
0100
0000
0010
0000
2000
0000
,  // measure 38
0000
0000
0000
0000
3020
0000
0000
0000
0130
0000
0001
0000
0010
0011
0000
0000
,  // measure 39
0000
0000
0000
0000
0000
0000
0000
0000
0100
1100
0000
0000
0000
0000
0000
0000
,  // measure 40
0000
0000
0000
0000
0000
0000
0010
0000
0001
0000
0100
0000
0000
1010
0000
0000
,  // measure 41
1001
0000
0000
0000
0000
0000
0001
0100
0000
0010
0100
0000
1001
0000
0100
1000
,  // measure 42
0100
1000
0010
0000
0000
0000
1001
0000
0010
0000
0001
0000
0010
0000
1000
0000
,  // measure 43
0000
0000
1001
0000
0000
0010
0001
0010
0001
0100
0010
0000
0000
0000
1001
0000
,  // measure 44
0100
0000
0001
0000
0100
0000
1000
0000
1001
0000
0000
0000
0000
0010
1000
0010
,  // measure 45
1000
0010
0100
0000
0000
0000
1001
0000
0000
0010
0001
0010
0001
0100
0010
0000
,  // measure 46
0000
0000
1001
0000
0000
0010
1000
0010
1000
0000
0100
0000
0001
0000
0010
0000
,  // measure 47
1001
0100
1000
0100
2000
0000
0000
3010
,  // measure 48
0100
0000
0001
0000
0010
0000
0000
0000
0011
0000
0000
0101
0000
0000
0000
0000
,  // measure 49
0000
1000
0010
0100
0002
0000
0000
0013
,  // measure 50
0001
0000
0100
0000
0010
0000
0000
0000
1100
0000
0000
1010
0000
0000
0000
0000
,  // measure 51
0000
0100
0010
1000
0200
0000
0000
1300
,  // measure 52
0002
0000
0000
0000
0000
1003
0100
0010
,  // measure 53
0200
0000
2300
0000
,  // measure 54
3020
0000
0000
0000
0000
1030
0100
0010
,  // measure 55
0002
0000
0000
0000
0000
0000
0000
0000
0103
0000
0010
1000
0000
0010
0100
0000
,  // measure 56
1001
0000
0000
0000
0000
0000
0000
0000
0001
0000
0000
0101
0000
0000
0100
0000
,  // measure 57
1010
0000
0000
0000
0000
0000
0000
0000
1000
0000
0000
1010
0000
0000
0010
0000
,  // measure 58
0101
0000
0010
0000
0100
0000
1000
0000
0010
0100
0010
0100
0000
0000
1001
0000
;

//---------------dance-single - ----------------
#NOTES:
     dance-single:
     :
     Beginner:
     1:
     0.062,0.084,0.051,0.000,0.000: // measure 1
0000
0000
0000
0000
,  // measure 2
0000
0000
0000
0000
,  // measure 3
0000
0000
0000
0000
,  // measure 4
0000
1000
0000
0000
,  // measure 5
0000
0000
0000
0001
,  // measure 6
0000
0000
0000
0000
,  // measure 7
0000
1000
0000
0000
,  // measure 8
0000
0000
0000
0010
,  // measure 9
0000
0000
0100
0000
,  // measure 10
0000
0001
0000
0000
,  // measure 11
0000
0000
0000
1000
,  // measure 12
0000
0000
0000
0000
,  // measure 13
0000
0001
0000
0000
,  // measure 14
0000
0000
0000
0010
,  // measure 15
0000
0000
0000
0000
,  // measure 16
0000
1001
0000
0000
,  // measure 17
0010
0000
0000
0001
,  // measure 18
0000
0000
0000
0000
,  // measure 19
0000
1000
0000
0000
,  // measure 20
0100
0000
0000
1000
,  // measure 21
0000
0000
0001
0000
,  // measure 22
0000
1001
0000
0000
,  // measure 23
0000
0000
0000
1000
,  // measure 24
0000
0000
0000
0000
,  // measure 25
0000
0001
0000
0000
,  // measure 26
0000
0000
0000
0000
,  // measure 27
0000
0000
1001
0000
,  // measure 28
0000
1000
0000
0000
,  // measure 29
1000
0000
0000
0100
,  // measure 30
0000
0000
0100
0000
,  // measure 31
0000
0010
0000
0000
,  // measure 32
0010
0000
0000
0001
,  // measure 33
0000
0000
0001
0000
,  // measure 34
0000
1000
0000
0000
,  // measure 35
0000
0000
0000
0001
,  // measure 36
0000
0000
0100
0000
,  // measure 37
0000
0010
0000
0000
,  // measure 38
0000
1000
0000
1001
,  // measure 39
0000
0000
0001
0000
,  // measure 40
0000
1000
0000
0000
,  // measure 41
1001
0000
0000
0010
,  // measure 42
0000
0000
0000
0100
,  // measure 43
0000
0000
0000
0000
,  // measure 44
0010
0000
0000
1000
,  // measure 45
0000
0000
0001
0000
,  // measure 46
0000
1000
0000
0000
,  // measure 47
1001
0000
0000
0000
,  // measure 48
0010
0000
0000
0000
,  // measure 49
0000
0000
0000
0000
,  // measure 50
0100
0000
0000
0000
,  // measure 51
0000
0000
0000
0000
,  // measure 52
0001
0000
0000
0000
,  // measure 53
1000
0000
0000
0000
,  // measure 54
0000
0000
0000
0000
,  // measure 55
0010
0000
0000
0000
,  // measure 56
0100
0000
0000
0000
,  // measure 57
0001
0000
0000
0000
,  // measure 58
1001
0000
0010
0000
;
