#TITLE:夢と現実;
#SUBTITLE:;
#ARTIST:P-4 laboratory;
#TITLETRANSLIT:YUME TO GENJITSU;
#SUBTITLETRANSLIT:;
#ARTISTTRANSLIT:;
#CREDIT:DMAxel;
#BANNER:YUME TO GENJITSU.png;
#BACKGROUND:YUME TO GENJITSU-bg.png;
#LYRICSPATH:;
#CDTITLE:pop'n music.png;
#MUSIC:YUME TO GENJITSU.mp3;
#OFFSET:-8.100;
#SAMPLESTART:48.576;
#SAMPLELENGTH:12.000;
#SELECTABLE:YES;
#BPMS:0.000=137.000;
#STOPS:;
#BGCHANGES:;

//---------------dance-single - ----------------
#NOTES:
     dance-single:
     :
     Easy:
     3:
     0.245,0.233,0.191,0.183,0.000:
1000
0010
1000
0010
,
0100
0001
1000
0000
,
0001
1000
0001
0000
,
1000
0002
0000
0000
,
1003
0100
1000
0100
,
0010
0001
1000
0000
,
0001
1000
0001
0000
,
1000
0010
0100
0000
,
0001
1000
0001
0010
,
0100
0010
0100
0010
,
0200
0000
0000
0000
,
1300
0100
0010
0001
,
1000
0001
1000
0100
,
0010
0100
0010
0100
,
0020
0000
0000
0000
,
0031
0010
0100
1000
,
0010
0110
0100
0000
,
0001
0010
0100
1000
,
0001
0010
0100
0010
,
0100
1000
0001
1000
,
0010
0110
0100
0000
,
0001
0010
0100
1000
,
0002
0000
0000
0000
0000
0000
0000
0003
,
0000
2002
0000
0000
0000
0000
3003
0000
,
1001
0000
0110
0000
,
2002
0000
0000
3003
,
1000
0100
0010
0001
,
1000
0010
0100
0001
,
1001
0000
0110
0000
,
2002
0000
0000
3003
,
0001
0010
0100
1000
,
0001
0100
0010
1000
,
1001
0000
0110
0000
,
2002
0000
0000
3003
,
0001
1000
0100
0000
,
0010
0001
0010
0000
,
0001
1000
0001
0010
,
0100
2000
0000
0000
,
3010
0100
0001
0000
,
0100
0010
1000
0000
,
0010
0100
0010
1000
,
0100
0010
0001
0000
,
0100
0110
0010
0000
,
1000
0010
1000
0001
,
0010
0100
1000
0001
,
0010
0100
1000
0000
,
0010
0110
0100
0000
,
0001
1000
0100
1000
,
0020
0000
0000
0000
0000
0000
0000
0030
,
0000
0202
0000
0000
0000
0000
0303
0000
,
0000
2020
0000
0000
0000
0000
3030
0000
,
1001
0000
0110
0000
,
2002
0000
0000
3003
,
1000
0100
0010
0001
,
1000
0010
0100
0001
,
1001
0000
0110
0000
,
2002
0000
0000
3003
,
0001
0010
0100
1000
,
0001
0100
0010
1000
,
1001
0000
0110
0000
,
2002
0000
0000
3003
,
1000
0000
0000
0000
;

//---------------dance-single - ----------------
#NOTES:
     dance-single:
     :
     Medium:
     5:
     0.384,0.350,0.153,0.168,0.000:
0001
0010
0001
0000
1000
0100
1000
0000
,
0001
0010
0100
0000
1000
0001
1000
0000
,
0001
0010
0001
0000
1000
0100
1000
0000
,
0001
1000
0020
0000
0000
0000
0030
0000
,
1000
0010
1000
0000
0001
0010
0001
0000
,
1000
0100
0010
0000
0001
1000
0001
0000
,
1000
0100
1000
0000
0001
0100
0001
0000
,
1000
0100
0010
0001
1000
0000
0000
0000
,
0010
1000
0010
1000
0002
0000
0100
0000
,
0100
0100
0100
0103
,
0220
0000
0000
0330
,
0001
0100
0010
0000
0100
0010
0100
0010
,
0100
0001
0100
0001
2000
0000
0100
0000
,
0100
0100
0100
3100
,
0220
0000
0000
0330
,
1000
0010
0100
0000
0010
0100
0010
0100
,
0010
0000
0110
0000
1010
0000
0000
0002
,
0000
1003
0100
0001
,
0100
1000
0100
0000
0010
0001
0010
0000
,
0001
0010
0100
1000
0001
0000
0100
0010
,
0100
0000
0110
0000
0101
0000
0000
2000
,
0000
0000
3001
0000
0100
0010
0100
0002
,
0000
1000
1000
1003
,
0000
1001
0000
0000
1001
0000
0000
0000
,
0100
0001
0000
0100
0001
0100
0000
0002
,
0000
1003
0100
1000
0000
0010
0000
0100
,
0001
0010
0100
0000
1000
0010
1000
0000
,
0001
0010
0100
1000
0001
0000
1000
0000
,
0010
1000
0000
0010
1000
0010
0000
2000
,
0000
3001
0010
0001
0000
0100
0010
0000
,
1000
0100
0010
0000
0001
0100
0001
0000
,
1000
0100
0010
0001
1000
0000
0001
0000
,
0100
0001
0000
0100
0001
0100
0000
0000
,
2002
0000
0000
3003
,
1000
0010
1000
0000
0010
0100
0010
0000
,
1000
0100
0010
0001
1000
0100
1000
0000
,
0001
0100
0001
0000
0100
0010
0100
0000
,
0001
0010
0100
1000
0001
0100
0001
0000
,
1000
0100
1000
0000
0100
0010
0100
0000
,
1000
0010
0100
0001
1000
0100
1000
0000
,
0001
0010
0001
0000
0010
0100
0010
0000
,
0001
0100
0010
1000
0001
0010
0001
0000
,
0110
0000
0110
0000
0101
0000
0000
2000
,
0000
3001
0100
0000
0001
0000
1000
0100
,
1000
0100
0010
0000
0001
0010
0100
0000
,
1000
0010
0100
0001
1000
0100
1000
0000
,
0110
0000
0110
0000
1010
0000
0000
0002
,
0000
1003
0100
0000
1000
0000
0002
0200
,
0000
0000
0000
0000
0000
0000
0000
0303
,
0000
1100
0000
0000
1001
0000
0000
0000
,
0000
0011
0000
0000
1001
0000
0000
0000
,
0100
1000
0000
0100
1000
0100
0000
2000
,
0000
3001
0100
0001
0000
0100
0001
1000
,
0001
0010
0100
0000
1000
0100
0010
0000
,
0001
1000
0001
1000
0010
0100
0001
0000
,
0010
0001
0000
0010
0001
0010
0000
0002
,
0000
1003
0010
1000
0000
0010
1000
0001
,
1000
0100
0010
0000
0001
0010
0100
0000
,
1000
0001
1000
0001
0100
0010
1000
0000
,
0010
1000
0000
0010
1000
0001
0000
0000
,
2002
0000
0000
3003
,
1000
0000
0000
0000
;

//---------------dance-single - ----------------
#NOTES:
     dance-single:
     :
     Hard:
     8:
     0.501,0.443,0.176,0.344,0.195:
1000
0010
1000
0001
0010
0100
0010
0001
,
1000
0000
1000
0000
0010
0100
0000
0001
0000
0000
1000
0000
0100
0000
1000
0000
,
0001
0000
0100
0000
0000
0010
0000
0000
1000
0000
0000
0100
0000
0000
1000
0000
,
0001
0100
0001
0100
0002
0000
0000
1000
0000
0000
1003
0000
0100
0000
0010
0000
,
0001
0100
0001
1000
0100
0010
0100
1000
,
0001
0000
0001
0000
0100
0010
0000
1000
0000
0000
0001
0000
0010
0000
0001
0000
,
1000
0020
0200
0000
0000
0000
0000
0330
,
0000
0000
0010
0000
0000
0100
0000
0000
0001
0000
0001
0000
1000
0000
1000
0000
,
0001
0010
0100
1000
0001
0200
0000
0010
,
0000
0001
0000
0010
0000
0301
1000
0220
,
0000
0000
0000
0330
,
1000
0100
0001
0000
0100
1000
0001
0001
,
1000
0100
0010
0001
1000
0020
0000
0100
,
0000
1000
0000
0100
0000
1030
0001
0100
,
0010
0200
0020
0000
0000
0000
0330
0000
,
0001
0100
0000
0010
0000
0000
0100
0000
0010
0000
0100
0000
0001
0000
1000
0000
,
1010
0000
0110
0000
1000
0001
0000
0200
,
0000
0301
0010
0000
0100
1000
0010
0100
,
0001
0000
1000
0000
0100
0010
0000
0100
0010
0000
0001
0000
1000
0000
0001
0000
,
0100
0000
0100
0000
0010
1000
0000
0001
0000
0000
1000
0000
0001
0000
0100
0000
,
0101
0000
0110
0000
0001
1000
0000
0020
,
0000
1030
0100
0000
0010
0001
0200
0020
,
0000
0000
0300
0030
1000
0100
0010
0001
,
0000
0000
0101
0000
0000
0110
0000
0000
1001
0000
0000
0000
0000
0000
0000
0000
,
0100
0002
0000
0103
0001
2000
0000
3002
,
0000
0013
0100
2000
0000
3010
0100
0010
,
1000
0000
0100
0000
0010
0001
0000
0010
0001
0000
1000
0000
0010
0000
0100
0000
,
0001
0000
0001
0000
0100
0010
0000
1000
0000
0000
0001
0000
0010
0000
0100
0000
,
1000
0002
0000
0103
0001
2000
0000
3002
,
0000
1003
0100
0020
0000
0031
0100
0010
,
1000
0000
0100
0000
0010
0000
0001
1000
0000
0001
1000
0000
0010
0000
0100
0000
,
0001
0000
0010
0000
0100
0000
1000
0001
0000
1000
0001
0000
0010
0000
0100
0000
,
1000
0002
0000
0103
0001
2000
0000
3000
,
0220
0000
0000
0030
0000
0001
0301
0000
,
0001
0100
0010
1000
0100
0010
0100
1000
,
0001
0000
0100
0000
0010
0100
0000
0001
0000
0000
0100
0000
0001
0000
1000
0000
,
0100
0000
0010
0000
0000
0001
0000
0000
1000
0000
0000
0100
0000
0000
1000
0000
,
0001
0000
0001
0000
0001
0000
0100
0010
0000
0100
0010
0000
1000
0000
0001
0000
,
1000
0010
0100
0001
0010
0100
0010
0001
,
1000
0000
0010
0000
0100
0010
0000
1000
0000
0000
0010
0000
1000
0000
0001
0000
,
0011
2002
0000
3003
,
1000
0000
0010
0000
0100
0001
0000
0100
0001
0000
0010
0000
0100
0000
1000
0000
,
1010
0000
0110
0000
1000
0001
0000
0200
,
0000
0301
0010
0100
1000
1000
0001
0100
,
0001
0000
0010
0000
0100
1000
0000
0100
1000
0000
0001
0000
0010
0000
0100
0000
,
0010
0000
0010
0000
0001
1000
0000
0010
0000
0000
1000
0000
0010
0000
0100
0000
,
0101
0000
0110
0000
0001
1000
0000
0020
,
0000
1030
0100
0010
0001
0001
0200
0020
,
0000
0000
0300
0030
1000
0100
0010
0001
,
0100
0000
0110
0000
0000
1010
0000
0000
2002
0000
0000
0000
0000
0000
3003
0000
,
0000
0000
0110
0000
0000
0101
0000
0000
2002
0000
0000
0000
0000
0000
3003
0000
,
0010
2000
0000
3010
1000
0002
0000
2003
,
0000
3100
0010
0002
0000
0103
0010
1000
,
1000
0000
0100
0000
0010
0001
0000
0010
0001
0000
1000
0000
0010
0000
0010
0000
,
1000
0000
0010
0000
0100
0001
0000
1000
0000
0000
0100
0000
1000
0000
0001
0000
,
0100
0002
0000
0103
0001
2000
0000
3002
,
0000
0000
0013
0000
0100
0000
1000
0010
0000
1000
0010
0000
0100
0000
0001
0000
,
0001
0000
0010
0000
0100
0000
1000
0001
0000
1000
0001
0000
0100
0000
0100
0000
,
0001
0000
0100
0000
0010
1000
0000
0001
0000
0000
0010
0000
0001
0000
1000
0000
,
0100
0020
0000
0031
0010
0100
1000
0000
,
0220
0000
0000
0300
0000
1000
1030
0000
,
1001
0000
0000
0000
;

//---------------dance-single - ----------------
#NOTES:
     dance-single:
     :
     Beginner:
     1:
     0.091,0.140,0.122,0.000,0.000:
0001
0000
0000
0000
,
0001
0000
0000
0000
,
1000
0000
0000
0000
,
1000
0000
0000
0000
,
0001
0000
0000
0000
,
0001
0000
0000
0000
,
1000
0000
0000
0000
,
1000
0000
0000
0000
,
1001
0000
0000
0000
,
0000
0000
0000
0000
,
0100
0000
0000
0000
,
0000
0000
0000
0000
,
1001
0000
0000
0000
,
0100
0000
0000
0000
,
0100
0000
0000
0000
,
0000
0000
0000
0000
,
1001
0000
0000
0000
,
0001
0000
0000
0000
,
1000
0000
0000
0000
,
0010
0000
0000
0000
,
1001
0000
0000
0000
,
1000
0000
0000
0000
,
0001
0000
0000
0000
,
0000
0100
0000
0000
0000
0000
0000
0000
,
1001
0000
0001
0000
,
0001
0000
0000
0000
,
1000
0000
0000
0000
,
0010
0000
0000
0000
,
1001
0000
1000
0000
,
1000
0000
0000
0000
,
0001
0000
0000
0000
,
0100
0000
0000
0000
,
1001
0000
0001
0000
,
1001
0000
0000
0000
,
1000
0000
0000
0000
,
0001
0000
0000
0000
,
1000
0000
0000
0000
,
0001
0000
0000
0000
,
0100
0000
0000
0000
,
0010
0000
0000
0000
,
0100
0000
0000
0000
,
0010
0000
0000
0000
,
1001
0000
1000
0000
,
1000
0000
0000
0000
,
0001
0000
0000
0000
,
0010
0000
0000
0000
,
1001
0000
0001
0000
,
0001
0000
0000
0000
,
1000
0000
0000
0000
,
0000
1001
0000
0000
0000
0000
0000
0000
,
0000
1001
0000
0000
0000
0000
0000
0000
,
1001
0000
0001
0000
,
0001
0000
0000
0000
,
1000
0000
0000
0000
,
0100
0000
0000
0000
,
1001
0000
1000
0000
,
1000
0000
0000
0000
,
0001
0000
0000
0000
,
0010
0000
0000
0000
,
1001
0000
0001
0000
,
1001
0000
0000
0000
,
0100
0000
0000
0000
;

//---------------dance-single - ----------------
#NOTES:
     dance-single:
     :
     Challenge:
     9:
     0.589,0.513,0.153,0.130,0.409: // measure 1
0001
1000
0100
1000
0001
0001
0100
0010
,  // measure 2
1000
0000
1000
0000
0001
0100
0000
0010
0000
0100
0001
0000
1000
0000
0100
0000
,  // measure 3
1000
0000
0010
0000
0100
0010
0000
0100
0010
0000
1000
0001
0000
0000
1000
0000
,  // measure 4
0010
0100
0010
0100
0010
0000
1000
0001
0000
1000
0001
0000
0010
0000
0100
0000
,  // measure 5
1000
0001
0010
0001
1000
1000
0010
0100
,  // measure 6
0001
0000
0001
0000
1000
0010
0000
0100
0000
0010
1000
0000
0001
0000
0010
0000
,  // measure 7
0001
0000
0100
0000
0020
0000
0000
1000
0000
0000
1030
0000
0010
0000
0100
0000
,  // measure 8
0001
0000
1000
0000
0010
0100
0000
0010
0100
0000
0001
0000
1000
0001
1000
0001
,  // measure 9
1000
0000
0100
0000
0010
0000
0001
1000
0000
1000
0010
0000
0100
0000
0002
0000
,  // measure 10
0000
0013
0100
2000
0000
3100
0010
0001
,  // measure 11
0100
0000
0010
0000
0100
0000
0001
1000
0000
0001
1000
0000
0010
0000
0010
0000
,  // measure 12
0100
0000
0010
0000
0100
0000
0001
1000
0000
0001
1000
0000
0010
0000
0010
0000
,  // measure 13
1000
0000
0100
0000
0010
0000
0001
1000
0000
1000
0010
0000
0100
0000
0001
0000
,  // measure 14
0010
0001
0010
0000
0100
0000
2000
0000
0000
0000
3100
0000
0010
0000
0001
0000
,  // measure 15
1000
0000
0010
0000
0100
0000
0001
1000
0000
0001
1000
0000
0010
0000
0100
0000
,  // measure 16
0010
1000
0000
0100
0000
0000
1000
0001
1000
0000
0001
0100
0001
0100
0001
0000
,  // measure 17
1001
0000
1100
0000
0010
0001
1000
0100
,  // measure 18
0010
0100
1000
0001
0100
1000
0100
0001
,  // measure 19
1000
0000
1000
0000
0010
0100
0000
0010
0100
0000
0001
0000
0001
0000
1000
0000
,  // measure 20
0100
0000
0010
0000
0001
0100
0000
0010
0000
0100
0001
0000
1000
0010
1000
0000
,  // measure 21
1001
0000
0011
0000
0100
1000
0001
0010
,  // measure 22
0100
0010
0001
1000
0100
0001
0100
1000
,  // measure 23
0001
0000
0100
0000
0001
0000
1000
0100
0000
1000
0100
0000
0010
0001
0010
0001
,  // measure 24
0000
0000
1001
0000
0000
1001
0000
0000
0110
0000
0000
0000
0000
0000
0000
0000
,  // measure 25
1000
0010
0001
0010
1000
0001
0100
0002
,  // measure 26
0000
0000
0013
0000
0100
0000
1000
0001
0000
1000
0001
0000
0100
0000
0001
0000
,  // measure 27
1000
0000
1000
0000
0010
0100
0000
0010
0100
0000
0001
0000
0001
0000
0010
0000
,  // measure 28
0100
0000
1000
0000
0001
0100
0000
0010
0000
0100
0001
0000
1000
0100
1000
0000
,  // measure 29
0001
0010
1000
0010
0001
1000
0100
2000
,  // measure 30
0000
0000
3100
0000
0010
0000
0001
1000
0000
0001
1000
0000
0010
0000
1000
0000
,  // measure 31
0001
0000
0001
0000
1000
0000
0010
0100
0000
0010
0100
0000
0001
0000
1000
0000
,  // measure 32
0010
1000
0010
1000
0001
0000
0100
0010
0000
0100
0010
0000
1000
0100
1000
0000
,  // measure 33
0001
0010
1000
0010
0001
0100
0010
0000
,  // measure 34
2002
0000
0000
3000
0000
1000
1003
0000
,  // measure 35
1000
0100
0010
0100
1000
0001
0100
0010
,  // measure 36
1000
0000
0001
0000
1000
0010
0000
0100
0000
0010
1000
0000
0001
0000
0001
0000
,  // measure 37
1000
0000
0001
0000
0100
0010
0000
0100
0010
0000
1000
0001
0000
0000
1000
0000
,  // measure 38
0010
0100
0010
0100
0010
0000
1000
0100
0000
1000
0100
0000
0010
0000
0001
0000
,  // measure 39
1000
0100
0010
0100
1000
0001
0100
0001
,  // measure 40
0010
0000
0100
0000
1000
0010
0000
0100
0000
0010
1000
0000
0001
0000
0010
0000
,  // measure 41
0100
0000
1000
0000
0002
0000
0000
0100
0000
0000
0103
0000
0010
0000
1000
0000
,  // measure 42
0001
0000
0001
0000
0100
0010
0000
0100
0010
0000
1000
0001
1000
0001
1000
0000
,  // measure 43
1100
0000
0101
0000
0010
1000
0001
0100
,  // measure 44
1000
0100
0001
0100
0010
1000
0100
0010
,  // measure 45
0001
0000
1000
0000
0001
0100
0000
0100
0010
0000
1000
0000
0100
0000
0010
0000
,  // measure 46
0001
0000
0001
0000
1000
0010
0000
0100
0000
0000
0001
0100
0001
0100
0001
0000
,  // measure 47
0101
0000
1100
0000
0010
0001
1000
0100
,  // measure 48
0001
0100
1000
0010
0010
0100
0001
1000
,  // measure 49
0100
0000
1000
0000
0001
0000
0100
0010
0000
0100
0010
0000
1000
0100
1000
0100
,  // measure 50
1000
0000
1001
0000
0000
1001
0000
0000
0220
0000
0000
0000
0000
0000
0330
0000
,  // measure 51
0000
0000
0110
0000
0000
0110
0000
0000
2002
0000
0000
0000
0000
0000
3003
0000
,  // measure 52
0001
0100
1000
1000
0100
0001
1000
0020
,  // measure 53
0000
0000
0130
0000
0001
0000
1000
0100
0000
1000
0100
0000
0010
0000
0001
0000
,  // measure 54
1000
0000
0010
0000
0100
0001
0000
0001
1000
0000
0100
0000
0010
0000
0001
0000
,  // measure 55
1000
0000
1000
0000
0001
0100
0000
0010
0000
0100
0001
0000
0010
0000
0100
0000
,  // measure 56
1000
0100
0001
0001
0100
1000
0001
0200
,  // measure 57
0000
0000
0310
0000
1000
0000
0001
0010
0000
0001
0010
0000
0100
0000
1000
0000
,  // measure 58
0001
0000
0100
0000
0010
0000
0100
0010
0000
0010
1000
0000
0001
0000
0001
0000
,  // measure 59
0100
0000
0010
0000
1000
0010
0000
0100
0000
0000
0001
0100
0001
0100
0001
0000
,  // measure 60
1000
0100
0001
0001
0100
1000
0001
0000
,  // measure 61
2002
0000
0000
0003
0000
0001
3001
0000
,  // measure 62
1001
0000
0000
0000
;
