#TITLE:夢添うてぃ;
#SUBTITLE:;
#ARTIST:Y.Morio & MINEHAHA;
#TITLETRANSLIT:YUME SURUTI;
#SUBTITLETRANSLIT:;
#ARTISTTRANSLIT:;
#CREDIT:DMAxel;
#BANNER:YUME SURUTI.png;
#BACKGROUND:YUME SURUTI-bg.png;
#LYRICSPATH:YUME SURUTI.lrc;
#CDTITLE:pop'n music.png;
#MUSIC:YUME SURUTI.mp3;
#OFFSET:-1.240;
#SAMPLESTART:49.137;
#SAMPLELENGTH:12.000;
#SELECTABLE:YES;
#BPMS:0.000=130.000;
#STOPS:;
#BGCHANGES:;

//---------------dance-single - ----------------
#NOTES:
     dance-single:
     :
     Easy:
     1:
     0.101,0.126,0.058,0.000,0.000:
0000
0000
0000
0000
,
0000
0000
0000
0000
,
0000
0000
0000
0000
,
0000
0000
0000
0000
,
1000
0000
1000
0000
,
1000
0000
0000
0010
,
0000
0000
0000
0010
,
0000
0000
0000
0000
,
1000
0000
0001
0000
,
1000
0000
0001
0000
,
1000
0000
0000
0000
,
0000
0000
0000
0000
,
0010
0000
0100
0000
,
0010
0000
0100
0000
,
0010
0000
0000
0000
,
0000
0000
0000
1000
,
0000
0000
0000
0000
,
0000
0000
1001
0000
,
0010
0000
0010
0000
,
0010
0000
0010
0000
,
0010
0000
0010
0000
,
0000
0000
0000
0000
,
0100
0000
0100
0000
,
0100
0000
0100
0000
,
0100
0000
0100
0000
,
0000
0000
0000
1001
,
0000
0001
0000
1000
,
0000
0000
0000
1001
,
0000
1000
0000
0001
,
0000
0000
0000
0100
,
0000
0100
0000
0100
,
0000
0000
0000
0010
,
0000
0010
0000
0010
,
0000
0000
0000
1000
,
0000
0000
0000
0000
,
0000
0000
0000
0001
,
0000
0000
0000
0000
,
0000
0000
1000
1001
,
0000
0001
0000
0001
,
0000
1000
0000
1000
,
0000
0010
0000
0010
,
0000
0100
0000
0000
,
0000
0000
0000
0100
,
0100
0100
1001
0000
;

//---------------dance-single - ----------------
#NOTES:
     dance-single:
     :
     Hard:
     7:
     0.373,0.432,0.302,0.093,0.418:
0000
0000
0000
0000
,
0000
0000
0000
0000
,
0000
0000
0000
0000
,
0000
0000
0000
0000
,
0000
0000
0010
1000
0000
1000
0000
0000
1000
0001
0000
0001
,
0000
0000
0001
1000
0000
0000
1000
0000
0000
1000
0000
0000
,
0010
0000
0010
0100
0000
0100
0010
0000
0000
0000
0000
0000
,
0100
0000
0100
0010
0000
0010
0100
0000
0000
0000
0000
0000
,
0000
0000
0001
0100
0000
0100
0020
0000
0000
0000
0000
0000
,
0030
0000
1000
0010
0000
0010
0200
0000
0000
0000
0000
0000
,
0300
0000
0001
0100
0000
0100
0010
0000
0000
1010
0000
1000
,
0001
0000
0001
0100
0000
0100
0010
0000
0000
0000
0000
0000
,
0000
0000
1000
0100
0000
0100
0020
0000
0000
0000
0000
0000
,
0030
0000
0001
0010
0000
0010
0200
0000
0000
0000
0000
0000
,
0300
0000
1000
0100
0000
0100
0010
0000
0000
1001
0000
0001
,
1000
0000
1000
0010
0000
0010
0100
0000
0000
0000
0000
0000
,
0000
0000
0001
0000
0000
0001
0000
0000
0001
0000
0000
1001
,
0000
0000
0000
1001
,
0100
0000
0001
0010
0000
0000
0100
0000
1000
0010
0000
0000
,
0100
0000
0001
0100
0000
0000
0010
0000
1000
0100
0000
0000
,
0020
0000
0001
0031
,
0110
1001
0110
0000
,
0010
0000
1000
0100
0000
0000
0010
0000
0001
0100
0000
0000
,
0010
0000
1000
0010
0000
0000
0100
0000
0001
0010
0000
0000
,
0200
1000
1000
1300
,
0110
1001
0110
0000
,
1001
0000
0001
0100
0000
0100
0001
0000
0001
1000
0000
1000
,
0010
0000
0100
0010
0000
1000
0010
0000
0000
0000
0000
0000
,
1001
0000
1000
0010
0000
0010
1000
0000
1000
0001
0000
0001
,
0100
0000
0010
0100
0000
0001
0100
0000
0000
1001
0000
0000
,
0100
0000
0100
1000
0000
1000
0001
0000
0000
0001
0000
0000
,
1001
0000
0000
0000
0000
0010
0001
0000
0001
1000
0000
0000
,
0000
0000
0100
1000
0000
1000
0001
0000
0000
0110
0000
0000
,
1001
1001
1001
0000
,
2001
0000
0010
0000
,
0010
0000
3010
0000
,
1002
0000
0100
0000
,
0100
0000
0103
0110
,
1001
0000
0001
0010
0000
0010
0001
0000
1000
0010
0000
0100
,
0010
0000
0000
1000
0000
0100
0010
0000
0001
1000
0000
0000
,
0100
0000
1000
0100
0000
0100
1000
0000
0001
0100
0000
0010
,
0100
1001
1001
0000
,
0000
0000
0010
0001
0000
0001
0000
0000
1000
0100
0000
0000
,
1001
0000
0010
0100
0000
0100
0010
0000
0000
1001
0000
0000
;

//---------------dance-single - ----------------
#NOTES:
     dance-single:
     :
     Challenge:
     8:
     0.512,0.508,0.337,0.000,0.754: // measure 1
0000
0000
0000
0000
,  // measure 2
0000
0000
0000
0000
,  // measure 3
0000
0000
0000
0000
,  // measure 4
0000
0000
0000
0000
0000
0000
0000
0000
0000
1001
0000
1000
,  // measure 5
0010
0000
0100
0010
0000
0011
0000
0000
0010
0100
0000
1100
,  // measure 6
0000
0000
1000
0001
0000
1000
0001
0000
1000
0001
0000
0011
,  // measure 7
0000
0000
0010
0100
0000
0100
0010
0000
0010
1000
0000
1000
,  // measure 8
0010
0000
0100
0010
0000
0100
0001
0010
0001
0010
0000
0000
,  // measure 9
0010
0000
0001
0100
0000
1000
0100
0000
1000
0010
0000
1000
,  // measure 10
0010
0000
1000
0010
0000
0001
0010
0000
0001
0100
0000
0001
,  // measure 11
0100
0000
0001
0100
0000
1000
0100
0000
0000
1001
0000
1000
,  // measure 12
0001
0000
0001
0100
0000
0010
1000
0000
1000
0001
0000
0100
,  // measure 13
0010
0000
1000
0100
0000
0100
0001
0000
0100
0001
0000
0100
,  // measure 14
0001
0000
0100
0001
0000
0001
0010
0000
0010
1000
0000
0010
,  // measure 15
1000
0000
0010
1000
0000
1000
0100
0000
0000
1001
0000
0001
,  // measure 16
1000
0000
1000
0010
0000
0100
0001
0000
1000
0001
0010
0001
,  // measure 17
0010
0000
0001
1000
0000
0001
1000
0000
0001
1000
0000
1100
,  // measure 18
0000
0000
0000
1001
,  // measure 19
0100
0000
0001
0010
0000
0010
0100
0000
1000
0010
0000
0010
,  // measure 20
0100
0000
0001
0100
0000
0100
0010
0000
1000
0100
0000
0010
,  // measure 21
0100
0000
0010
0100
0000
0010
0001
0000
0001
1000
0000
0000
,  // measure 22
0110
0000
0000
1001
0000
0000
0110
0000
1000
0001
0000
0000
,  // measure 23
1001
0000
1000
0100
0000
0100
0010
0000
0001
0100
0000
0100
,  // measure 24
0010
0000
1000
0010
0000
0010
0100
0000
0001
0010
0000
0100
,  // measure 25
0010
0000
0100
0010
0000
0100
0010
0000
0100
1000
0000
0000
,  // measure 26
1001
0000
0001
0100
0010
0100
0010
0100
0010
0100
0010
1000
,  // measure 27
0100
0000
0001
0100
0000
1000
0100
0000
0001
0100
0000
1000
,  // measure 28
0010
0000
0001
0010
0000
1000
0010
0000
0001
0010
0000
0000
,  // measure 29
0011
0000
1000
0010
0000
0001
0010
0000
1000
0010
0000
0001
,  // measure 30
0100
0000
1000
0100
0000
0001
0100
0000
0000
1001
0000
0000
,  // measure 31
0100
0000
0001
0010
0000
1000
0100
0000
0001
0010
0000
0000
,  // measure 32
1001
0000
0000
0010
0000
1000
0100
0000
0001
0010
0000
1000
,  // measure 33
0100
0000
1000
0001
0000
0001
1000
0000
0000
1001
0000
1000
,  // measure 34
1000
0000
0100
0010
0000
0001
0001
0000
0000
1001
0000
0000
,  // measure 35
1001
0000
0001
0000
,  // measure 36
1000
1001
1100
1001
,  // measure 37
1000
0000
1000
0000
,  // measure 38
0011
0000
0000
1001
0000
1000
0001
0100
0001
0100
0000
0000
,  // measure 39
1001
0000
0001
0010
0000
1000
0010
0000
0001
0010
0000
1000
,  // measure 40
0010
0000
0001
0100
0000
1000
0100
0000
0001
0100
0000
1000
,  // measure 41
0100
0000
0001
0100
0000
1000
0001
0000
0000
1001
0000
1000
,  // measure 42
1000
0000
0100
0010
0000
0001
0001
0010
0001
0010
0100
1000
,  // measure 43
0000
0000
0100
1000
0000
0000
1010
0000
0000
0110
0000
0001
,  // measure 44
0001
0000
0010
0100
0000
1000
1000
0000
0000
1001
0000
0000
;

//---------------dance-single - ----------------
#NOTES:
     dance-single:
     :
     Beginner:
     1:
     0.035,0.076,0.000,0.000,0.000:
0000
0000
0000
0000
,
0000
0000
0000
0000
,
0000
0000
0000
0000
,
0000
0000
0000
0000
,
1000
0000
0000
0000
,
0001
0000
0000
0000
,
1000
0000
0000
0000
,
0001
0000
0000
0000
,
1000
0000
0000
0000
,
0000
0000
0000
0000
,
0000
0000
0000
0000
,
0000
0000
0000
0000
,
0010
0000
0000
0000
,
0000
0000
0000
0000
,
0100
0000
0000
0000
,
0000
0000
0000
0000
,
0010
0000
0000
0000
,
0000
0000
0000
0000
,
1000
0000
0000
0000
,
0000
0000
0000
0000
,
0001
0000
0000
0000
,
0000
0000
0000
0000
,
1000
0000
0000
0000
,
0000
0000
0000
0000
,
0010
0000
0000
0000
,
0000
0000
0000
0000
,
0100
0000
0000
0000
,
0000
0000
0000
0000
,
0100
0000
0000
0000
,
0000
0000
0000
0000
,
0010
0000
0000
0000
,
0000
0000
0000
0000
,
0010
0000
0000
0000
,
0000
0000
0000
0000
,
1000
0000
0000
0000
,
0000
0000
0000
0000
,
0000
0000
0000
0000
,
0000
0000
0000
0000
,
0001
0000
0000
0000
,
0000
0000
0000
0000
,
1000
0000
0000
0000
,
0000
0000
0000
0000
,
0001
0000
0000
0000
,
0000
0000
0000
0100
;

//---------------dance-single - ----------------
#NOTES:
     dance-single:
     :
     Medium:
     4:
     0.255,0.305,0.255,0.012,0.000:
0000
0000
0000
0000
,
0000
0000
0000
0000
,
0000
0000
0000
0000
,
0000
0000
0000
0000
,
1000
0100
1000
0100
,
1000
0100
0010
0001
,
0100
0100
0100
0100
,
0010
0010
0010
0010
,
0000
1000
0001
1000
,
0001
0100
0010
0100
,
0010
1000
0010
1000
,
0010
0100
0010
0100
,
0000
0001
1000
0001
,
1000
0010
0100
0010
,
0100
0001
0100
0001
,
0010
0100
1000
0000
,
1000
0000
0000
0000
,
0000
0000
0000
1001
,
0010
0010
0001
0001
,
0010
0010
0100
0100
,
1000
1000
0010
0010
,
1001
1001
1001
0000
,
1000
1000
0010
0010
,
1000
1000
0100
0100
,
0010
0010
0001
0001
,
1001
1001
1001
0000
,
1001
0010
0001
0010
,
0001
0010
0100
0000
,
1001
0100
1000
0100
,
1000
0100
0010
1001
,
0100
0001
0100
0001
,
0200
0000
0010
0310
,
0000
1000
0010
1000
,
1001
1001
1001
0000
,
1001
0000
0000
0000
,
1000
0000
0000
0000
,
0001
0000
0000
0000
,
1000
0000
0000
0001
,
1001
0010
0001
0010
,
0001
0010
0100
1000
,
0010
0100
0010
1000
,
0110
0110
0110
0000
,
0000
0001
0000
0001
,
0110
0110
0110
1001
;
