#TITLE:夜間行;
#SUBTITLE:ma-Remix;
#ARTIST:positive MA feat. TSUBOI;
#TITLETRANSLIT:YAKANKOU;
#SUBTITLETRANSLIT:;
#ARTISTTRANSLIT:;
#CREDIT:DMAxel;
#BANNER:YAKANKOU ma-Remix.png;
#BACKGROUND:YAKANKOU ma-Remix-bg.png;
#LYRICSPATH:;
#CDTITLE:Beatmania.png;
#MUSIC:YAKANKOU ma-Remix.mp3;
#OFFSET:-0.220;
#SAMPLESTART:12.940;
#SAMPLELENGTH:12.000;
#SELECTABLE:YES;
#BPMS:0.000=102.520;
#STOPS:;
#BGCHANGES:;

//---------------dance-single - ----------------
#NOTES:
     dance-single:
     :
     Easy:
     3:
     0.185,0.250,0.142,0.000,0.000: // measure 1
0000
0000
0000
0000
,  // measure 2
0000
0000
0000
0001
,  // measure 3
0000
1000
0000
0001
,  // measure 4
0000
0010
0000
0001
,  // measure 5
0000
1000
0000
0100
,  // measure 6
0000
1000
0100
0010
,  // measure 7
0001
0010
0000
0100
,  // measure 8
0000
1000
0000
0001
,  // measure 9
0000
0010
0000
0001
,  // measure 10
0010
0100
1000
0010
,  // measure 11
0100
0010
0100
0010
,  // measure 12
1001
0000
1000
0100
,  // measure 13
0010
0001
0100
0000
,  // measure 14
0010
0000
0100
0010
,  // measure 15
0100
0001
0010
0100
,  // measure 16
1000
0000
1001
0110
,  // measure 17
1001
1001
0010
0100
,  // measure 18
1000
0000
1000
0100
,  // measure 19
0010
0001
0010
0001
,  // measure 20
0100
0000
1001
0110
,  // measure 21
1001
1001
0100
0010
,  // measure 22
0001
1000
1001
0010
,  // measure 23
0010
0010
0100
0000
,  // measure 24
0000
0001
0000
1000
,  // measure 25
0000
0001
0000
0100
,  // measure 26
0000
0010
0000
0100
,  // measure 27
0100
0100
0010
0000
,  // measure 28
0000
1000
0000
0001
,  // measure 29
0000
0100
0000
0010
,  // measure 30
0100
0001
0000
0000
;

//---------------dance-single - ----------------
#NOTES:
     dance-single:
     :
     Hard:
     7:
     0.439,0.376,0.398,0.000,0.391:
0000
0000
0000
0000
,
0000
0000
0000
0000
0000
0000
0000
0000
1001
0000
0000
0100
1000
0000
0100
0000
,
0000
0000
0000
0010
0001
0000
0010
0000
0000
0000
0000
0001
0100
0000
0001
0000
,
0000
0000
0000
1000
0010
0000
1000
0000
0000
0000
0000
0010
0100
0000
0010
0000
,
0000
0000
0000
1000
0001
0000
1000
0000
0000
0000
0000
0010
0100
0000
0001
0000
,
0000
0000
0000
0100
0010
0000
1000
0000
0100
0000
0100
0000
0010
0000
0010
0000
,
0001
0000
0010
0000
1000
0010
0100
0000
0001
0000
0001
0000
0100
0000
0010
0000
,
1000
1000
0001
0000
0100
0010
1000
0000
,
0010
0100
0001
0010
0010
0001
0100
0100
,
0010
1000
0100
0000
1000
1000
0010
0010
,
0100
0100
0100
0100
0001
0010
0100
1000
,
0010
1001
0000
0000
0010
0010
0001
0100
,
0010
0000
0010
0000
0100
0000
0010
0000
1000
0100
1000
0000
0000
0000
0001
0010
,
0001
0000
0100
0000
0100
0000
0010
0000
0100
0000
0000
0001
0000
1000
0000
0100
,
1000
0000
0000
0010
0000
0100
0000
0001
0010
0000
0000
0001
0000
1000
0000
0010
,
0100
0000
0010
0000
0010
0000
0000
0000
1000
0000
0000
0100
0000
0000
0010
0000
,
0000
0001
0000
0000
0010
0000
0010
0000
1000
0000
0100
0000
0010
0000
0010
0000
,
1001
0000
0000
0000
0000
0000
0010
0000
1000
0000
0000
0010
0000
0100
0000
0001
,
0010
0000
0000
0001
0000
1000
0000
0100
1000
0000
0000
0010
0000
0100
0000
0001
,
1000
0000
0010
0000
0010
0000
0000
0000
1000
0000
0000
0010
0000
0000
0100
0000
,
0000
0001
0000
0000
0100
0000
0010
0000
1000
0000
0000
0010
0000
0000
0100
0000
,
0000
0000
0001
0000
0001
0000
0100
0000
1001
0000
0000
0010
0100
0010
0000
1000
,
0000
0100
0000
1000
0010
0000
0100
0000
1001
0000
0000
0110
0000
0000
1001
0000
,
0000
0000
0000
0001
0010
0000
0101
0000
0000
0000
1100
0000
0000
0011
0000
0000
,
0000
0000
0000
1000
0100
0000
1010
0000
0000
0000
0011
0000
0000
1100
0000
0000
,
1001
0000
0000
0110
0000
0000
1001
0000
0000
0000
0000
0000
0100
0001
0000
0010
,
0000
0001
0000
0100
0010
0000
1000
0000
0101
0000
0000
0110
0000
0000
1010
0000
,
0000
0000
0000
0001
0010
0000
0101
0000
0000
0000
1100
0000
0000
0011
0000
0000
,
0000
0000
0000
1000
0010
0000
1100
0000
0000
0000
1010
0000
0000
0110
0000
0000
,
0101
0000
0000
0110
0000
0000
1001
0000
0000
0000
0000
0000
0000
0000
0000
0000
;

//---------------dance-single - ----------------
#NOTES:
     dance-single:
     :
     Challenge:
     9:
     0.601,0.585,0.455,0.000,0.739:
0000
0000
0000
0000
,
0000
0000
0000
0000
0000
0000
0000
0000
1001
0000
0000
0100
0001
0000
0100
0000
,
1000
0000
0000
0010
1000
0000
0010
0000
0001
0000
0000
0100
0001
0000
0100
0000
,
1000
0000
0000
0010
1000
0000
0010
0000
0001
0000
0000
0010
0001
0000
0100
0000
,
1000
0000
0000
0100
1000
0000
0010
0000
0001
0000
0000
0100
0001
0000
0010
0000
,
1000
0000
0100
0000
1001
0000
0000
0000
0010
0000
1000
0010
0001
0000
0100
0010
,
1000
0000
0001
1000
0000
1000
0100
0010
0001
0000
0010
0001
0100
0010
0100
0010
,
1000
0000
1000
0001
0000
0000
0100
0000
1001
0000
0010
0100
0001
0000
0100
0000
,
1001
0000
0100
0010
1000
0001
0010
0100
1000
0000
0001
0010
1000
0000
0010
0100
,
0001
0000
0100
0010
1000
0000
0010
0000
1000
0010
0001
0010
1000
0010
0001
0100
,
0010
1000
0010
0001
0010
0100
1000
0000
0001
0100
1000
0100
0001
0100
1000
0010
,
0100
0010
0100
0000
0000
0000
0000
0000
0001
0100
1000
0100
0001
0100
1000
0100
,
0010
0001
0010
1000
0100
0010
0001
0000
1000
0100
1000
0000
0001
0000
0010
0001
,
0010
0000
1001
0000
1001
0000
0010
0000
1000
0000
0001
0100
0000
0010
0000
0100
,
0001
0000
1000
0001
0000
0100
0000
0010
0100
0000
0001
0100
0000
0010
0000
1000
,
0100
0000
1001
0000
1001
0000
0000
0000
0001
0010
0000
0010
0100
0000
0100
1000
,
0000
1000
0001
0000
1000
0100
1000
0100
0001
0100
1000
0010
0001
0010
1000
0010
,
0001
0000
0010
0000
0001
0000
0100
0000
0010
0000
0100
0010
0000
1000
0000
0001
,
0100
0000
0010
1000
0000
0001
0000
0010
0001
0000
0010
0001
0000
0100
0000
0010
,
1000
0000
1001
0000
1001
0000
0000
0000
1000
0100
0000
0100
0010
0000
0010
0001
,
0000
0001
1000
0000
0001
0010
0001
0010
0001
0100
0000
0100
0010
0000
0010
1000
,
0000
0000
0100
0000
1000
0000
0010
0000
1001
0000
0000
0010
0001
0010
0000
0001
,
0000
0100
0000
0010
1000
0000
0001
0000
0011
0000
0000
0110
0000
0000
1100
0000
,
0000
0000
0000
0001
0010
0000
0011
0000
0000
0000
1010
0000
0000
1001
0000
0000
,
1000
0000
0000
0100
1000
0000
1100
0000
0000
0000
0101
0000
0000
1001
0000
0000
,
1010
0000
0000
1001
0000
0000
0101
0000
1000
0000
0010
0000
0100
0001
0000
0100
,
0000
0010
0000
1000
0010
0000
0100
0000
0011
0000
0000
0110
0000
0000
1100
0000
,
0000
0000
0000
0001
0100
0000
0101
0000
0000
0000
1010
0000
0000
1001
0000
0000
,
0010
0000
0000
1000
0100
0000
1001
0000
0000
0000
0001
0010
0000
0110
0000
0000
,
1000
0100
0000
1000
0001
0000
1001
0000
0000
0000
0000
0000
0000
0000
0000
0000
;

//---------------dance-single - ----------------
#NOTES:
     dance-single:
     :
     Medium:
     5:
     0.337,0.334,0.142,0.000,0.064:
0000
0000
0000
0000
,
0000
0000
0000
0000
1001
0000
0010
0100
,
0000
0000
0100
0001
0000
0000
0001
1000
,
0000
0000
1000
0010
0000
0000
0010
0100
,
0000
0000
0100
0001
0000
0000
0001
1000
,
0000
0000
0110
0000
0001
0001
0010
0100
,
1000
1000
0000
0010
1000
1000
0100
0010
,
0001
0001
0001
0000
0100
0010
0100
0000
,
0001
1000
0001
0100
0010
0010
1000
1000
,
0100
0010
0001
0000
1000
0100
0010
0001
,
0010
0100
1000
0100
0010
0001
0010
0100
,
1001
0000
0000
0000
0001
0100
0010
1000
,
0010
0100
0001
0100
0010
0010
0000
0100
,
0100
0001
1001
0000
0010
0100
0000
0001
,
0000
0010
0000
0001
0000
1000
0000
0100
,
0000
1000
1000
0010
0000
0100
0000
0001
,
0000
0010
0001
0001
1000
1000
0000
0010
,
0000
0100
0100
0010
0000
0100
0000
0001
,
0000
0010
0000
0001
0000
1000
0000
0100
,
0000
1000
1000
0000
0001
0001
0010
0010
,
0100
0100
1000
0100
1000
1000
0100
0100
,
0010
0000
0010
0000
0001
0000
0010
0000
1001
0000
0000
0000
0100
0000
0000
0010
,
0000
0000
0000
0000
1000
0000
0010
0000
0100
0000
0000
0100
0000
0000
0100
0000
,
0000
0000
0000
0000
0001
0000
0101
0000
0000
0000
0010
0000
0000
0010
0000
0000
,
0000
0000
0000
0000
1000
0000
1010
0000
0000
0000
0100
0000
0000
0100
0000
0000
,
0100
0000
0000
1001
0000
0000
0010
0000
0000
0000
0100
0000
0010
0000
0100
0000
,
0001
0000
0010
0000
0100
0000
1000
0000
0010
0000
0000
0010
0000
0000
0010
0000
,
0000
0000
0000
0000
1000
0000
1100
0000
0000
0000
0010
0000
0000
0010
0000
0000
,
0000
0000
0001
0000
1001
0000
0000
0000
0000
0000
1000
0000
0000
0100
0000
0000
,
0010
0000
0000
0001
0000
0000
0010
0000
0000
0000
0000
0000
0000
0000
0000
0000
;

//---------------dance-single - ----------------
#NOTES:
     dance-single:
     :
     Beginner:
     1:
     0.091,0.083,0.000,0.000,0.000: // measure 1
0000
0000
0000
0000
,  // measure 2
0000
0000
0000
1000
,  // measure 3
0000
0000
0000
1000
,  // measure 4
0000
0000
0000
0001
,  // measure 5
0000
0000
0000
0001
,  // measure 6
0000
0000
0000
0100
,  // measure 7
0000
0100
0000
0100
,  // measure 8
0000
0100
0000
0010
,  // measure 9
0000
0010
0000
0010
,  // measure 10
0000
0010
0000
1000
,  // measure 11
0000
1000
0000
1000
,  // measure 12
0000
1000
0000
0001
,  // measure 13
0000
0001
0000
0001
,  // measure 14
0000
0001
0000
0100
,  // measure 15
0000
0010
0000
1000
,  // measure 16
0000
0010
0000
0100
,  // measure 17
0000
0001
0000
0010
,  // measure 18
0000
0100
0000
1000
,  // measure 19
0000
0100
0000
0010
,  // measure 20
0000
0001
0000
1000
,  // measure 21
0000
0001
0000
0100
,  // measure 22
0000
0010
0000
1000
,  // measure 23
0000
0000
0000
0001
,  // measure 24
0000
0000
0000
0100
,  // measure 25
0000
0000
0000
0010
,  // measure 26
0000
0000
0000
0100
,  // measure 27
0000
0000
0000
0010
,  // measure 28
0000
0000
0000
1000
,  // measure 29
0000
0000
0000
0001
,  // measure 30
0000
0001
0000
0000
;
