#TITLE:夜間行;
#SUBTITLE:(super heavy YUMIX);
#ARTIST:Des-ROW feat. TSUBOI for ALPHA;
#TITLETRANSLIT:YAKANKOU;
#SUBTITLETRANSLIT:;
#ARTISTTRANSLIT:;
#CREDIT:DMAxel;
#BANNER:YAKANKOU (super heavy YUMIX).png;
#BACKGROUND:YAKANKOU (super heavy YUMIX)-bg.png;
#LYRICSPATH:;
#CDTITLE:Konami original REMIX.png;
#MUSIC:YAKANKOU (super heavy YUMIX).mp3;
#OFFSET:0.080;
#SAMPLESTART:20.828;
#SAMPLELENGTH:12.000;
#SELECTABLE:YES;
#BPMS:0.000=102.500,85.000=205.000;
#STOPS:;
#BGCHANGES:;

//---------------dance-single - ----------------
#NOTES:
     dance-single:
     :
     Easy:
     4:
     0.291,0.360,0.078,0.068,0.000: // measure 1
0000
0000
0000
0000
,  // measure 2
0000
1000
0100
1000
,  // measure 3
0001
0010
0001
0100
,  // measure 4
0010
1000
0100
1000
,  // measure 5
0001
0010
0001
2000
,  // measure 6
0000
3001
0100
0001
,  // measure 7
0100
0010
1000
0010
,  // measure 8
0100
0001
0010
0001
,  // measure 9
1000
0200
0000
0000
,  // measure 10
1300
1001
0010
0010
,  // measure 11
1001
0100
0100
0100
,  // measure 12
1001
0010
0010
0010
,  // measure 13
1001
0100
0100
1001
,  // measure 14
0000
0001
0010
0100
,  // measure 15
1000
0100
1000
0010
,  // measure 16
0000
0100
0001
0100
,  // measure 17
0010
1000
0100
1000
,  // measure 18
0000
0002
0000
0000
,  // measure 19
1003
0020
0000
0000
,  // measure 20
0130
0002
0000
0000
,  // measure 21
1003
0100
1000
0002
,  // measure 22
0000
1003
0100
1000
,  // measure 23
0100
1000
0100
1000
,  // measure 24
0000
0001
0010
0001
,  // measure 25
0010
0001
0010
0001
,  // measure 26
0000
1000
0001
1000
,  // measure 27
0001
1000
0001
1000
,  // measure 28
0000
0000
0001
0000
,  // measure 29
0010
0000
0100
0000
,  // measure 30
1000
0001
1000
0001
,  // measure 31
1000
0001
1000
0001
,  // measure 32
0000
0100
0010
0100
,  // measure 33
0010
0100
0010
0100
,  // measure 34
0000
0001
1000
0001
,  // measure 35
1000
0001
1000
0001
,  // measure 36
0000
1000
0100
0010
,  // measure 37
0001
0010
0100
1000
,  // measure 38
0001
1000
0001
0000
,  // measure 39
0001
0000
0001
0000
,  // measure 40
1000
0000
1000
0000
,  // measure 41
1000
0000
0001
0000
,  // measure 42
0001
0000
0001
0000
,  // measure 43
1000
0000
0001
0000
,  // measure 44
1000
0000
0001
0000
,  // measure 45
0200
0000
0000
0000
,  // measure 46
0000
0301
0100
0010
,  // measure 47
1000
0100
1000
0001
,  // measure 48
0000
1000
0100
0010
,  // measure 49
0001
0100
0010
1000
,  // measure 50
0000
0001
0010
0100
,  // measure 51
1000
0100
1000
0001
,  // measure 52
0000
1000
0100
0010
,  // measure 53
0001
0100
0010
1000
,  // measure 54
0000
0001
0010
0100
,  // measure 55
1000
0100
1000
0010
,  // measure 56
0000
1000
0100
0010
,  // measure 57
0001
0100
0010
1000
,  // measure 58
0000
0001
0010
0100
,  // measure 59
1000
0100
1000
0010
,  // measure 60
0100
1001
0000
1001
,  // measure 61
0000
0010
0100
0010
,  // measure 62
0100
1001
0000
0000
;

//---------------dance-single - ----------------
#NOTES:
     dance-single:
     :
     Hard:
     8:
     0.503,0.599,0.078,0.049,0.142: // measure 1
0000
0000
0000
0000
,  // measure 2
0000
1001
0001
1000
,  // measure 3
0010
0100
0001
0000
0010
0000
0001
0000
,  // measure 4
1000
0010
0100
0000
0010
0000
1000
0000
,  // measure 5
0001
0000
0100
0000
0010
0000
0000
0000
1000
0000
0000
0000
0001
1000
0000
1000
,  // measure 6
0001
0100
0010
1000
0100
1000
0001
0010
,  // measure 7
1000
0000
0001
0010
0001
0100
0001
0100
,  // measure 8
1000
0000
0010
1000
0010
0100
0001
0100
,  // measure 9
1000
0000
0010
0100
0010
1000
0001
0010
,  // measure 10
0001
0001
1001
0000
1000
0100
1000
0010
,  // measure 11
0100
0000
0001
0010
0100
1000
0010
1000
,  // measure 12
0010
0000
1000
0100
0010
0001
0100
0001
,  // measure 13
0100
0000
0000
0000
0001
0000
0010
0000
0100
0000
1000
0000
0100
0000
1000
0001
,  // measure 14
0000
0000
0000
0000
0010
0001
0010
0000
0100
1000
0100
1000
0001
1000
0001
0000
,  // measure 15
1000
0000
0100
0000
0010
0000
0100
0000
1000
0000
0001
0000
1000
0000
0000
0001
,  // measure 16
1000
0000
0000
0000
0100
1000
0100
0000
0010
0001
0010
0001
1000
0001
1000
0000
,  // measure 17
0010
0100
0001
0010
0100
1000
0010
0100
,  // measure 18
0100
0000
0001
0000
0010
0000
0000
0001
0000
0010
0000
0001
1000
0000
0000
0100
,  // measure 19
0000
1000
0000
0000
0001
0000
0000
1000
0000
0100
0000
1000
0010
0000
0000
0100
,  // measure 20
0000
0010
0000
0000
0100
0000
0000
0001
0000
0010
0000
0001
1000
0000
0000
0100
,  // measure 21
0000
1000
0000
0010
0100
0000
0000
0000
1001
0000
2000
0002
0000
0000
0000
0000
,  // measure 22
3003
0001
0010
0100
,  // measure 23
1000
0010
1000
0001
,  // measure 24
0000
1000
0100
0010
,  // measure 25
0001
0000
0100
0000
0001
1000
0001
0000
,  // measure 26
0000
0001
0010
0100
,  // measure 27
1000
0000
0100
0000
1000
0000
0010
0100
,  // measure 28
0010
0000
0000
0000
1000
0100
0000
0100
,  // measure 29
0010
0000
0010
0001
0000
0000
0000
0000
,  // measure 30
0000
0000
1000
0100
1000
0100
1000
0010
,  // measure 31
1000
0010
0100
0000
0001
0000
0010
0000
,  // measure 32
0001
0000
0010
0001
0010
0001
0010
0001
,  // measure 33
0100
0001
0100
0010
1000
0000
0100
0000
,  // measure 34
1000
0000
0010
1000
0100
1000
0100
1000
,  // measure 35
0010
0100
0001
0000
0010
0000
0100
0000
,  // measure 36
1000
0000
0001
0010
0100
1000
0100
0010
,  // measure 37
0001
1000
0100
0010
0001
0100
0010
1000
,  // measure 38
0001
0000
1001
0000
1000
0100
0000
0100
,  // measure 39
1000
0000
0010
0000
0100
0001
0000
0001
,  // measure 40
0100
0000
0010
0000
0100
0010
0000
0010
,  // measure 41
1000
0000
0010
0000
1000
0100
0000
0100
,  // measure 42
1000
0000
0010
0000
0100
0001
0000
0001
,  // measure 43
1000
0000
0001
0000
0100
0010
0000
0010
,  // measure 44
1000
0000
0010
0000
0100
0001
0000
0001
,  // measure 45
1000
0000
0100
1000
0100
0000
0010
0001
,  // measure 46
0010
0000
0001
0010
1000
0010
0001
0010
,  // measure 47
1000
0010
0001
0000
0010
0000
0100
0000
,  // measure 48
1000
0000
0001
0100
1000
0100
0001
0100
,  // measure 49
1000
0100
0001
0000
0100
0000
0010
0000
,  // measure 50
1000
0000
0001
0010
1000
0010
0001
0010
,  // measure 51
1000
0010
0001
0000
0010
0000
0100
0000
,  // measure 52
1000
0000
0001
0100
1000
0100
0001
0100
,  // measure 53
1000
0100
0001
0000
0100
0000
0010
0000
,  // measure 54
1000
0000
1002
0000
0000
0010
0000
0000
,  // measure 55
1003
0000
0000
0100
0000
0000
0010
0000
,  // measure 56
0001
0000
2001
0000
0000
0100
0000
0000
,  // measure 57
3001
0000
0000
0010
0000
0000
0100
0000
,  // measure 58
1000
0000
1002
0000
0000
0010
0000
0000
,  // measure 59
1003
0000
0000
0100
0000
0000
0010
0000
,  // measure 60
0001
0000
0010
0001
0010
0000
0100
1000
,  // measure 61
0100
0000
1000
0100
0001
0100
1000
0001
,  // measure 62
0010
0100
1001
0000
0000
0000
0000
0000
;

//---------------dance-single - ----------------
#NOTES:
     dance-single:
     :
     Challenge:
     10:
     0.674,0.758,0.098,0.020,0.293: // measure 1
0000
0000
0000
0000
,  // measure 2
0000
0000
0000
0000
1001
0000
0000
0010
0100
0000
0001
0000
0010
0000
0000
0001
,  // measure 3
1000
0000
0100
0000
1000
0000
0000
0100
1000
0000
0001
0000
0010
0000
0000
0001
,  // measure 4
0010
0000
0001
0000
0100
0000
0000
0010
1000
0000
0010
0000
0100
0000
0000
0010
,  // measure 5
1000
0000
0001
0000
0010
0000
0000
0001
0100
0000
0010
0000
1000
0001
0000
0001
,  // measure 6
1000
0000
0010
0100
0001
0000
0010
0000
0001
1000
0001
0000
0010
0000
0100
0000
,  // measure 7
1000
0000
0000
0000
1000
0000
0100
0000
1000
0001
1000
0000
0100
0000
0010
0000
,  // measure 8
0001
0000
0000
0000
0001
0000
0010
0000
0001
1000
0001
0000
0100
0000
0010
0000
,  // measure 9
1000
0000
0000
0000
1000
0000
0100
0000
1000
0000
0010
0100
0010
0100
0001
0010
,  // measure 10
0001
1000
0100
0000
1001
0000
0000
0000
0010
0000
0100
0000
0001
0000
0010
0000
,  // measure 11
0011
0000
0000
0000
1000
0000
0100
1000
0100
0000
1000
0000
0010
0000
0100
0000
,  // measure 12
1010
0000
0000
0000
0100
0000
0010
0000
0100
0001
0100
0000
0001
0000
0010
0000
,  // measure 13
0101
0000
0000
1000
0010
0000
1000
0000
0010
0000
0100
0001
0100
0000
0010
0010
,  // measure 14
0000
0000
0000
0000
1000
0100
0001
0000
0100
0010
1000
0010
0001
0010
1000
0000
,  // measure 15
0001
0100
1000
0100
0001
0100
0000
0010
0000
1000
0010
0100
0001
0000
0100
0000
,  // measure 16
1001
0000
0000
0000
1000
0010
0001
0000
0010
0100
1000
0100
0001
0100
1000
0000
,  // measure 17
0001
0010
1000
0010
0001
0000
0010
0001
0010
0000
0100
1000
0100
0000
1001
0000
,  // measure 18
1001
0000
0010
0000
0100
0000
0001
0010
0000
0001
0000
1000
0100
0000
0010
0001
,  // measure 19
0000
0010
0000
0000
0001
0000
1000
0010
0000
1000
0000
0001
0100
0000
0010
0100
,  // measure 20
0000
0010
0000
0000
1000
0000
0001
0100
0000
0001
0000
0100
0001
0000
1000
0010
,  // measure 21
0000
0100
0000
0010
0100
0000
0001
0000
0010
0000
0100
0000
1000
0100
1000
0010
,  // measure 22
0100
0010
0100
0001
0010
0000
0001
0000
0010
0000
0100
0000
1000
0000
0010
0000
,  // measure 23
0100
0010
0100
0001
0010
0001
0010
0100
,  // measure 24
1000
0000
0010
1000
0010
1000
0100
0010
,  // measure 25
0001
1000
0010
0100
0001
0010
0001
0000
,  // measure 26
0010
0000
0100
0010
0001
0100
0010
1000
,  // measure 27
0100
0010
0001
0010
0001
1000
0010
0100
,  // measure 28
0001
0000
0100
0000
0010
1000
0000
1000
,  // measure 29
0001
0000
0001
0100
0000
0100
0010
0000
,  // measure 30
1000
0000
0001
0100
1000
0100
0001
1000
,  // measure 31
0100
0010
0001
0100
0010
1000
0100
0000
,  // measure 32
1000
0000
0001
0010
1000
0010
0001
1000
,  // measure 33
0010
0100
0001
0010
0100
1000
0100
0000
,  // measure 34
1000
0000
0001
0010
1000
0010
0001
0010
,  // measure 35
0100
1000
0010
0100
0001
0010
0001
0100
,  // measure 36
0010
0000
1000
0100
0001
0100
1000
0010
,  // measure 37
0001
0010
1000
0001
0010
0100
1000
0100
,  // measure 38
1000
0010
1001
0000
0010
0100
0000
0001
,  // measure 39
0010
0100
1000
0000
0100
0010
0000
1000
,  // measure 40
0100
0010
0001
0000
0010
0100
0000
0001
,  // measure 41
0100
0010
1000
0000
0010
0100
0000
1000
,  // measure 42
0010
0100
0001
0000
0010
0100
0000
0001
,  // measure 43
0100
0010
1000
0000
0100
0010
0000
0001
,  // measure 44
0010
0100
1000
0000
0100
0010
0000
1000
,  // measure 45
0100
0010
0001
0010
0000
0100
1000
0100
,  // measure 46
0010
0001
0010
0001
0100
0010
1000
0100
,  // measure 47
0010
0001
0010
0100
1000
0100
1000
0000
,  // measure 48
0010
0000
1000
0100
0010
0001
0100
0010
,  // measure 49
1000
0100
1000
0100
0001
0100
1000
0000
,  // measure 50
0001
0000
1000
0100
0001
0100
1000
0100
,  // measure 51
0010
0001
0010
0100
1000
0100
1000
0000
,  // measure 52
0010
0000
0001
0010
1000
0010
0100
0001
,  // measure 53
0010
0100
1000
0100
1000
0100
0001
0100
,  // measure 54
1000
0000
0001
1000
0010
1000
0001
0010
,  // measure 55
0001
1000
0001
0100
1000
0100
0001
0100
,  // measure 56
1000
0000
0001
1000
0100
1000
0001
0100
,  // measure 57
0001
0010
1000
0010
0001
0100
1000
0100
,  // measure 58
0001
0000
1000
0001
0010
0001
1000
0010
,  // measure 59
1000
0100
0001
0100
1000
0010
0001
0010
,  // measure 60
1000
0100
0001
0100
1000
0100
0001
0010
,  // measure 61
1000
0010
0001
0100
0010
1000
0100
0010
,  // measure 62
0001
0010
2002
0000
0000
0000
0000
0000
,  // measure 63
3003
0000
0000
0000
;

//---------------dance-single - ----------------
#NOTES:
     dance-single:
     :
     Medium:
     6:
     0.389,0.449,0.078,0.000,0.059: // measure 1
0000
0000
0000
0000
,  // measure 2
0000
0001
1000
0100
,  // measure 3
1000
0010
0100
0001
,  // measure 4
0010
0001
1000
0100
,  // measure 5
1000
0010
1000
0001
,  // measure 6
0000
0000
0100
0001
0100
0000
0010
0000
,  // measure 7
1000
0000
0010
1000
0010
0000
0100
0000
,  // measure 8
0001
0000
0010
0001
0010
0000
0100
0000
,  // measure 9
1000
0000
0100
1000
0100
0000
0010
0000
,  // measure 10
0001
0010
0001
0000
1000
0100
1000
0000
,  // measure 11
1001
0000
0010
0100
0010
0000
1000
0001
,  // measure 12
1000
0000
0001
0010
0100
1000
0100
1000
,  // measure 13
0100
0000
1000
0100
0010
0001
0010
0000
,  // measure 14
0000
0000
0001
0010
0100
1000
0100
1000
,  // measure 15
1000
0100
0010
0001
0010
0001
0010
0000
,  // measure 16
0000
0000
0001
0010
0100
1000
0100
1000
,  // measure 17
0001
0001
0010
0001
0010
0100
1000
0000
,  // measure 18
0000
0000
0000
0000
0100
0000
0000
1000
0000
0100
0000
0000
1000
0000
0000
0010
,  // measure 19
0000
0100
0000
0000
0001
0000
0000
0010
0000
0001
0000
0000
0010
0000
0000
0001
,  // measure 20
0000
0100
0000
0000
0010
0000
0000
1000
0000
0010
0000
0000
0100
0000
0000
0010
,  // measure 21
0000
0100
0000
0000
1001
0000
0000
0000
0001
0000
1000
0000
0001
0000
0000
0000
,  // measure 22
0000
1000
1000
0001
,  // measure 23
0010
0100
1000
0010
,  // measure 24
0000
1000
0100
0010
,  // measure 25
0001
0010
0010
0001
,  // measure 26
0000
1000
0100
0010
,  // measure 27
0001
0100
0100
1001
,  // measure 28
0000
0000
0000
0000
0011
0000
0000
0110
,  // measure 29
0000
1100
0000
0000
,  // measure 30
0000
0000
0001
0010
0001
0000
0010
0000
,  // measure 31
0100
0000
1000
0000
0100
1000
0100
0000
,  // measure 32
0000
1000
0010
0100
,  // measure 33
0001
0000
0010
0000
0001
0010
0001
0000
,  // measure 34
0000
0000
1000
0010
1000
0000
0010
0000
,  // measure 35
0100
0000
0001
0000
0010
0000
0001
0100
,  // measure 36
0001
1000
0100
0010
,  // measure 37
0001
0100
0001
1000
,  // measure 38
0010
0000
1001
0000
1000
0010
0000
0000
,  // measure 39
0100
0000
0010
0000
1000
0010
0000
0000
,  // measure 40
0100
0000
0001
0000
0100
0010
0000
0000
,  // measure 41
1000
0000
0001
0000
0010
0001
0000
0000
,  // measure 42
0010
0000
0001
0000
1000
0010
0000
0000
,  // measure 43
0100
0000
0001
0000
0010
0100
0000
0000
,  // measure 44
1000
0000
0010
0000
1000
0100
0000
0000
,  // measure 45
0010
0000
0001
0000
1000
0100
1000
0100
,  // measure 46
1000
0000
0001
0010
0001
0000
1000
0000
,  // measure 47
0100
0000
1000
0000
0010
1000
0010
0000
,  // measure 48
0000
0000
0100
0001
0100
0000
0010
0000
,  // measure 49
1000
0000
0010
0000
0100
0010
0100
0000
,  // measure 50
0000
0010
0100
0001
,  // measure 51
0010
0001
1000
0001
,  // measure 52
0000
0000
1000
0100
1000
0000
0010
0000
,  // measure 53
0100
0000
0001
0000
0010
0001
0010
0000
,  // measure 54
0000
0001
0010
0100
,  // measure 55
1000
0100
1000
0001
,  // measure 56
0000
1000
0100
0010
,  // measure 57
0001
1000
0001
1000
,  // measure 58
0000
0001
0010
0100
,  // measure 59
1000
0001
1000
0001
,  // measure 60
1000
0000
0001
0010
0001
0000
1000
0100
,  // measure 61
1000
0000
0001
1000
0001
1000
0001
0100
,  // measure 62
0010
1001
0000
0000
;

//---------------dance-single - ----------------
#NOTES:
     dance-single:
     :
     Beginner:
     1:
     0.071,0.120,0.029,0.000,0.000: // measure 1
0000
0000
0000
0000
,  // measure 2
0000
1000
0000
0000
,  // measure 3
0000
0000
0000
0000
,  // measure 4
0000
0001
0000
0000
,  // measure 5
0000
0000
0000
0000
,  // measure 6
0000
1000
0000
1000
,  // measure 7
0000
0001
0000
0001
,  // measure 8
0000
1000
0000
1000
,  // measure 9
0000
0001
0000
0000
,  // measure 10
0000
1001
0000
0000
,  // measure 11
0000
0010
0000
0000
,  // measure 12
0000
0001
0000
0000
,  // measure 13
0000
1000
0000
0000
,  // measure 14
0000
0100
0000
0000
,  // measure 15
1000
0000
0000
0000
,  // measure 16
0000
0001
0000
0000
,  // measure 17
0100
0000
0000
0001
,  // measure 18
0000
0001
0000
1000
,  // measure 19
0000
0001
0000
1000
,  // measure 20
0000
0001
0000
1000
,  // measure 21
0000
0001
0000
0000
,  // measure 22
0000
1000
0000
0000
,  // measure 23
0000
0000
0000
0000
,  // measure 24
0000
1000
0000
0000
,  // measure 25
0000
0000
0000
0000
,  // measure 26
0000
0001
0000
0000
,  // measure 27
0000
0000
0000
0000
,  // measure 28
0000
0001
0000
0000
,  // measure 29
0000
0000
0000
0000
,  // measure 30
0000
1000
0000
0000
,  // measure 31
0000
0000
0000
0000
,  // measure 32
0000
1000
0000
0000
,  // measure 33
0000
0000
0000
0000
,  // measure 34
0000
0001
0000
0000
,  // measure 35
0000
0000
0000
0000
,  // measure 36
0000
0001
0000
0000
,  // measure 37
0000
0000
0000
0000
,  // measure 38
0000
1001
0000
0000
,  // measure 39
0000
0000
0000
0000
,  // measure 40
0000
1000
0000
0000
,  // measure 41
0000
0000
0000
0000
,  // measure 42
0000
0100
0000
0000
,  // measure 43
0000
0000
0000
0000
,  // measure 44
0000
1000
0000
0000
,  // measure 45
0000
0000
0000
0000
,  // measure 46
0000
0001
0000
0000
,  // measure 47
0000
0000
0000
0000
,  // measure 48
0000
0010
0000
0000
,  // measure 49
0000
0000
0000
0000
,  // measure 50
0000
0001
0000
0000
,  // measure 51
0000
0000
0000
0000
,  // measure 52
0000
1000
0000
0000
,  // measure 53
0000
0000
0000
0000
,  // measure 54
0000
0001
0000
0000
,  // measure 55
0000
0000
0000
0000
,  // measure 56
0000
1000
0000
0000
,  // measure 57
0000
0000
0000
0000
,  // measure 58
0000
0001
0000
0000
,  // measure 59
0000
0000
0000
0000
,  // measure 60
0000
1000
0000
1000
,  // measure 61
0000
0001
0000
0000
,  // measure 62
0000
1001
0000
0000
;
