#TITLE:Xepher(ver1.1);
#SUBTITLE:;
#ARTIST:Tatsh;
#TITLETRANSLIT:;
#SUBTITLETRANSLIT:;
#ARTISTTRANSLIT:;
#CREDIT:Kyon;
#BANNER:Xepher(ver1.1).png;
#BACKGROUND:Xepher(ver1.1)-bg.png;
#LYRICSPATH:Xepher(ver1.1).lrc;
#CDTITLE:Konami Original Remix.png;
#MUSIC:Xepher(ver1.1).mp3;
#OFFSET:-1.820;
#SAMPLESTART:70.968;
#SAMPLELENGTH:12.000;
#SELECTABLE:YES;
#BPMS:0.000=85.000,58.000=42.500,60.000=170.000,136.000=85.000;
#STOPS:;
#BGCHANGES:;

//---------------dance-single - ----------------
#NOTES:
     dance-single:
     :
     Easy:
     2:
     0.113,0.162,0.068,0.039,0.000: // measure 1
0000
0000
0000
0000
,  // measure 2
0000
0000
0000
0000
,  // measure 3
0000
0000
0000
0000
,  // measure 4
1001
0000
0000
0000
,  // measure 5
0000
0010
0000
0000
,  // measure 6
0100
0000
0000
0000
,  // measure 7
1001
0000
0000
0000
,  // measure 8
0100
0000
0000
0000
,  // measure 9
0010
0000
0000
0000
,  // measure 10
0100
0000
0000
0000
,  // measure 11
1001
0000
0000
0000
,  // measure 12
0010
0100
0010
0100
,  // measure 13
1001
0010
0100
0000
,  // measure 14
0001
0000
2000
0000
,  // measure 15
0000
0000
3001
0000
,  // measure 16
0100
0000
0000
0000
,  // measure 17
0001
0000
0000
0000
,  // measure 18
1000
0000
0000
0000
,  // measure 19
0010
0100
0010
0100
,  // measure 20
0010
0000
0000
0000
,  // measure 21
1000
0000
0000
0000
,  // measure 22
0001
0000
0000
0000
,  // measure 23
1000
0001
1000
0000
,  // measure 24
0001
0000
0000
0000
,  // measure 25
0010
0000
0000
0000
,  // measure 26
0001
0000
0000
0000
,  // measure 27
0100
0000
0000
0000
,  // measure 28
0010
0000
0000
0000
,  // measure 29
0100
0000
0000
0000
,  // measure 30
0010
0100
0010
0100
,  // measure 31
0010
0100
0010
0000
,  // measure 32
1000
0001
1000
0001
,  // measure 33
2000
0000
0000
0000
,  // measure 34
3001
0000
0000
0000
,  // measure 35
1001
0010
0010
0000
,  // measure 36
1000
0010
1000
0000
,  // measure 37
0001
0000
0100
0000
,  // measure 38
0001
1000
0001
0000
,  // measure 39
0000
0010
0100
0010
,  // measure 40
1001
0000
1000
0000
,  // measure 41
0001
0000
0100
0010
,  // measure 42
0100
0000
2002
0000
,  // measure 43
3003
0000
0000
0000
;

//---------------dance-single - ----------------
#NOTES:
     dance-single:
     :
     Hard:
     6:
     0.308,0.325,0.155,0.232,0.058: // measure 1
0000
0000
0000
0000
,  // measure 2
0000
0000
0000
0000
,  // measure 3
0000
0000
0000
0000
,  // measure 4
1100
0101
1001
0000
,  // measure 5
0000
1000
0001
1000
,  // measure 6
2001
0000
3001
0110
,  // measure 7
0002
0203
0320
1030
,  // measure 8
0010
0100
0010
1000
,  // measure 9
0002
2003
3002
0023
,  // measure 10
0230
2300
3002
0000
,  // measure 11
1003
0000
0000
0100
0010
0000
0000
0010
,  // measure 12
0100
0002
0023
0230
,  // measure 13
2300
3002
2003
0000
,  // measure 14
3002
0000
0203
0000
,  // measure 15
0000
0000
0310
0000
,  // measure 16
1000
0000
0000
1000
0000
0000
1000
0000
0000
0010
0000
0000
0010
0000
0000
0000
,  // measure 17
0100
0000
0000
0100
0000
0000
0100
0000
0000
0001
0000
0000
0001
0000
0100
0000
,  // measure 18
0010
0000
0000
0010
0000
0000
0010
0000
0000
1000
0000
0000
1000
0000
0000
0000
,  // measure 19
0100
0010
0001
0000
0100
0010
1000
0001
,  // measure 20
1000
0000
0000
0100
0000
0000
0100
0000
0000
0100
0000
0000
1000
0000
0000
0000
,  // measure 21
0001
0000
0000
0010
0000
0000
0010
0000
0000
0010
0000
0000
0001
0000
0100
0000
,  // measure 22
0010
0000
0000
0100
0000
0000
0010
0000
0000
0100
0000
0000
1001
0000
0000
0000
,  // measure 23
0010
0000
0100
0000
0010
0100
0010
1000
,  // measure 24
0001
0000
0010
0000
0100
1000
0010
0100
,  // measure 25
0010
0000
1001
0000
0010
0001
0100
0010
,  // measure 26
0100
0000
1001
0000
0100
1000
0010
0100
,  // measure 27
0010
0000
1001
0000
0010
0001
0100
0010
,  // measure 28
0100
0000
1001
0000
0001
0010
0100
1000
,  // measure 29
0100
0010
0001
0000
1000
0010
1000
0000
,  // measure 30
0001
0010
0100
1000
0010
0100
0010
0000
,  // measure 31
1000
0100
1000
0100
1000
0000
0110
0000
,  // measure 32
0001
0100
0010
0100
0010
1000
0001
1000
,  // measure 33
0100
0010
0001
0010
0100
1000
0001
0100
,  // measure 34
0010
0000
0000
0000
,  // measure 35
1100
0000
0010
0000
0001
0000
0010
0100
,  // measure 36
1000
0010
0100
0001
1010
0000
0001
0100
,  // measure 37
1000
0000
0100
0010
0001
0000
0101
0000
,  // measure 38
2000
3020
0230
0000
,  // measure 39
0000
0301
0010
0100
1000
0010
0100
0010
,  // measure 40
1001
0000
0100
0000
,  // measure 41
0010
0000
1000
0001
,  // measure 42
1000
0000
0220
0000
,  // measure 43
0330
0000
0000
0000
;

//---------------dance-single - ----------------
#NOTES:
     dance-single:
     :
     Challenge:
     8:
     0.433,0.446,0.309,0.280,0.232: // measure 1
0000
0000
0000
0000
,  // measure 2
0000
0000
0000
0000
,  // measure 3
0000
0000
0000
0000
,  // measure 4
0011
1010
2002
0000
,  // measure 5
3003
0100
0010
1000
0001
1000
0010
0100
,  // measure 6
1002
0000
1003
1001
,  // measure 7
1002
0023
0230
0320
,  // measure 8
0032
0203
0320
2030
,  // measure 9
3200
0320
0230
2300
,  // measure 10
3200
0320
0032
0000
,  // measure 11
1003
0000
0000
0000
0000
0000
0000
0000
0000
0100
0010
0100
0010
0000
0000
0000
0000
0000
0000
0000
0000
1000
0000
0000
,  // measure 12
0011
1100
0101
1010
,  // measure 13
1002
0203
0320
0000
,  // measure 14
2030
0000
3002
0010
,  // measure 15
0100
0010
1003
0000
,  // measure 16
0010
0001
0000
0010
0001
0000
1000
0100
0000
1000
0100
0000
1001
0000
0000
0000
,  // measure 17
0001
1000
0000
0001
1000
0000
0010
0100
0000
0010
0100
0000
0001
0000
0001
0000
,  // measure 18
1000
0100
0000
1000
0100
0000
0010
0001
0000
0010
0001
0000
1001
0000
0000
0000
,  // measure 19
1000
0010
0100
0001
0010
0100
1000
0100
,  // measure 20
1000
0010
0000
1000
0010
0000
0100
0001
0000
0100
0001
0000
1001
0000
0000
0000
,  // measure 21
1000
0010
0000
0100
0001
0000
1000
0100
0000
0010
0001
0000
1000
0000
1000
0000
,  // measure 22
0001
0100
0000
0010
1000
0000
0001
0010
0000
0100
1000
0000
1001
0000
0000
0000
,  // measure 23
0010
0000
0100
0000
0001
0000
1000
0000
0001
1000
0001
1000
0001
1000
0001
1000
,  // measure 24
0001
0000
0000
0000
1100
0000
0000
0000
0010
0000
0001
0100
0000
0001
0100
0000
,  // measure 25
1010
0000
1001
0000
1000
0100
0010
0001
,  // measure 26
1100
0000
0000
0000
0101
0000
0000
0000
1000
0000
0010
1000
0000
0010
1000
0000
,  // measure 27
0101
0000
0000
0000
1001
0000
0000
0000
0001
0000
0010
0100
0000
0010
0100
0000
,  // measure 28
1010
0000
0000
0000
0011
0000
0000
0000
1000
0000
0010
0100
0000
0010
0100
0000
,  // measure 29
0001
0010
0001
0000
1000
0100
0010
0001
,  // measure 30
0100
0000
0010
0000
0100
0000
0001
1000
0000
0001
1000
0000
0010
0000
0100
0000
,  // measure 31
1001
0010
0100
1000
0100
0010
0001
0000
,  // measure 32
1001
0100
0010
0001
0010
0100
1000
0010
,  // measure 33
1000
0100
1000
0100
1000
0100
1000
0100
1000
0001
0010
0001
0010
0001
0010
0001
,  // measure 34
0020
0000
0000
0030
,  // measure 35
1001
0000
1010
0000
0011
0000
1000
0100
,  // measure 36
0010
0001
0100
0010
1001
0000
0100
0010
,  // measure 37
1000
0000
0001
0100
0010
0000
1001
0000
,  // measure 38
0002
2003
3002
0000
,  // measure 39
0000
0103
0010
1000
0001
0100
0010
1000
,  // measure 40
0001
0010
1000
0010
0001
0100
1000
0100
,  // measure 41
0001
0100
0010
1000
0100
1000
0100
0010
,  // measure 42
0001
0100
0010
0100
2002
0000
0000
0000
,  // measure 43
3003
0000
0000
0000
;

//---------------dance-single - ----------------
#NOTES:
     dance-single:
     :
     Medium:
     4:
     0.247,0.325,0.164,0.048,0.000: // measure 1
0000
0000
0000
0000
,  // measure 2
0000
0000
0000
0000
,  // measure 3
0000
0000
0000
0000
,  // measure 4
0000
0000
0000
0000
,  // measure 5
0000
0000
0000
0000
,  // measure 6
0000
0000
0000
1001
,  // measure 7
0100
1000
0001
0010
,  // measure 8
0100
1000
0100
0010
,  // measure 9
0001
1000
0001
0010
,  // measure 10
0100
1000
0001
0000
,  // measure 11
0100
0000
0000
0010
0100
0000
0000
0001
,  // measure 12
1000
0001
1000
0001
,  // measure 13
0110
1000
0002
0000
,  // measure 14
0203
0000
0320
0000
,  // measure 15
0000
0000
0130
0000
,  // measure 16
0010
0000
0000
0010
0000
0000
1001
0000
,  // measure 17
0100
0000
0000
0100
0000
0000
0010
0100
,  // measure 18
0010
0000
0000
1000
0000
0000
1001
0000
,  // measure 19
0010
1000
0010
0000
0100
0001
0100
0000
,  // measure 20
0001
0000
0000
1000
0000
0000
1001
0000
,  // measure 21
0100
0000
0000
0010
0000
0000
0100
0010
,  // measure 22
0100
0000
0000
0010
0000
0000
1001
0000
,  // measure 23
0010
0000
0100
0000
0001
1000
0001
1000
,  // measure 24
0001
0000
0100
0000
0010
1000
0010
1000
,  // measure 25
0001
0000
0110
0000
1000
0010
1000
0010
,  // measure 26
1001
0000
0110
0000
0100
0010
0100
0001
,  // measure 27
1000
0000
1001
0000
0010
0100
0010
0100
,  // measure 28
1001
0000
0110
0000
0001
1000
0010
1000
,  // measure 29
0001
0000
0100
0000
0010
1000
0010
0000
,  // measure 30
0100
0001
0100
0000
0010
0100
0010
0000
,  // measure 31
1000
0100
1000
0100
1000
0000
0110
0000
,  // measure 32
0001
0100
0010
0000
1000
0000
0100
0000
,  // measure 33
0010
0001
0010
0001
0100
0010
1000
0100
,  // measure 34
1000
0000
0000
0000
,  // measure 35
1001
0000
0010
0000
0010
0000
1000
0100
,  // measure 36
0010
0001
1000
0001
1000
0000
1000
0001
,  // measure 37
0100
0000
0010
1000
0001
0000
0110
0000
,  // measure 38
1000
0001
0100
0000
,  // measure 39
0000
0001
0010
0100
1000
0100
0010
0001
,  // measure 40
1001
0000
0100
0000
,  // measure 41
0010
0000
1000
0001
,  // measure 42
1000
0000
0220
0000
,  // measure 43
0330
0000
0000
0000
;

//---------------dance-single - ----------------
#NOTES:
     dance-single:
     :
     Beginner:
     1:
     0.054,0.079,0.039,0.000,0.000: // measure 1
0000
0000
0000
0000
,  // measure 2
0000
0000
0000
0000
,  // measure 3
0000
0000
0000
0000
,  // measure 4
0000
0000
0000
0000
,  // measure 5
0000
0000
0000
0000
,  // measure 6
0000
0000
0000
0000
,  // measure 7
1000
0000
0000
0000
,  // measure 8
1000
0000
0000
0000
,  // measure 9
1000
0000
0000
0000
,  // measure 10
0001
0000
0000
0000
,  // measure 11
1001
0000
0000
0000
,  // measure 12
0001
0000
0000
0000
,  // measure 13
1000
0000
0000
0000
,  // measure 14
0001
0000
0000
0000
,  // measure 15
1000
0000
1001
0000
,  // measure 16
0000
0000
0000
0000
,  // measure 17
1000
0000
0000
0000
,  // measure 18
0001
0000
0000
0000
,  // measure 19
1000
0000
0000
0000
,  // measure 20
0001
0000
0000
0000
,  // measure 21
1000
0000
0000
0000
,  // measure 22
0001
0000
0000
0000
,  // measure 23
1000
0000
0000
0000
,  // measure 24
0001
0000
0000
0000
,  // measure 25
0000
0000
0010
0000
,  // measure 26
0001
0000
0000
0000
,  // measure 27
0000
0000
1000
0000
,  // measure 28
0100
0000
0000
0000
,  // measure 29
0000
0000
1000
0000
,  // measure 30
0001
0000
0000
0000
,  // measure 31
1000
0000
0000
0000
,  // measure 32
0001
0000
1000
0000
,  // measure 33
0001
0000
0000
0000
,  // measure 34
1001
0000
0000
0000
,  // measure 35
0001
0000
0000
0000
,  // measure 36
0000
0000
0000
0000
,  // measure 37
1000
0000
0000
0000
,  // measure 38
0000
0000
0000
0000
,  // measure 39
0000
0000
0000
0000
,  // measure 40
1001
0000
0000
0000
,  // measure 41
0000
0000
1000
0001
,  // measure 42
1000
0000
0000
0000
;
