#TITLE:X-Mas Party;
#SUBTITLE:;
#ARTIST:SMiLE.dk;
#TITLETRANSLIT:;
#SUBTITLETRANSLIT:;
#ARTISTTRANSLIT:;
#CREDIT:DMAxel;
#BANNER:X-Mas Party.png;
#BACKGROUND:X-Mas Party-bg.png;
#LYRICSPATH:;
#CDTITLE:DMAxel original simfile.png;
#MUSIC:X-Mas Party.mp3;
#OFFSET:-8.240;
#SAMPLESTART:50.904;
#SAMPLELENGTH:12.000;
#SELECTABLE:YES;
#BPMS:0.000=135.000;
#STOPS:;
#BGCHANGES:;

//---------------dance-single - ----------------
#NOTES:
     dance-single:
     :
     Easy:
     3:
     0.238,0.263,0.189,0.047,0.000: // measure 1
1001
0000
0001
0000
,  // measure 2
0001
0000
1000
1001
,  // measure 3
1001
0000
1001
0000
,  // measure 4
1001
0010
0100
0000
,  // measure 5
1000
0000
0001
0000
,  // measure 6
1000
0001
1000
0000
,  // measure 7
0100
0000
0010
0000
,  // measure 8
0001
1000
0001
0000
,  // measure 9
1001
0000
0010
0000
,  // measure 10
0100
0010
0100
0000
,  // measure 11
0001
1000
0001
0000
,  // measure 12
0100
0010
0100
0010
,  // measure 13
1000
0000
1000
0000
,  // measure 14
1000
0100
0010
0001
,  // measure 15
1001
0000
0001
0000
,  // measure 16
0001
0010
0100
1000
,  // measure 17
1001
0000
1000
0000
,  // measure 18
0010
0100
0001
0010
,  // measure 19
1001
0000
0001
0000
,  // measure 20
0100
0010
1000
1000
,  // measure 21
1001
0010
0100
0010
,  // measure 22
1000
0001
1000
0010
,  // measure 23
0100
0001
0100
1000
,  // measure 24
0200
0000
0310
0000
,  // measure 25
1001
0100
0010
0001
,  // measure 26
1000
1001
0001
1000
,  // measure 27
0001
0010
0100
1000
,  // measure 28
0001
1001
1000
0001
,  // measure 29
1000
0100
0010
0001
,  // measure 30
1000
1001
0001
0000
,  // measure 31
0001
0010
0100
1000
,  // measure 32
0100
1100
0101
0000
,  // measure 33
1000
0100
0001
0100
,  // measure 34
1000
0100
0010
0001
,  // measure 35
0010
1000
0010
0001
,  // measure 36
1000
0010
0100
0010
,  // measure 37
2000
0000
0000
0000
,  // measure 38
3002
0000
0000
0000
,  // measure 39
0103
0000
0010
0000
,  // measure 40
0200
0000
0000
0000
,  // measure 41
0000
0000
0300
0000
;

//---------------dance-single - ----------------
#NOTES:
     dance-single:
     :
     Hard:
     6:
     0.422,0.407,0.307,0.071,0.012: // measure 1
1000
0001
0000
0100
0000
0001
0000
1000
,  // measure 2
0000
0100
0000
1000
0000
0001
1000
0000
,  // measure 3
1001
0100
1010
0100
,  // measure 4
0011
0110
1001
0000
,  // measure 5
0010
0100
0100
0000
0010
0000
1001
0000
,  // measure 6
0100
0100
0010
0000
0100
0000
1001
0000
,  // measure 7
1000
0010
0100
0000
0010
0000
1001
0000
,  // measure 8
0001
0100
0010
0000
0100
0000
1001
0000
,  // measure 9
0100
1000
0100
0000
1000
0100
0001
0000
,  // measure 10
0100
0001
0100
0000
0001
0100
1000
0000
,  // measure 11
0100
0010
0001
0000
0100
0010
1000
0000
,  // measure 12
0010
0100
0010
1000
0001
0000
1001
0000
,  // measure 13
1000
0100
0001
0000
0001
0100
1000
0000
,  // measure 14
0100
1000
0001
0100
0001
0000
1001
0000
,  // measure 15
0001
0100
1000
0000
1000
0100
0001
0000
,  // measure 16
0100
0001
1000
0100
1000
0000
1100
0000
,  // measure 17
1001
1100
1001
0011
,  // measure 18
0100
1000
0001
0100
0010
0000
0110
0000
,  // measure 19
1001
0101
1001
1010
,  // measure 20
0100
0001
1000
0010
0100
0000
0110
0000
,  // measure 21
1001
0100
0010
0100
,  // measure 22
0001
0010
1000
0100
,  // measure 23
0001
0100
0010
0100
,  // measure 24
0010
0100
0010
1000
0100
1000
0001
0000
,  // measure 25
0100
0010
0100
0002
0000
1000
0000
1003
,  // measure 26
0010
0100
0001
0100
1000
0100
0001
1000
,  // measure 27
0010
0100
0010
2000
0000
0001
0000
3001
,  // measure 28
0100
0010
1000
0100
0001
0100
1000
0001
,  // measure 29
0100
0010
0100
0002
0000
1000
0000
1003
,  // measure 30
0100
0010
0001
0100
1000
0100
0001
1000
,  // measure 31
0100
0010
0100
0000
1001
0000
0010
0100
,  // measure 32
0010
0001
0001
1000
1000
0001
0010
0100
,  // measure 33
1000
0010
1000
0001
0010
0001
0000
0010
,  // measure 34
0001
0010
0100
1000
0001
0100
0001
0000
,  // measure 35
0001
0100
0001
1000
0100
1000
0000
0100
,  // measure 36
1000
0100
0010
0001
1000
0010
1000
0000
,  // measure 37
0001
0000
0000
0100
0000
0000
0002
0000
0000
0000
0000
0000
0000
0000
0000
0000
,  // measure 38
1003
0000
0000
0010
0000
0000
2000
0000
0000
0000
0000
0000
0000
0000
0000
0000
,  // measure 39
3001
0000
0101
0000
,  // measure 40
1100
0001
0200
0000
,  // measure 41
0000
0000
0300
0000
;

//---------------dance-single - ----------------
#NOTES:
     dance-single:
     :
     Challenge:
     8:
     0.589,0.575,0.225,0.083,0.420: // measure 1
1002
0000
0000
1000
0000
0000
1000
0000
0000
0000
0100
0000
0000
0000
2003
0000
,  // measure 2
0001
0000
0000
0001
0000
0000
3001
0000
0000
0000
0100
0000
0101
0000
0000
0000
,  // measure 3
1100
0010
0001
1000
1010
0000
0010
0100
,  // measure 4
0011
0000
0100
0000
1001
0000
0100
0000
1001
0000
0000
0001
1000
0000
0010
0000
,  // measure 5
1000
0000
0000
0010
0000
0000
0100
0001
0000
0100
0001
0000
1000
0001
1000
0000
,  // measure 6
0001
0000
0000
0100
0000
0000
0010
1000
0000
0010
1000
0000
0001
1000
0001
0000
,  // measure 7
1000
0000
0000
0100
0000
0000
0010
0001
0000
0010
0001
0000
1000
0001
1000
0000
,  // measure 8
0001
0010
0000
0001
0010
0000
0100
0000
1000
0000
0000
0001
0100
0000
0010
0000
,  // measure 9
1000
0100
0000
1000
0100
0000
0010
0001
0000
0010
0001
0000
1000
0001
1000
0000
,  // measure 10
0001
0010
0000
0001
0010
0000
0100
1000
0000
0100
1000
0000
0001
1000
0001
0000
,  // measure 11
1000
0010
0000
1000
0010
0000
0100
0001
0000
0100
0001
0000
1000
0001
1000
0000
,  // measure 12
0100
0000
0010
0000
0100
0000
1000
0000
0001
1000
0000
1000
0001
0000
0100
0000
,  // measure 13
0001
0000
1000
0100
0000
0000
0000
0000
1000
0000
0001
0100
0001
0000
0100
0000
,  // measure 14
0010
1000
0010
1000
0001
0000
0011
0000
,  // measure 15
1000
0000
0001
0100
0000
0000
0000
0000
0001
0000
1000
0100
1000
0000
0010
0000
,  // measure 16
0100
0001
0100
0001
1000
0000
1100
0000
,  // measure 17
0101
0000
0000
1000
0001
0000
0000
0000
0101
0000
0000
1000
0001
0000
0100
0000
,  // measure 18
0001
0010
0100
1000
0001
0000
1001
0000
,  // measure 19
1010
0000
0000
0001
1000
0000
0000
0000
1010
0000
0000
0001
1000
0000
0010
0000
,  // measure 20
1000
0100
0010
0001
1000
1000
0001
0001
,  // measure 21
1001
0100
0010
0001
0100
1000
0100
0010
,  // measure 22
0100
1001
0100
1001
,  // measure 23
0001
0010
0100
1000
0100
0001
0100
0010
,  // measure 24
0100
0000
0100
0000
0001
0000
0001
0000
1000
0010
0000
1000
0010
0000
1000
0000
,  // measure 25
0001
0010
0001
0010
0001
0000
1000
0000
0010
0000
0100
0000
0001
0000
1000
0000
,  // measure 26
0100
0001
0100
1000
0100
0010
0001
0001
,  // measure 27
1000
0010
1000
0010
1000
0000
0001
0000
0100
0000
0010
0000
1000
0000
0001
0000
,  // measure 28
0100
1000
0100
0001
0100
0010
1000
1000
,  // measure 29
0001
0010
0001
0010
0001
0000
1000
0000
0100
0000
0010
0000
0001
0000
1000
0000
,  // measure 30
0010
0100
0010
0100
0010
0000
1000
0000
0100
0000
0001
0000
0100
0000
0010
0000
,  // measure 31
1000
0100
1000
0100
1000
0000
0001
0000
0100
0000
0000
0000
0010
0000
1000
0000
,  // measure 32
0001
0001
0100
0100
0001
0010
0100
1000
,  // measure 33
0010
1000
0010
1000
0010
0000
0100
0001
0000
0100
0001
0000
1000
0000
0001
0000
,  // measure 34
0100
0001
0100
0001
0100
0000
0010
1000
0000
0010
1000
0000
0001
0000
1000
0000
,  // measure 35
0001
0010
0001
0010
0001
0000
1000
0100
0000
1000
0100
0000
1000
0000
0001
0000
,  // measure 36
1000
0100
1000
0100
1000
0000
0001
0010
0000
0001
0010
0000
0001
0000
1000
0000
,  // measure 37
1001
0010
0100
1000
0001
0010
0100
1000
,  // measure 38
0010
0100
0001
0000
1000
0000
0001
0000
,  // measure 39
0022
0030
0203
0000
,  // measure 40
0302
1000
2000
0000
,  // measure 41
0000
0000
3003
0000
;

//---------------dance-single - ----------------
#NOTES:
     dance-single:
     :
     Medium:
     5:
     0.334,0.359,0.366,0.012,0.000: // measure 1
1001
0100
0010
0100
,  // measure 2
0001
0010
0100
1001
,  // measure 3
1001
0010
1001
0100
,  // measure 4
1001
0010
1001
0000
,  // measure 5
0010
0010
0100
0001
,  // measure 6
0010
0010
0001
1000
,  // measure 7
0100
0100
1000
0010
,  // measure 8
0100
0100
0010
1000
,  // measure 9
1001
0010
0100
1000
,  // measure 10
0001
0001
0100
0010
,  // measure 11
1000
1000
0010
0100
,  // measure 12
0001
0001
1000
1000
,  // measure 13
1001
0000
1001
0000
,  // measure 14
0100
0010
1000
1000
,  // measure 15
1001
0000
1001
0000
,  // measure 16
0010
0010
0100
0001
,  // measure 17
1001
0000
1001
0000
,  // measure 18
0100
0010
1100
0101
,  // measure 19
1001
0000
1001
0000
,  // measure 20
0010
0100
0010
0010
,  // measure 21
1001
0000
0100
1000
0100
0000
1000
0000
,  // measure 22
0010
0000
0100
0000
0001
0000
0100
0010
,  // measure 23
0100
0000
0001
0010
0001
0000
1000
0000
,  // measure 24
0001
1000
0001
0000
1000
0001
1000
0000
,  // measure 25
1001
0100
1100
0001
,  // measure 26
0100
0001
0100
0001
1000
0100
1000
0000
,  // measure 27
1001
0010
0011
1000
,  // measure 28
0010
1000
0010
1000
0001
0010
0001
0000
,  // measure 29
1001
0010
1010
0001
,  // measure 30
0100
0010
0100
0010
0100
0001
1000
0000
,  // measure 31
1001
0000
0010
0000
1010
0000
0001
0010
,  // measure 32
0001
1000
1001
0000
,  // measure 33
0101
0100
1001
0001
,  // measure 34
0100
0001
1000
0000
0010
1000
0010
0000
,  // measure 35
1010
0010
1001
1000
,  // measure 36
0010
1000
0001
0000
0010
0001
0010
0000
,  // measure 37
0001
1000
0000
1000
0000
0001
0000
0001
,  // measure 38
0100
0010
1000
0000
,  // measure 39
0010
0000
0010
0000
,  // measure 40
0010
0100
0002
0000
,  // measure 41
0000
0000
0003
0000
;

//---------------dance-single - ----------------
#NOTES:
     dance-single:
     :
     Beginner:
     1:
     0.083,0.115,0.106,0.000,0.000: // measure 1
0001
0000
0000
0000
,  // measure 2
0001
0000
0000
0000
,  // measure 3
1000
0000
0000
0000
,  // measure 4
1001
0000
0000
0000
,  // measure 5
1001
0000
0000
0000
,  // measure 6
1000
0000
0000
0000
,  // measure 7
0001
0000
0000
0000
,  // measure 8
1000
0000
0000
0000
,  // measure 9
0100
0000
0000
0000
,  // measure 10
1000
0000
0000
0000
,  // measure 11
0001
0000
0000
0000
,  // measure 12
0010
0000
0000
0000
,  // measure 13
1001
0000
0000
0000
,  // measure 14
1000
0000
0000
0000
,  // measure 15
1001
0000
0000
0000
,  // measure 16
0001
0000
0000
0000
,  // measure 17
0100
0000
0000
0000
,  // measure 18
0100
0000
0000
0000
,  // measure 19
0010
0000
0000
0000
,  // measure 20
0010
0000
0000
0000
,  // measure 21
1001
0000
0000
0000
,  // measure 22
0001
0000
0000
0000
,  // measure 23
0001
0000
0000
0000
,  // measure 24
1000
0000
0000
0000
,  // measure 25
1001
0000
0000
0000
,  // measure 26
1000
0000
0000
0000
,  // measure 27
1000
0000
0000
0000
,  // measure 28
0001
0000
0000
0000
,  // measure 29
1001
0000
0000
0000
,  // measure 30
0100
0000
0000
0000
,  // measure 31
1001
0000
0000
0000
,  // measure 32
0010
0000
0000
0000
,  // measure 33
1001
0000
0000
0000
,  // measure 34
1000
0000
0000
0000
,  // measure 35
0001
0000
0000
0000
,  // measure 36
1000
0000
0000
0000
,  // measure 37
0010
0000
0000
0000
,  // measure 38
0010
0000
0000
0000
,  // measure 39
0010
0000
0000
0000
,  // measure 40
0100
0000
0000
0000
;
