#TITLE:Winorin;
#SUBTITLE:;
#ARTIST:Helblinde;
#TITLETRANSLIT:;
#SUBTITLETRANSLIT:;
#ARTISTTRANSLIT:;
#CREDIT:DMAxel;
#BANNER:Winorin.png;
#BACKGROUND:Winorin-bg.png;
#LYRICSPATH:;
#CDTITLE:DMAxel Original Simfile.png;
#MUSIC:Winorin.mp3;
#OFFSET:-0.060;
#SAMPLESTART:57.300;
#SAMPLELENGTH:12.000;
#SELECTABLE:YES;
#DISPLAYBPM:200.000;
#BPMS:0.000=200.000,80.000=100.000,84.000=200.000,151.000=100.000,161.000=200.000;
#STOPS:;
#BGCHANGES:;

//---------------dance-single - ----------------
#NOTES:
     dance-single:
     :
     Easy:
     5:
     0.413,0.559,0.444,0.056,0.000: // measure 1
0000
0000
0000
0000
,  // measure 2
0000
0000
0000
0000
,  // measure 3
0000
0000
0000
0000
,  // measure 4
0000
0000
0000
0000
,  // measure 5
1000
0000
1000
0000
,  // measure 6
1000
0000
1000
0000
,  // measure 7
0001
0000
0001
0000
,  // measure 8
0001
0000
0000
0000
,  // measure 9
0000
1000
0000
0001
,  // measure 10
0000
1000
0000
0001
,  // measure 11
0000
0100
0000
0010
,  // measure 12
0000
0110
0000
0000
,  // measure 13
1000
1010
0000
0101
,  // measure 14
0000
0110
0000
1010
,  // measure 15
0000
0101
0000
0110
,  // measure 16
1000
1100
0001
0011
,  // measure 17
1000
0001
1000
0001
,  // measure 18
1000
0001
1000
0010
,  // measure 19
1000
0010
1000
0010
,  // measure 20
0100
0100
0100
0100
,  // measure 21
0110
0000
0000
0000
,  // measure 22
0001
1000
0001
1000
,  // measure 23
0001
0010
0001
0010
,  // measure 24
0001
1000
0001
1000
,  // measure 25
0100
1000
0100
1000
,  // measure 26
0010
1000
0010
1000
,  // measure 27
0010
0100
0010
0100
,  // measure 28
0001
0100
0001
0100
,  // measure 29
0001
1000
0001
1000
,  // measure 30
0001
0100
0010
0100
,  // measure 31
0010
1000
0010
1000
,  // measure 32
0100
1000
0100
1000
,  // measure 33
0001
1000
0001
1000
,  // measure 34
0001
0001
0010
0010
,  // measure 35
0100
0100
1000
1000
,  // measure 36
2002
0000
0000
0000
,  // measure 37
0000
0000
0000
0000
,  // measure 38
3003
0000
0000
0000
,  // measure 39
0000
0000
0000
0000
,  // measure 40
0000
0000
0000
0000
,  // measure 41
0000
0010
0010
0010
,  // measure 42
0100
0100
0100
0001
,  // measure 43
0100
0001
0100
0010
,  // measure 44
0100
0010
0000
0000
,  // measure 45
0000
1001
0100
1000
,  // measure 46
0010
1000
1010
1010
,  // measure 47
1010
0100
0010
0100
,  // measure 48
0001
0100
0101
0000
,  // measure 49
0000
1001
0100
0001
,  // measure 50
0010
0001
0101
0101
,  // measure 51
0101
0010
1000
0100
,  // measure 52
1000
0010
1100
0000
,  // measure 53
0011
1001
0100
1000
,  // measure 54
0010
1000
1010
1010
,  // measure 55
1010
0100
0010
0001
,  // measure 56
0010
0100
1001
0000
,  // measure 57
1001
0110
0001
0010
,  // measure 58
0001
0010
0001
0010
,  // measure 59
0100
2000
0000
0000
,  // measure 60
0000
3002
0000
0000
,  // measure 61
0000
0003
0000
0000
,  // measure 62
0000
0110
1000
0010
,  // measure 63
1000
0010
1000
0010
,  // measure 64
1000
0010
0100
0001
,  // measure 65
0100
0001
0100
0001
,  // measure 66
0100
0010
0100
0010
,  // measure 67
0100
0010
0100
0010
,  // measure 68
0100
0001
1000
0001
,  // measure 69
1000
0000
0011
0000
,  // measure 70
1100
1001
0010
0001
,  // measure 71
0100
0010
0101
0101
,  // measure 72
0101
0010
1000
0100
,  // measure 73
1000
0010
1001
0000
,  // measure 74
0110
1001
0010
1000
,  // measure 75
0010
0100
1010
1010
,  // measure 76
1010
0100
0001
0010
,  // measure 77
0100
1000
1001
0000
,  // measure 78
0110
1001
0010
0001
,  // measure 79
0100
0001
0010
0100
,  // measure 80
1000
0100
1000
0010
,  // measure 81
1000
0010
0110
0000
,  // measure 82
1001
0010
0001
0010
,  // measure 83
0001
0010
0100
1000
,  // measure 84
0010
1000
0100
1000
,  // measure 85
0010
1000
0100
0010
,  // measure 86
0001
2002
0000
0000
,  // measure 87
0000
3003
0000
0000
;

//---------------dance-single - ----------------
#NOTES:
     dance-single:
     :
     Challenge:
     9:
     0.695,0.679,0.676,0.056,0.171: // measure 1
0000
0000
0000
0000
,  // measure 2
0000
0000
0000
0000
,  // measure 3
0000
0000
0000
0000
,  // measure 4
0000
0000
0000
0000
,  // measure 5
1000
0100
1000
0100
,  // measure 6
1000
0100
1000
0001
,  // measure 7
0010
0001
0010
0001
,  // measure 8
0100
0000
0010
0010
0100
0010
0100
0001
,  // measure 9
0010
0000
0001
0010
0100
0000
1000
0000
,  // measure 10
0010
1000
0010
1000
,  // measure 11
0010
0100
0010
0100
,  // measure 12
0010
0000
0100
0100
0100
0000
0001
0010
,  // measure 13
0100
1010
0100
0101
,  // measure 14
0010
0110
1000
1010
,  // measure 15
0001
0011
1000
1100
,  // measure 16
0001
0110
1000
0110
,  // measure 17
1000
0000
0001
0100
0001
0000
1000
0010
,  // measure 18
1000
0000
0001
0010
0001
0000
0010
0100
,  // measure 19
1000
0000
0010
0100
0001
0000
0100
0000
,  // measure 20
0010
0100
0010
0100
0010
0100
0010
0100
,  // measure 21
0002
0000
2003
0000
,  // measure 22
3001
0000
0000
0010
0000
0000
0001
0000
0000
0010
0000
0000
0100
0000
1000
0000
,  // measure 23
0100
0000
0000
1000
0000
0000
0100
0000
0000
1000
0000
0000
0100
0000
0010
0000
,  // measure 24
0001
0000
0000
0100
0000
0000
0001
0000
0000
0100
0000
0000
0001
0000
0000
0000
,  // measure 25
1000
0000
0000
0010
0000
0000
0100
0000
0000
0010
0000
0000
1000
0000
0000
0000
,  // measure 26
0001
0000
0000
0010
0000
0000
0010
0000
0000
0001
0000
0000
0010
0000
0100
0000
,  // measure 27
1000
0000
0000
0100
0000
0000
0100
0000
0000
1000
0000
0000
0100
0000
0010
0000
,  // measure 28
0001
0000
0000
0100
0000
0000
0100
0000
0000
0010
0000
0000
1000
0000
0010
0000
,  // measure 29
0001
0000
0000
0010
0000
0000
0010
0000
0100
0000
0000
1000
0000
0000
0100
0000
,  // measure 30
0001
0000
0000
0001
0000
0000
0010
0000
0000
0010
0000
0000
0100
0000
1000
0000
,  // measure 31
0010
0000
0000
1000
0000
0000
0100
0000
0000
0100
0000
0000
0010
0000
0001
0000
,  // measure 32
0100
0000
0000
0001
0000
0000
0010
0000
0000
0010
0000
0000
0100
0000
0000
0000
,  // measure 33
1000
0000
0000
0100
0000
0000
0100
0000
0000
0010
0000
0000
0001
0000
0000
0000
,  // measure 34
0101
0101
1010
1010
,  // measure 35
1000
0010
1000
0010
0100
0001
0010
0001
,  // measure 36
0010
0100
1000
0001
0010
0100
1000
0001
,  // measure 37
0010
0100
1000
0001
0010
0100
1000
0001
,  // measure 38
0220
0000
0000
0000
0000
0000
0000
0330
,  // measure 39
0000
0000
0010
0010
0010
0010
0010
0100
,  // measure 40
0010
0100
0010
1000
1000
1000
0001
1000
,  // measure 41
0001
0000
1000
0010
0100
0000
0000
0000
1010
0000
0000
0000
1000
0000
0010
0000
,  // measure 42
0100
0000
0001
0100
0001
0100
0001
0010
,  // measure 43
0100
0000
1000
0010
1000
0010
0100
0010
,  // measure 44
0100
0001
0010
0000
0000
0000
0000
0000
,  // measure 45
0000
0000
1001
0000
1100
0000
0010
0001
,  // measure 46
0010
0100
1000
0000
0110
0000
1001
0000
,  // measure 47
0110
0000
1001
0000
0011
0000
0100
1000
,  // measure 48
0100
0010
0001
0000
0100
0100
0001
1000
,  // measure 49
0001
0000
1001
0000
0101
0000
0010
1000
,  // measure 50
0100
0010
0001
0000
0110
0000
1001
0000
,  // measure 51
0110
0000
1001
0000
1010
0000
0100
0001
,  // measure 52
0010
0100
1000
0000
1100
0000
0100
0000
,  // measure 53
0011
0000
1001
0000
1010
0000
0100
0001
,  // measure 54
0010
0100
1000
0000
1001
0000
0110
0000
,  // measure 55
1001
0000
1100
0000
1100
0000
0010
0001
,  // measure 56
0010
0001
0100
0000
1001
0000
0110
0000
,  // measure 57
1001
0101
0101
1010
,  // measure 58
1010
0000
0010
1000
0100
1000
0010
0100
,  // measure 59
0010
0100
0001
0010
0100
1000
0100
0001
,  // measure 60
0010
0100
1000
0100
0001
0010
0100
1000
,  // measure 61
0100
0010
0001
0000
0000
0000
0000
0000
,  // measure 62
0000
0000
0000
0000
0110
0000
0000
0000
1000
0000
0000
0010
0000
0000
0100
0000
,  // measure 63
0001
0000
0010
0000
0100
0000
0000
1000
0000
0000
0010
0000
1000
0000
0100
0000
,  // measure 64
0010
0000
0000
0000
0001
0000
0000
0100
0000
0000
0001
0000
0000
1000
0000
0000
,  // measure 65
0001
0000
0000
0000
1000
0000
0000
0010
0000
0000
1000
0000
0000
0001
0000
0000
,  // measure 66
1000
0000
0000
0000
0010
0000
0000
1000
0000
0000
0010
0000
0000
0100
0000
0000
,  // measure 67
0001
0000
0010
0000
0100
0000
0000
1000
0000
0000
0001
0000
0000
0100
0000
0000
,  // measure 68
0010
0000
1000
0000
0100
0000
0000
1000
0000
0000
0001
0000
0000
0100
0000
0000
,  // measure 69
0010
0011
0001
1100
,  // measure 70
1000
0000
1001
0000
0010
0001
0100
0001
,  // measure 71
0010
0100
1000
0000
0110
0000
1001
0000
,  // measure 72
0110
0000
1001
0000
0100
1000
0010
1000
,  // measure 73
0100
0010
0001
0000
0100
0100
0001
1000
,  // measure 74
0001
0000
1001
0000
0100
0001
0010
0001
,  // measure 75
0100
0010
1000
0000
0110
0000
1001
0000
,  // measure 76
0110
0000
1001
0000
0010
1000
0100
1000
,  // measure 77
0010
0100
0001
0000
1001
1000
0010
0100
,  // measure 78
0010
0000
1001
0000
0010
0001
0100
0010
,  // measure 79
1000
0010
1000
0000
0110
0000
0101
0000
,  // measure 80
1010
0000
1001
0000
0100
1000
0010
0100
,  // measure 81
0001
0100
0001
0000
0110
0100
0001
1000
,  // measure 82
0001
1010
0110
0101
,  // measure 83
0110
1100
0110
1001
,  // measure 84
0110
0000
0001
0010
0001
1000
0100
1000
,  // measure 85
0001
0100
0001
0010
0100
1000
0001
0100
,  // measure 86
0100
0010
2002
0000
0000
0000
0000
0000
,  // measure 87
0000
3003
0000
0000
;

//---------------dance-single - ----------------
#NOTES:
     dance-single:
     :
     Beginner:
     3:
     0.186,0.197,0.056,0.000,0.000: // measure 1
0000
0000
0000
0000
,  // measure 2
0000
0000
0000
0000
,  // measure 3
0000
0000
0000
0000
,  // measure 4
0000
0000
0000
0000
,  // measure 5
1000
0000
1000
0000
,  // measure 6
1000
0000
1000
0000
,  // measure 7
1000
0000
1000
0000
,  // measure 8
1000
0000
0000
0000
,  // measure 9
0000
0001
0000
0001
,  // measure 10
0000
0001
0000
0001
,  // measure 11
0000
0001
0000
0001
,  // measure 12
0000
0001
0000
0000
,  // measure 13
0000
0100
0000
0100
,  // measure 14
0000
0100
0000
0100
,  // measure 15
0000
0010
0000
0010
,  // measure 16
0000
0010
0000
0000
,  // measure 17
0000
1000
0000
0001
,  // measure 18
0000
1000
0000
0001
,  // measure 19
0000
0100
0000
0010
,  // measure 20
0000
0000
0000
0000
,  // measure 21
1001
0000
0000
0000
,  // measure 22
1000
0000
1000
0000
,  // measure 23
1000
0000
1000
0000
,  // measure 24
0001
0000
0001
0000
,  // measure 25
0001
0000
0001
0000
,  // measure 26
1000
0000
0001
0000
,  // measure 27
1000
0000
0001
0000
,  // measure 28
0100
0000
0010
0000
,  // measure 29
0100
0000
0010
0000
,  // measure 30
1000
0000
0010
0000
,  // measure 31
1000
0000
0010
0000
,  // measure 32
0100
0000
0001
0000
,  // measure 33
0100
0000
0001
0000
,  // measure 34
0100
0000
0100
0000
,  // measure 35
0100
0000
0010
0000
,  // measure 36
0010
0000
0000
0000
,  // measure 37
0000
0000
0000
0000
,  // measure 38
1001
0000
0000
0000
,  // measure 39
0000
0000
0000
0000
,  // measure 40
0000
0000
0000
0000
,  // measure 41
0000
1000
0000
0001
,  // measure 42
0000
1000
0000
0001
,  // measure 43
0000
1000
0000
0000
,  // measure 44
0000
0000
0000
0000
,  // measure 45
0000
1001
0000
0010
,  // measure 46
0000
0010
0000
0010
,  // measure 47
0000
0100
0000
0100
,  // measure 48
0000
0100
0000
0000
,  // measure 49
0000
0001
0000
0001
,  // measure 50
0000
0001
0000
0001
,  // measure 51
0000
1000
0000
1000
,  // measure 52
0000
1000
0000
0000
,  // measure 53
0000
0010
0000
1000
,  // measure 54
0000
0010
0000
1000
,  // measure 55
0000
0001
0000
0100
,  // measure 56
0000
0001
0000
0000
,  // measure 57
0000
1000
0000
0001
,  // measure 58
0000
1000
0000
0001
,  // measure 59
0000
0100
0000
0010
,  // measure 60
0000
0100
0000
0000
,  // measure 61
0000
1001
0000
0000
,  // measure 62
0000
0010
0000
0010
,  // measure 63
0000
0010
0000
0010
,  // measure 64
0000
0100
0000
0100
,  // measure 65
0000
0100
0000
0100
,  // measure 66
0000
0010
0000
0010
,  // measure 67
0000
0010
0000
0010
,  // measure 68
0000
0100
0000
0100
,  // measure 69
0000
0100
0000
0000
,  // measure 70
0000
1001
0000
0010
,  // measure 71
0000
0010
0000
0001
,  // measure 72
0000
0010
0000
0100
,  // measure 73
0000
1000
0000
0000
,  // measure 74
0000
0100
0000
0100
,  // measure 75
0000
0100
0000
1000
,  // measure 76
0000
0100
0000
0010
,  // measure 77
0000
0001
0000
0000
,  // measure 78
0000
1000
0000
0001
,  // measure 79
0000
1000
0000
0001
,  // measure 80
0000
0100
0000
0010
,  // measure 81
0000
0100
0000
0000
,  // measure 82
0000
0010
0000
0010
,  // measure 83
0000
0100
0000
0100
,  // measure 84
0000
0001
0000
0000
,  // measure 85
0000
1000
0000
0000
,  // measure 86
0000
1001
0000
0000
;

//---------------dance-single - ----------------
#NOTES:
     dance-single:
     :
     Hard:
     8:
     0.640,0.679,0.740,0.176,0.069: // measure 1
0000
0000
0000
0000
,  // measure 2
0000
0000
0000
0000
,  // measure 3
0000
0000
0000
0000
,  // measure 4
0000
0000
0000
0000
,  // measure 5
0001
1000
0001
1000
,  // measure 6
0001
1000
0001
1000
,  // measure 7
0010
0100
0010
0100
,  // measure 8
0010
0000
0100
0010
0100
0000
0001
1000
,  // measure 9
0001
1000
0010
1000
,  // measure 10
0010
1000
0010
1000
,  // measure 11
0001
0100
0001
0100
,  // measure 12
0001
0000
0100
0010
0100
0000
0001
1000
,  // measure 13
0001
0101
0001
0101
,  // measure 14
0001
0101
1000
1010
,  // measure 15
1000
1010
1000
1010
,  // measure 16
0000
0110
0000
1001
,  // measure 17
0100
0000
1000
0010
0100
0000
0001
0000
,  // measure 18
0100
0000
0010
0000
1000
0000
0100
0010
,  // measure 19
0001
0000
0100
0010
1000
0000
0010
0000
,  // measure 20
0100
0010
0100
0010
0100
0010
0100
0010
,  // measure 21
2000
0000
3001
0000
,  // measure 22
0200
0010
0310
1000
,  // measure 23
0200
1000
1300
0001
,  // measure 24
0020
0000
0001
0000
0031
1000
0001
0000
,  // measure 25
0200
0000
0010
0000
0310
0100
0010
0000
,  // measure 26
2000
0010
3010
0100
,  // measure 27
0002
0000
0100
0000
0103
0010
0100
0000
,  // measure 28
0002
0000
0010
0000
0013
0001
0100
0000
,  // measure 29
0020
0000
1000
0000
1030
0010
0100
0000
,  // measure 30
0001
0000
0000
0100
0000
0000
0001
0000
0000
0100
0000
0000
0001
0000
1000
0000
,  // measure 31
0001
0000
0000
0100
0000
0000
0001
0000
0000
0100
0000
0000
0001
0000
1000
0000
,  // measure 32
0001
0000
0000
1000
0000
0000
0010
0000
0000
1000
0000
0000
0010
0000
0000
0000
,  // measure 33
1000
0000
0000
0001
0000
0000
1000
0000
0000
0001
0000
0000
1000
0000
0000
0000
,  // measure 34
0001
0011
1000
1100
,  // measure 35
0001
0100
0001
0100
0010
0100
0010
0000
,  // measure 36
2002
0000
0000
3003
,  // measure 37
0220
0000
0000
0330
,  // measure 38
2002
0000
0000
0000
0000
0000
0000
3003
,  // measure 39
0000
0000
0100
0100
0100
0100
0100
0010
,  // measure 40
0100
0010
0100
0001
0001
0001
1000
0001
,  // measure 41
1000
0000
0001
0100
0010
0000
0000
0000
0101
0000
0000
0000
0010
0000
1000
0000
,  // measure 42
0010
0000
1000
0010
1000
0010
1000
0100
,  // measure 43
0010
2002
0000
0000
,  // measure 44
0000
3003
0000
0000
,  // measure 45
0000
0000
1001
0000
0011
0000
0100
1000
,  // measure 46
0000
0100
0001
0000
0110
0000
1001
0000
,  // measure 47
0110
0000
1001
0000
1100
0000
0010
0001
,  // measure 48
0000
0100
1000
0000
0010
0100
0010
0100
,  // measure 49
0010
0000
1001
0000
1010
0000
0100
0001
,  // measure 50
0000
0100
1000
0000
0110
0000
1001
0000
,  // measure 51
0110
0000
1001
0000
0101
0000
0010
1000
,  // measure 52
0000
0010
0001
0000
0011
0000
1001
0000
,  // measure 53
1100
0000
1001
0000
0101
0000
0010
1000
,  // measure 54
0000
0100
0001
0000
1001
0000
0110
0000
,  // measure 55
1001
0000
0011
0000
0011
0000
0100
1000
,  // measure 56
0000
0100
0010
0000
1001
0000
0110
0000
,  // measure 57
1001
0000
1010
0000
1010
0000
0001
0100
,  // measure 58
0000
0010
1000
0100
1000
0100
1000
0100
,  // measure 59
1000
0000
0001
0010
0001
0010
0001
0010
,  // measure 60
0001
0000
1000
0100
0010
0001
0010
0100
,  // measure 61
1000
0100
0010
0000
0000
0000
0000
0000
,  // measure 62
0000
0000
1001
0000
1100
0000
0010
0001
,  // measure 63
0010
0000
1001
0000
0011
0000
0100
1000
,  // measure 64
0100
0000
1001
0000
1010
0000
0100
0001
,  // measure 65
0100
0000
1001
0000
0101
0000
0010
1000
,  // measure 66
0010
0000
0000
0000
1000
0000
0000
0100
0000
0000
1000
0000
0000
0100
0000
0000
,  // measure 67
1000
0000
0000
0000
0001
0000
0000
0010
0000
0000
0001
0000
0000
0010
0000
0000
,  // measure 68
0001
0000
0000
0000
1000
0000
0000
0001
0000
0000
1000
0000
0000
0001
0000
0000
,  // measure 69
1000
0000
1001
0000
,  // measure 70
0110
0000
1001
0000
0100
1000
0010
1000
,  // measure 71
0000
0010
0001
0000
0110
0000
1001
0000
,  // measure 72
0110
0000
1001
0000
0010
0001
0100
0001
,  // measure 73
0000
0100
1000
0000
0010
0100
0010
0100
,  // measure 74
0010
0000
1001
0000
0010
1000
0100
1000
,  // measure 75
0000
0100
0001
0000
0110
0000
1001
0000
,  // measure 76
0110
0000
1001
0000
0100
0001
0010
0001
,  // measure 77
0000
0010
1000
0000
0110
0000
0000
0101
,  // measure 78
0000
0000
1001
0000
1000
0100
0010
0100
,  // measure 79
0000
1000
0001
0000
0110
0000
1010
0000
,  // measure 80
0101
0000
1001
0000
0001
0010
0100
0010
,  // measure 81
0000
0001
1000
0000
0010
0100
0010
0100
,  // measure 82
0010
0101
0101
1010
,  // measure 83
1010
0011
0011
1100
,  // measure 84
1100
0000
0001
0010
0001
1000
0100
1000
,  // measure 85
0001
0000
1000
0100
0010
0001
1000
0100
,  // measure 86
0010
2002
0000
0000
,  // measure 87
0000
3003
0000
0000
;

//---------------dance-single - ----------------
#NOTES:
     dance-single:
     :
     Medium:
     7:
     0.543,0.639,0.685,0.148,0.000: // measure 1
0000
0000
0000
0000
,  // measure 2
0000
0000
0000
0000
,  // measure 3
0000
0000
0000
0000
,  // measure 4
0000
0000
0000
0000
,  // measure 5
0001
1000
0001
1000
,  // measure 6
0001
1000
0001
0100
,  // measure 7
0010
0100
0010
0100
,  // measure 8
0010
0100
0110
1001
,  // measure 9
0010
0001
0010
0001
,  // measure 10
1000
0100
1000
0100
,  // measure 11
1000
0010
1000
0001
,  // measure 12
0100
0010
0010
1000
,  // measure 13
0001
0101
1000
1010
,  // measure 14
0010
0110
0100
0101
,  // measure 15
0010
1010
1000
0110
,  // measure 16
0001
0011
1000
1100
,  // measure 17
0001
1000
0001
1000
,  // measure 18
0001
1000
0001
0100
,  // measure 19
0001
0100
0001
0100
,  // measure 20
0010
0100
0010
0100
0010
0100
0010
0000
,  // measure 21
1001
0000
0001
0000
,  // measure 22
2000
0010
3010
0100
,  // measure 23
0002
0100
0103
0010
,  // measure 24
2000
0001
0001
0001
,  // measure 25
3002
0100
0100
0103
,  // measure 26
0200
0010
0310
0100
,  // measure 27
0002
1000
1000
1000
,  // measure 28
2003
0010
0010
0010
,  // measure 29
3020
0100
0100
0100
,  // measure 30
0230
0000
0301
0100
,  // measure 31
0020
1000
1030
0010
,  // measure 32
2000
0001
0001
0001
,  // measure 33
3002
1000
1000
1003
,  // measure 34
1100
1100
0011
0011
,  // measure 35
0110
0110
1001
1001
,  // measure 36
0100
0010
0100
0010
0100
0010
0100
0000
,  // measure 37
0001
1000
0001
1000
0001
1000
0001
0000
,  // measure 38
1100
0000
0000
0000
,  // measure 39
0000
0200
0000
0000
,  // measure 40
0000
0320
0000
0000
,  // measure 41
0000
0130
0110
0100
,  // measure 42
0110
0001
0110
1000
,  // measure 43
0110
0001
1001
1000
,  // measure 44
1001
0100
0000
0000
,  // measure 45
0000
1001
0010
0001
,  // measure 46
0100
0001
0101
0101
,  // measure 47
0101
0110
0110
0010
,  // measure 48
1000
0000
0010
0000
0100
0010
0100
0000
,  // measure 49
0000
1001
0110
1000
,  // measure 50
0100
1000
1010
1010
,  // measure 51
1010
0110
0110
0001
,  // measure 52
0100
0010
0011
0000
,  // measure 53
1100
1001
0010
0001
,  // measure 54
0100
0001
0101
0101
,  // measure 55
0101
0010
0100
1000
,  // measure 56
0100
0010
1001
0000
,  // measure 57
1001
0110
1000
0100
,  // measure 58
1000
0100
1000
0100
,  // measure 59
0010
0000
0001
1000
0001
1000
0001
1000
,  // measure 60
0001
0000
0100
0010
0100
0010
0100
0010
,  // measure 61
0100
0000
0000
0000
,  // measure 62
0000
0110
0001
0100
,  // measure 63
0001
0010
1000
0010
,  // measure 64
0001
0100
0010
1000
,  // measure 65
0010
1000
0010
0001
,  // measure 66
0010
1000
0010
0100
,  // measure 67
0001
0010
1000
0010
,  // measure 68
0001
1000
0001
1000
,  // measure 69
0001
0000
1100
0000
,  // measure 70
0011
1001
0100
1000
,  // measure 71
0010
0100
1010
1010
,  // measure 72
1010
0110
1001
0010
,  // measure 73
0001
0000
0100
0000
0010
0100
0010
0000
,  // measure 74
0110
1001
0100
0001
,  // measure 75
0100
0010
0101
0101
,  // measure 76
0101
0010
1000
0100
,  // measure 77
0010
0000
0001
0000
1001
0000
0000
0110
,  // measure 78
0000
1001
0100
1000
,  // measure 79
0010
1000
0110
0110
,  // measure 80
0110
0001
0100
0010
,  // measure 81
1000
0000
0100
0000
1000
0001
1000
0000
,  // measure 82
1001
0100
1100
0100
,  // measure 83
1100
0010
0011
0010
,  // measure 84
0011
0100
1000
0001
,  // measure 85
0100
0000
0010
0100
0010
0100
0010
0100
,  // measure 86
0010
2002
0000
0000
,  // measure 87
0000
3003
0000
0000
;
