#TITLE:Winning Eleven9 Theme;
#SUBTITLE:(IIDX EDITION);
#ARTIST:Sota Fujimori;
#TITLETRANSLIT:;
#SUBTITLETRANSLIT:;
#ARTISTTRANSLIT:;
#CREDIT:Kyon;
#BANNER:Winning Eleven9 Theme (IIDX EDITION).png;
#BACKGROUND:Winning Eleven9 Theme (IIDX EDITION)-bg.png;
#LYRICSPATH:;
#CDTITLE:Beatmania IIDX.png;
#MUSIC:Winning Eleven9 Theme (IIDX EDITION).mp3;
#OFFSET:0.040;
#SAMPLESTART:28.543;
#SAMPLELENGTH:12.000;
#SELECTABLE:YES;
#BPMS:0.000=139.980;
#STOPS:;
#BGCHANGES:;

//---------------dance-single - ----------------
#NOTES:
     dance-single:
     :
     Easy:
     2:
     0.147,0.307,0.048,0.097,0.000:
0000
0000
0000
0000
,
0000
0000
0000
0000
,
0000
0000
0000
0000
,
0000
0000
0000
0000
,
0000
0000
0000
0000
,
0000
0000
0000
0000
,
0000
0000
0000
0000
,
0000
0000
0000
0000
,
1001
0001
1000
0001
,
1000
0010
0100
0010
,
0100
0001
0010
0001
,
1000
0100
1000
1001
,
1001
0010
0100
0010
,
1000
0001
0100
0010
,
1000
0001
0010
0001
,
1000
0002
0000
0000
,
0000
2003
0000
0000
,
0000
3020
0000
0000
,
0000
0230
0000
0000
,
0000
0320
0000
0000
,
0000
2030
0000
0000
,
0000
3002
0000
0000
,
0000
0203
0000
0000
,
0000
0302
0000
0000
,
0000
1003
0000
0000
,
0000
0001
0000
0000
,
0000
1000
0000
0000
,
0000
0010
0000
0000
,
0000
0100
0000
0000
,
0000
0010
0000
0000
,
0000
0100
0000
0000
,
0000
1001
0000
0000
,
0000
1001
0000
0000
,
0000
0010
0100
0010
,
0010
1000
0001
1000
,
0000
0001
0000
1000
,
0000
0001
0100
0010
,
0000
1000
0000
0001
,
0000
0100
0010
1000
,
0000
0001
0000
1000
,
0000
0010
0100
0001
,
2000
3001
0000
0000
,
0000
0000
0000
0000
,
0000
1000
0000
0000
,
0000
0000
0000
0000
,
0000
0010
0000
0000
,
0000
0000
0000
0000
,
0000
0100
0000
0010
,
0000
1000
0001
1000
,
0002
0103
0000
0000
,
0000
0010
0000
0000
,
0000
0100
0000
0000
,
0000
0001
0000
0000
,
0000
1000
0000
0000
,
0000
0010
0000
0000
,
0000
0100
0000
0000
,
0000
0001
0000
0000
,
0000
0010
0000
0000
,
0000
0001
0000
0000
,
0000
1000
0000
0000
,
0000
0100
0000
0000
,
0000
1000
0000
0000
,
0000
0010
0000
0000
,
0000
0100
0000
0000
,
0000
0001
0000
0000
,
0000
1001
0010
0100
,
0001
1000
0010
0100
,
0010
1000
0100
1000
,
0001
0100
0000
0002
,
0000
1003
0000
0000
;

//---------------dance-single - ----------------
#NOTES:
     dance-single:
     :
     Hard:
     6:
     0.290,0.418,0.121,0.193,0.000:
0000
0000
0000
0000
,
0000
0000
0000
0000
,
0000
0000
0000
0000
,
0000
0000
0000
0000
,
0000
0010
0000
0000
,
0000
0100
0000
0010
,
0000
1000
0000
0000
,
0000
0001
0000
1000
,
0002
0000
1003
0000
0010
0000
0100
0001
,
0100
0000
0010
0000
1000
0000
0001
1000
,
0001
0000
0010
0000
0100
0000
0010
1000
,
0010
0100
0001
0011
,
1100
0000
0001
1000
0001
0000
0100
0000
,
0010
0000
1000
0010
1000
0000
0010
0000
,
0100
0000
0001
0100
0001
0000
0100
0000
,
0010
2000
0000
0000
,
0000
0000
3001
0000
0100
0010
1000
0000
,
0001
1010
0101
0010
,
1000
0000
0010
0000
0100
0001
1000
0000
,
0010
0000
0100
0000
0001
0100
0010
0000
,
1000
0000
0010
0000
0100
0001
1000
0000
,
0010
0000
0100
0000
0001
1000
0010
0000
,
0100
0000
0010
0000
1000
0010
0100
0010
,
0100
0000
0001
0100
0010
0100
0010
0000
,
2000
3001
0000
0000
,
0000
1000
0000
0000
,
0000
0010
0000
0000
,
0000
0100
0000
0000
,
0000
0000
0001
0000
0010
0000
0001
1000
,
0001
0000
1000
0000
0100
0000
1000
0100
,
1000
0000
0010
0000
0100
0000
0010
0100
,
0010
1001
0000
0000
,
0000
1001
0000
0000
,
0000
0000
0001
0010
0100
1000
0010
0100
,
0001
0000
1000
0100
0010
0001
0100
0010
,
1000
0001
1001
1000
,
1001
0000
1000
0010
0100
0001
1000
0010
,
1000
0001
0101
1000
,
1010
0000
1000
0100
0010
0001
0100
0010
,
1000
0001
0011
1000
,
1100
0000
1000
0010
0100
0001
2000
0000
,
0000
3001
0001
0001
,
0001
0100
0100
0100
,
0010
1001
1000
1000
,
1000
0010
0010
0010
,
0100
1001
0010
0010
,
0100
0100
0001
0001
,
1000
1001
0010
0100
,
0001
2000
0000
3002
,
0000
2003
0000
0000
,
0000
3020
0000
0000
,
0000
2030
0000
0000
,
0000
3002
0000
0000
,
0000
0203
0000
0000
,
0000
0302
0000
0000
,
0000
0023
0000
0000
,
0000
0032
0000
0000
,
0000
2003
0000
0000
,
0000
3200
0000
0000
,
0000
2300
0000
0000
,
0000
3020
0000
0000
,
0000
0230
0000
0000
,
0000
0320
0000
0000
,
0000
2030
0000
0000
,
0000
3002
0000
0000
,
0000
0000
1003
0000
0010
0000
1000
0001
,
1000
0000
0001
0000
0100
0000
0001
1000
,
0001
0000
0100
0000
0010
0000
1000
0001
,
1000
0002
0000
0203
,
0000
0310
0000
0000
;

//---------------dance-single - ----------------
#NOTES:
     dance-single:
     :
     Challenge:
     8:
     0.495,0.530,0.129,0.064,0.290: // measure 1
0000
0000
0000
0000
,  // measure 2
0000
0000
0000
0000
,  // measure 3
0000
0000
0000
0000
,  // measure 4
0000
0000
0000
0000
,  // measure 5
0000
0200
0000
0000
,  // measure 6
0000
0320
0000
2030
,  // measure 7
0000
3002
0000
0000
,  // measure 8
0000
2003
0000
3001
,  // measure 9
0100
0010
0100
0010
0100
0000
0001
0000
0010
0000
0100
0000
1000
0000
0010
0000
,  // measure 10
1000
0010
0100
0001
0010
0001
0010
0100
,  // measure 11
1000
0000
1000
0100
0010
0001
0100
0010
,  // measure 12
1000
0000
1000
0010
0100
0001
1010
0000
,  // measure 13
0101
0000
0001
0010
0100
1000
0010
0100
,  // measure 14
0001
0000
0001
0100
0010
1000
0010
0100
,  // measure 15
0001
0000
0001
0010
0100
1000
0100
0010
,  // measure 16
0001
0100
0020
0000
0000
0000
0230
0000
,  // measure 17
0000
0000
0301
0000
1000
0010
0100
0001
,  // measure 18
1000
0000
1001
0000
0001
0100
0010
1000
,  // measure 19
0001
0000
1001
0000
1000
0001
0100
0010
,  // measure 20
0100
0000
1001
0000
0001
1000
0010
0100
,  // measure 21
0010
0000
1001
0000
1000
0010
0001
0010
,  // measure 22
1000
0000
1001
0000
0001
0010
1000
0010
,  // measure 23
0001
0000
1001
0000
1000
0100
0001
0100
,  // measure 24
1000
0000
1001
0000
0001
0100
0010
1000
,  // measure 25
0001
1000
0001
1000
0001
0000
0100
0000
0010
0000
1000
0000
0001
0000
0001
0000
,  // measure 26
1000
0000
0001
0010
0100
1000
0010
0010
,  // measure 27
0100
0000
0001
0100
0010
1000
0001
0001
,  // measure 28
1000
0000
0001
0010
0100
1000
0010
0010
,  // measure 29
0100
0000
0001
0100
0010
0100
0001
0001
,  // measure 30
1000
0000
0010
0100
0001
1000
0010
0010
,  // measure 31
0100
0000
0001
0100
0010
1000
0001
0001
,  // measure 32
1000
0000
0010
0100
0010
1000
0001
0001
,  // measure 33
1000
0011
0000
1100
,  // measure 34
0000
0000
0001
0010
0100
1000
0010
0100
,  // measure 35
0001
0000
1000
0100
0010
0001
0100
0010
,  // measure 36
1000
0000
0001
0100
1000
0000
0100
0010
,  // measure 37
0001
0000
1000
0100
0010
0001
0100
0010
,  // measure 38
1000
0001
1000
0001
1000
0000
0100
0000
0001
0000
0000
0000
0100
0000
0010
0000
,  // measure 39
1000
0000
0001
0010
0100
1000
0010
0100
,  // measure 40
0001
0000
1000
0100
0001
0000
0100
0010
,  // measure 41
1000
0000
0001
0100
0010
1000
0001
0100
,  // measure 42
0010
0100
0010
0100
0010
1000
0000
0000
1000
0100
0000
0000
0100
0010
0000
0000
,  // measure 43
0010
0001
0000
0000
0001
0100
0000
0000
0100
0010
0000
0000
0010
1000
0000
0000
,  // measure 44
0001
0000
1000
0000
0001
0100
0000
0000
0100
0010
0000
0000
0010
1000
0000
0000
,  // measure 45
1000
0100
0000
0000
0100
0010
0000
0000
0010
0001
0000
0000
0001
1000
0000
0000
,  // measure 46
0010
0000
0100
0000
0001
0100
0000
0000
0100
0001
0000
0000
1000
0010
0000
0000
,  // measure 47
0010
1000
0000
0000
0001
0010
0000
0000
0010
0001
0000
0000
1000
0100
0000
0000
,  // measure 48
1000
0000
0001
0000
1000
0010
0000
0000
0010
1000
0000
0000
0001
0100
0000
0000
,  // measure 49
0100
0001
0000
0000
0101
0000
0000
0000
1010
0000
0000
0000
0001
1000
0001
1000
,  // measure 50
0010
0100
0010
0100
0010
0000
0000
0100
0000
0000
0001
0000
0000
1000
0000
0000
,  // measure 51
0001
0000
0000
0000
0100
0000
0000
0010
0000
0000
0100
0000
0000
0001
0000
0000
,  // measure 52
1000
0000
0000
0000
0010
0000
0000
0100
0000
0000
0010
0000
0000
1000
0000
0000
,  // measure 53
0001
0000
0000
0000
0100
0000
0000
0010
0000
0000
0100
0000
0000
0001
0000
0000
,  // measure 54
1000
0000
0000
0000
0010
0000
0000
1000
0000
0000
0001
0000
0000
0100
0000
0000
,  // measure 55
0010
0000
0000
0000
1000
0000
0000
0001
0000
0000
0100
0000
0000
0010
0000
0000
,  // measure 56
0100
0000
0000
0000
0001
0000
0000
1000
0000
0000
0010
0000
0000
0100
0000
0000
,  // measure 57
0010
0000
0000
0000
1000
0000
0000
0001
0000
0000
0100
0000
0000
0010
0000
0000
,  // measure 58
1000
0001
1000
0001
1000
0000
0000
0010
0000
0000
0100
0000
0000
0001
0000
0000
,  // measure 59
1000
0000
0000
0000
0010
0000
0000
1000
0000
0000
0100
0000
0000
1000
0000
0000
,  // measure 60
0001
0000
0000
0000
0100
0000
0000
0001
0000
0000
1000
0000
0000
0010
0000
0000
,  // measure 61
0100
0000
0000
0000
0001
0000
0000
0100
0000
0000
0010
0000
0000
1000
0000
0000
,  // measure 62
0001
0000
0000
0000
0100
0000
0000
0010
0000
0000
1000
0000
0000
0001
0000
0000
,  // measure 63
1000
0000
0000
0000
0001
0000
0000
0100
0000
0000
0001
0000
0000
0100
0000
0000
,  // measure 64
0010
0000
0000
0000
1000
0000
0000
0010
0000
0000
1000
0000
0000
0010
0000
0000
,  // measure 65
0100
0000
0000
0000
0001
0000
0000
1000
0000
0000
0001
0000
0000
1000
0000
0000
,  // measure 66
0010
0100
0010
0000
1000
0000
0100
0000
0010
0000
0001
0000
0100
0000
0010
0000
,  // measure 67
1000
0000
0001
0010
0100
1000
0010
0100
,  // measure 68
0001
0000
1000
0010
0100
0001
0010
0001
,  // measure 69
1000
0011
1100
2001
,  // measure 70
0000
3001
0000
0000
;

//---------------dance-single - ----------------
#NOTES:
     dance-single:
     :
     Medium:
     4:
     0.246,0.335,0.089,0.016,0.000:
0000
0000
0000
0000
,
0000
0000
0000
0000
,
0000
0000
0000
0000
,
0000
0000
0000
0000
,
0000
0000
0000
0000
,
0000
0000
0000
0000
,
0000
0000
0000
0000
,
0000
0000
0000
0000
,
1001
0010
0100
0001
,
0010
0001
1000
0100
,
1000
0010
0100
0010
,
1000
0001
1000
1001
,
1001
0010
0100
0001
,
0010
0001
1000
0100
,
1000
0010
0100
0010
,
1000
0001
1000
0001
,
0100
0000
0001
0000
0010
0001
0010
0000
,
0100
0000
1000
0000
0100
0000
1000
0010
,
0100
0000
0001
0000
1000
0001
1000
0000
,
0010
0000
0100
0000
0001
0100
0001
0000
,
1000
0000
0001
0000
0100
0010
1000
0000
,
0001
0000
0100
0000
0010
0100
0010
0000
,
1000
0000
0001
0000
0100
0010
1000
0000
,
0001
0000
0100
0000
0010
0100
0001
0000
,
1001
1001
0010
0001
,
1000
0100
1000
0010
,
0100
0010
1000
0100
,
1000
0001
0010
0001
,
0100
0010
1000
0010
,
1000
0001
0100
0001
,
1000
0001
1000
0010
,
0100
0001
0010
0001
,
1000
1001
0000
0000
,
0000
1001
0010
0100
,
0001
1000
0100
1000
,
0000
0001
0010
0001
,
0100
0010
1000
0001
,
0000
1000
0001
1000
,
0010
0100
0001
0010
,
0000
0001
0010
0001
,
1000
0100
1000
0001
,
0000
1001
0010
0100
,
0001
0010
0001
1000
,
0010
1001
0100
0010
,
1000
0100
1000
0001
,
1000
1001
0010
0100
,
0010
1000
0001
1000
,
0000
1001
0001
1000
,
0010
0100
0001
0010
,
0002
1003
0000
0000
,
0000
0010
0000
0000
,
0000
1000
0000
0000
,
0000
0001
0000
0000
,
0000
0100
0000
0000
,
0000
0001
0000
0000
,
0000
1000
0000
0000
,
0000
0100
0000
0000
,
0000
1000
0000
0000
,
0000
0001
0000
0000
,
0000
0010
0000
0000
,
0000
0001
0000
0000
,
0000
0010
0000
0000
,
0000
0001
0000
0000
,
0000
1000
0000
0000
,
0000
0010
0000
0000
,
0100
0000
0010
0000
1000
0000
0001
1000
,
0001
0000
1000
0000
0001
0000
1000
0001
,
1000
0000
0010
0000
0100
0000
0001
1000
,
0001
1000
0001
0200
,
0000
0310
0000
0000
;

//---------------dance-single - ----------------
#NOTES:
     dance-single:
     :
     Beginner:
     1:
     0.071,0.084,0.073,0.000,0.000:
0000
0000
0000
0000
,
0000
0000
0000
0000
,
0000
0000
0000
0000
,
0000
0000
0000
0000
,
0000
0000
0000
0000
,
0000
0000
0000
0000
,
0000
0000
0000
0000
,
0000
0000
0000
0000
,
0000
0010
0000
0000
,
0000
0000
0000
0000
,
0000
0100
0000
0000
,
0000
0000
0000
0010
,
0000
0100
0000
0000
,
0000
0000
0000
0000
,
0000
0001
0000
0000
,
0000
1000
0000
0000
,
0000
1100
0000
0000
,
0000
0000
0000
0000
,
0000
0011
0000
0000
,
0000
0000
0000
0000
,
0000
1001
0000
0000
,
0000
0000
0000
0000
,
0000
0100
0000
0000
,
0000
0010
0000
0000
,
1000
0000
0000
0000
,
0000
0000
0000
0000
,
0000
0001
0000
0000
,
0000
0000
0000
0000
,
0000
0100
0000
0000
,
0000
0010
0000
0000
,
0000
0100
0000
0000
,
0000
0010
0000
0000
,
0000
1001
0000
0000
,
0000
0100
0000
0000
,
0000
0000
0000
0000
,
0000
0010
0000
0100
,
0000
0010
0000
0000
,
0000
1000
0000
0000
,
0000
0000
0000
0000
,
0000
0001
0000
1000
,
0000
0001
0000
0000
,
0000
1100
0000
0000
,
0000
0000
0000
0000
,
0000
0011
0000
0000
,
0000
0000
0000
0000
,
0000
1000
0000
0000
,
0000
0000
0000
0000
,
0000
0001
0000
0100
,
0000
0010
0000
0000
,
0000
1001
0000
0000
,
0000
0100
0000
0000
,
0000
0001
0000
0000
,
0000
0010
0000
0000
,
0000
0001
0000
0000
,
0000
1000
0000
0000
,
0000
0100
0000
0000
,
0000
1000
0000
0000
,
0000
0010
0000
0000
,
0000
0100
0000
0000
,
0000
0001
0000
0000
,
0000
1000
0000
0000
,
0000
0010
0000
0000
,
0000
1000
0000
0000
,
0000
0001
0000
0000
,
0000
0100
0000
0000
,
0000
1001
0000
0000
,
0000
0010
0000
0000
,
0000
0100
0000
0000
,
0000
0010
0000
0000
,
0000
1001
0000
0000
;
