#TITLE:What's going on?;
#SUBTITLE:;
#ARTIST:Turtles;
#TITLETRANSLIT:;
#SUBTITLETRANSLIT:;
#ARTISTTRANSLIT:;
#CREDIT:DMAxel;
#BANNER:What's going on.png;
#BACKGROUND:What's going on-bg.png;
#LYRICSPATH:;
#CDTITLE:PUMP IT UP.png;
#MUSIC:What's going on.mp3;
#OFFSET:-0.222;
#SAMPLESTART:77.754;
#SAMPLELENGTH:12.000;
#SELECTABLE:YES;
#BPMS:0.000=130.000;
#STOPS:;
#BGCHANGES:4.200=What's going on.avi=1.000=1=0=1,
99999=-nosongbg-=1.000=0=0=0 // don't automatically add -songbackground-
;

//---------------dance-single - ----------------
#NOTES:
     dance-single:
     :
     Easy:
     2:
     0.180,0.227,0.089,0.010,0.000:
0000
0000
0000
0000
,
0001
0000
1000
0000
,
0001
0000
1000
0000
,
0010
0000
0100
0000
,
0010
0000
1000
0001
,
1001
0000
0000
0000
,
1000
0000
0100
0000
,
1000
0000
0001
0000
,
0010
0000
0001
0000
,
1000
0000
0010
0000
,
1000
0000
0001
0000
,
0100
0000
0001
0000
,
0100
0000
0010
0000
,
0100
0000
0010
0000
,
1000
0000
0100
0000
,
0010
0000
0001
0000
,
0010
0000
0100
0000
,
1001
0000
0110
0000
,
1000
0000
0010
0000
,
0100
0000
0001
0000
,
0100
0000
0010
0000
,
1001
0000
0110
0000
,
0001
0000
0001
0000
,
0010
0100
1000
0000
,
1000
0000
1000
0000
,
0100
0010
0001
0000
,
0001
0000
0001
0000
,
0100
0010
1000
0000
,
1000
0000
1000
0000
,
0010
0100
0001
0000
,
1001
0000
0010
0000
,
0001
0010
0100
0000
,
1001
0000
0100
0000
,
1000
0100
0010
0000
,
0001
0000
1000
0000
,
0010
0000
0100
0000
,
0010
0000
1000
0000
,
0001
0001
0001
0000
,
1000
0000
1000
1001
,
0001
0000
0001
1001
,
1000
0000
1000
0010
,
0100
0000
0100
0000
,
0010
0000
0010
0000
,
1000
0100
0010
0001
,
0100
0000
0100
0000
,
0001
0010
0100
1000
,
0010
0000
0010
0000
,
1000
0100
0010
0001
,
0100
0000
0100
0000
,
0001
0010
0100
1000
,
0020
0000
0000
0030
;

//---------------dance-single - ----------------
#NOTES:
     dance-single:
     :
     Hard:
     7:
     0.431,0.428,0.665,0.079,0.000:
0000
0000
0000
0000
,
0000
0010
0000
0010
,
0000
0010
0000
0010
,
1000
0100
0010
0001
,
0001
0100
0010
1000
,
1001
1001
1001
0000
,
1000
0000
0001
0010
0100
1000
0010
0000
,
0001
0000
0010
0000
1000
0000
0001
0010
,
0100
0000
1010
0000
0011
0000
1000
0100
,
0010
0001
0100
0000
0001
0000
0100
0000
,
1100
0000
0001
0010
0100
1000
0010
0000
,
0101
1100
0101
1100
,
0010
0000
0001
0010
0100
1000
0010
1000
,
0100
0001
0100
1000
,
0010
0010
1001
1001
,
0100
0100
1001
1001
,
0010
0000
0010
0000
0001
0010
0100
0000
,
1010
0011
1010
0011
,
0100
0100
1001
1001
,
0010
0010
1001
1001
,
0100
0000
0100
0000
1000
0100
0010
0000
,
0101
1100
0101
1100
,
1002
0000
0000
0010
0013
0000
0000
0001
,
0010
0100
1000
0100
0001
0100
1000
0000
,
0101
0000
0010
0100
1000
0000
0100
0010
,
0001
0110
1001
0000
,
2001
0000
0000
0100
3100
0000
0000
1000
,
0100
0010
0001
0010
1000
0010
0001
0000
,
1010
0000
0100
0010
0001
0000
0010
0100
,
1000
0110
1001
0000
,
1002
0000
0000
0100
0103
0001
0010
0000
,
0101
1100
0101
1100
,
2001
0000
0000
0010
3010
1000
0100
0000
,
1010
0011
1001
0000
,
1002
0000
0000
0010
0013
0000
0000
0001
,
0010
0100
1000
0010
0001
0010
1000
0000
,
1001
0000
0010
1000
1000
0100
0010
0000
,
0101
1100
1001
0000
,
0100
0100
1010
1001
,
0010
0010
0101
1001
,
0100
1000
0010
0000
0100
0001
0010
0100
,
1000
0011
1001
0000
,
0011
0000
0001
0010
1000
0100
0010
0000
,
0101
1100
1001
1100
,
0020
0000
0001
0000
0031
0010
0100
1000
,
0001
0100
1000
0100
,
1001
0000
0100
0010
0001
0010
1000
0000
,
0011
1010
0011
1010
,
1001
0000
0100
1000
0100
0001
0010
0100
,
1000
0010
0000
1100
0000
0101
0000
0200
,
2000
0000
0000
3300
;

//---------------dance-single - ----------------
#NOTES:
     dance-single:
     :
     Challenge:
     8:
     0.540,0.453,0.606,0.020,0.000:
0000
0000
0000
0000
,
0010
0100
0010
0000
0010
0100
0010
0000
,
1000
0001
1000
0000
1000
0001
1000
0000
,
0001
0100
0001
0000
1000
0100
1000
0000
,
0001
0010
0100
1000
0100
0001
0100
0000
,
1001
1001
1001
0110
,
1000
0010
1000
0010
0100
0010
0100
0010
,
1000
0010
0001
0010
1000
0010
0001
0100
,
0010
0100
0010
0100
0001
0100
1000
0100
,
0001
0010
1000
0010
0100
0010
0100
0000
,
0001
0100
0001
0100
0010
0100
0010
0100
,
0001
0100
1000
0100
0001
0100
1000
0010
,
1000
0010
1000
0010
0100
0010
0100
0010
,
1000
0010
0001
0010
1000
0010
0100
0000
,
0011
0000
0101
0000
0001
0010
1001
0000
,
1100
0000
1010
0000
1000
0100
1001
0000
,
0101
0011
0101
0011
,
1001
0011
1010
0011
,
1010
0000
1100
0000
1000
0010
1001
0000
,
0101
0000
0011
0000
0001
0100
1001
0000
,
1100
1010
1100
1001
,
0000
0101
0000
1100
0000
0001
1000
0000
,
0001
0100
0001
0100
0010
0100
0001
0100
,
1000
0100
0001
0100
1000
0010
1000
0010
,
0100
0010
1000
0010
0001
0010
1000
0010
,
0011
0110
1001
0110
,
1000
0010
1000
0010
0100
0010
0100
0010
,
1000
0010
0001
0010
1000
0010
0001
0100
,
0010
0100
0010
0100
0001
0100
1000
0100
,
0101
0110
1001
0110
,
0001
0100
0001
0100
0010
0100
0010
0100
,
0001
0100
1000
0100
0001
0100
1000
0010
,
0100
0010
0100
0010
1000
0010
0001
0010
,
1010
0110
1001
0110
,
1000
0010
1000
0010
0100
0010
0100
0010
,
1000
0010
0001
0010
1000
0010
0001
0100
,
0010
0100
0001
0100
1000
0100
0001
0100
,
1000
1010
0000
0110
0000
0001
0100
0000
,
1100
0000
1010
0000
1000
0100
1001
0000
,
0011
0000
0101
0000
0001
0010
1001
0000
,
0110
1010
0110
1010
,
1001
0110
1001
1001
,
0001
0100
0001
0100
0010
0100
0010
0100
,
0001
0100
1000
0100
0001
0100
1000
0010
,
0100
0010
0100
0010
1000
0010
0001
0010
,
1000
0100
1000
0010
1000
0000
0001
0010
,
0001
0010
0001
0010
1000
0010
0001
0100
,
0010
0100
0001
0100
1000
0100
0001
0000
,
0010
0100
1000
0100
1000
0100
0001
0010
,
1000
1100
0000
0101
0000
1100
0000
0200
,
0002
0000
0000
0303
;

//---------------dance-single - ----------------
#NOTES:
     dance-single:
     :
     Beginner:
     1:
     0.055,0.099,0.050,0.000,0.000:
0000
0000
0000
0000
,
0000
0000
0000
0000
,
0000
0000
0000
0000
,
0000
0000
0000
0000
,
0000
0000
0000
0000
,
1001
0000
0000
0000
,
1000
0000
0000
0000
,
0000
0000
0000
0000
,
0100
0000
0000
0000
,
0000
0000
0000
0000
,
1000
0000
0000
0000
,
0000
0000
0000
0000
,
0001
0000
0000
0000
,
0000
0000
0000
0000
,
1001
0000
0000
0000
,
1000
0000
0000
0000
,
0001
0000
0000
0000
,
1000
0000
0000
0000
,
0010
0000
0000
0000
,
0100
0000
0000
0000
,
0010
0000
0000
0000
,
1000
0000
0000
0000
,
1001
0000
0000
0000
,
0000
0000
0000
0000
,
0001
0000
0000
0000
,
0000
0000
0000
0000
,
1000
0000
0000
0000
,
0000
0000
0000
0000
,
0010
0000
0000
0000
,
0000
0000
0000
0000
,
0100
0000
0000
0000
,
0000
0000
0000
0000
,
0100
0000
0000
0000
,
0000
0000
0000
0000
,
0010
0000
0000
0000
,
0000
0000
0000
0000
,
0010
0000
0000
0000
,
0000
0000
0000
0000
,
1001
0000
0000
0000
,
1000
0000
0000
0000
,
0100
0000
0000
0000
,
0010
0000
0000
0000
,
1001
0000
0000
0000
,
0010
0000
0000
0000
,
0001
0000
0000
0000
,
1000
0000
0000
0000
,
0100
0000
0000
0000
,
1000
0000
0000
0000
,
0010
0000
0000
0000
,
0100
0000
0000
0000
,
0001
0000
0000
0000
;

//---------------dance-double - ----------------
#NOTES:
     dance-double:
     :
     Easy:
     3:
     0.213,0.252,0.139,0.020,0.000: // measure 1
00000000
00000000
00000000
00000000
,  // measure 2
00010000
00000000
00000000
00000000
,  // measure 3
00001000
00000000
00000000
00000000
,  // measure 4
00010000
00000000
00000000
00000000
,  // measure 5
00001000
00000000
00000000
00000000
,  // measure 6
10010000
00000000
00000000
00000000
,  // measure 7
10000000
00000000
01000000
00000000
,  // measure 8
10000000
01000000
00100000
00010000
,  // measure 9
00001000
00000000
00001000
00000000
,  // measure 10
00000001
00000010
00000100
00001000
,  // measure 11
00010000
00000000
00010000
00000000
,  // measure 12
10000000
01000000
00100000
00010000
,  // measure 13
01000000
00000000
00100000
00000000
,  // measure 14
00010000
00001000
00000100
00000010
,  // measure 15
00000001
00000000
00000010
00000000
,  // measure 16
00000100
00000000
00001000
00000000
,  // measure 17
00000100
00000000
00000010
00000000
,  // measure 18
00001001
00000000
00011000
00000000
,  // measure 19
10000000
00000000
00100000
00000000
,  // measure 20
01000000
00000000
00010000
00000000
,  // measure 21
01000000
00000000
00100000
00000000
,  // measure 22
10010000
00000000
00011000
00000000
,  // measure 23
00000001
00000000
00001000
00000000
,  // measure 24
00000100
00000010
00000001
00000000
,  // measure 25
00000001
00001000
00000001
00000000
,  // measure 26
00000010
00000100
00001000
00000000
,  // measure 27
00010000
00000000
00010000
00000000
,  // measure 28
01000000
00100000
10000000
00000000
,  // measure 29
10000000
00010000
10000000
00000000
,  // measure 30
00100000
01000000
00010000
00000000
,  // measure 31
00011000
00000000
00000100
00000000
,  // measure 32
00001000
00000100
00000010
00000000
,  // measure 33
00001001
00000000
00000010
00000000
,  // measure 34
00000001
00000010
00000100
00000000
,  // measure 35
00011000
00000000
10000000
00000000
,  // measure 36
00100000
00000000
01000000
00000000
,  // measure 37
00100000
10000000
00100000
01000000
,  // measure 38
00010000
00010000
00010000
00000000
,  // measure 39
00011000
00000000
00000001
00001001
,  // measure 40
00001000
00000000
00001000
00001001
,  // measure 41
00000001
00000000
00000001
00000100
,  // measure 42
00000001
00000010
00000100
00001000
,  // measure 43
00011000
00100000
01000000
10000000
,  // measure 44
10000000
01000000
00100000
00010000
,  // measure 45
01000000
00001000
01000000
00001000
,  // measure 46
00010000
00100000
01000000
10000000
,  // measure 47
00011000
00000010
00000100
00000001
,  // measure 48
00000001
00000010
00000100
00001000
,  // measure 49
00000010
00010000
00000010
00010000
,  // measure 50
00001000
00000100
00000010
00000001
,  // measure 51
00022000
00000000
00000000
00033000
;

//---------------dance-single - ----------------
#NOTES:
     dance-single:
     :
     Medium:
     5:
     0.294,0.328,0.208,0.040,0.000:
0000
0000
0000
0000
,
0100
0000
0100
0000
,
0100
0000
0100
0000
,
0100
0000
0010
0000
,
0010
0000
0010
0010
,
1001
0000
0000
0000
,
0001
0001
0010
0010
,
0001
0010
0100
1000
,
1000
0100
0100
1000
,
0100
0010
0001
0100
,
2001
0000
0001
0000
,
3001
0010
0100
1000
,
1002
0000
1000
0000
,
1003
0100
0010
0001
,
0010
0010
0010
0010
,
0100
0100
0100
0100
,
1000
1000
1000
1000
,
1001
0001
0110
1000
,
0100
0100
0100
0100
,
0010
0010
0010
0010
,
0001
0001
0001
0001
,
1001
1000
0110
0001
,
0010
0010
0010
0010
,
0001
0010
0100
1000
,
1000
1000
1000
0100
,
0010
0100
1001
0010
,
0010
0010
0100
0100
,
0100
0001
0100
0010
,
1000
1000
1000
0010
,
0100
0010
1000
0001
,
1001
0100
0010
0001
,
0010
0100
1000
0100
,
1001
0010
0100
1000
,
0100
0010
1001
0010
,
0100
1000
0001
1000
,
0100
0010
0001
1000
,
0001
0010
0100
1000
,
1001
1001
1001
0000
,
0001
0001
0001
1001
,
1000
1000
1000
1001
,
0010
0010
0010
0100
,
1010
0101
1010
1001
,
0100
1000
0100
0010
,
0001
0010
0100
1000
,
0010
0100
0010
0010
,
1000
0100
0010
0001
,
0100
0010
0100
0100
,
0001
0010
0100
1000
,
0010
0100
0010
0010
,
1000
0100
0010
0001
,
0220
0000
0000
0330
;

//---------------dance-double - ----------------
#NOTES:
     dance-double:
     :
     Medium:
     5:
     0.336,0.353,0.407,0.089,0.000: // measure 1
00000000
00000000
00000000
00000000
,  // measure 2
00010000
00000000
00001000
00000000
,  // measure 3
00010000
00000000
00001000
00000000
,  // measure 4
00010000
00000000
00001000
00000000
,  // measure 5
00010000
00000000
00100000
00100000
,  // measure 6
10010000
10010000
10010000
00000000
,  // measure 7
10010000
10000000
01000000
00100000
,  // measure 8
00010000
00001000
00010000
00001000
00010000
00000000
00001000
00000000
,  // measure 9
00001001
00000010
00000010
00000001
,  // measure 10
00000010
00000100
00001000
00000010
,  // measure 11
00021000
00000000
00001000
00030000
,  // measure 12
00001000
00010000
00001000
00010000
00001000
00000000
01000000
00000000
,  // measure 13
00012000
00000000
00010000
00003000
,  // measure 14
00010000
00001000
00010000
00001000
00010000
00000000
00000100
00000000
,  // measure 15
00000100
00000100
00000100
00001100
,  // measure 16
00000010
00000010
00000010
00000011
,  // measure 17
00001000
00001000
00001000
00001000
,  // measure 18
00011000
10010000
10010000
10000000
,  // measure 19
01000000
01000000
01000000
11000000
,  // measure 20
00100000
00100000
00100000
00110000
,  // measure 21
00010000
00010000
00010000
00010000
,  // measure 22
00011000
00001001
00001001
00000001
,  // measure 23
00000200
00000000
00000302
00000000
,  // measure 24
00000103
00000100
00000010
00000000
,  // measure 25
00002000
00000000
00003020
00000000
,  // measure 26
00000130
00011000
10010000
10010000
,  // measure 27
00100000
00100000
01000000
01000000
,  // measure 28
10000000
01000000
00100000
00010000
,  // measure 29
00001001
00000001
00000001
00000100
,  // measure 30
00000010
00000100
00000001
00001000
,  // measure 31
00001001
00000010
00000100
00001000
,  // measure 32
00010000
00100000
01000000
10000000
,  // measure 33
10010000
00100000
01000000
10000000
,  // measure 34
01000000
00100000
00011000
00000100
,  // measure 35
00000010
00000001
00001000
00000001
,  // measure 36
00000010
00000100
00001000
00000001
,  // measure 37
00011000
00100000
01000000
10000000
,  // measure 38
10010000
10010000
10010000
01100000
,  // measure 39
00010000
00010000
00010000
10010000
,  // measure 40
00001000
00001000
00001000
00001001
,  // measure 41
00000100
00000100
00000100
00000010
,  // measure 42
00000101
00001100
00011000
10010000
,  // measure 43
01000000
10000000
01000000
00100000
,  // measure 44
00010000
00001000
00010000
00001000
00010000
00000000
00000100
00000000
,  // measure 45
00001000
00000010
00000100
00000100
,  // measure 46
00000001
00000010
00000100
00001000
,  // measure 47
00021000
00000000
00001000
00031000
,  // measure 48
00010000
00100000
01000000
10000000
,  // measure 49
00010000
00010000
00001000
00001000
,  // measure 50
00000101
00011000
00011000
10100000
,  // measure 51
00022000
00000000
00000000
00033000
;
