#TITLE:WaterMelonWoman;
#SUBTITLE:;
#ARTIST:NAKATEK;
#TITLETRANSLIT:;
#SUBTITLETRANSLIT:;
#ARTISTTRANSLIT:;
#CREDIT:DMAxel;
#BANNER:WaterMelonWoman.png;
#BACKGROUND:WaterMelonWoman-bg.png;
#LYRICSPATH:;
#CDTITLE:pop'n music.png;
#MUSIC:WaterMelonWoman.mp3;
#OFFSET:-0.960;
#SAMPLESTART:50.154;
#SAMPLELENGTH:12.000;
#SELECTABLE:YES;
#BPMS:0.000=115.600;
#STOPS:;
#BGCHANGES:;

//---------------dance-single - ----------------
#NOTES:
     dance-single:
     :
     Easy:
     1:
     0.092,0.115,0.090,0.072,0.000:
0000
0000
0000
0000
,
0000
0000
0000
0000
,
0000
0000
0000
0000
,
0000
0000
0000
1000
,
0000
0000
0000
0000
,
0000
0000
0000
0001
,
0000
0000
0000
0000
,
0000
0000
0000
1000
,
0000
0000
0000
0000
,
0000
0000
0000
0001
,
0000
0000
0000
0000
,
0000
0000
0000
0100
,
0000
0100
0000
0010
,
0000
0010
0000
0100
,
0000
0100
0000
0010
,
0000
0010
0000
1001
,
0000
0100
0000
0000
,
0000
0000
0000
1001
,
0000
0010
0000
0000
,
0000
0000
0000
1001
,
0000
0100
0000
0000
,
0000
0000
0000
1001
,
0000
0000
0000
0010
,
0000
0001
0001
1001
,
0000
0000
0000
0100
,
0000
0000
0000
1000
,
0000
0000
0000
0001
,
0000
0000
0000
0010
,
0000
0000
0000
0001
,
0000
0000
0000
1000
,
0000
0000
0000
0100
,
0000
1000
1000
1001
,
0000
0000
0000
0100
,
0000
0000
0000
0010
,
0000
0000
0000
0001
,
0000
0000
0000
1001
,
0000
0100
0000
0000
,
0000
0000
0000
1001
,
0000
0010
0000
0000
,
0000
0000
0000
1001
,
0000
0100
0000
0000
,
0000
0000
0000
1001
,
0000
0000
0000
0010
,
0000
0000
0000
0002
,
0000
0000
0000
2003
,
0000
0000
0000
3002
,
0000
0000
0003
0200
,
0000
0000
0310
0020
,
0000
0000
0030
2000
,
0000
0000
3000
0002
,
0000
0000
0003
0200
,
0000
0000
0310
0000
;

//---------------dance-single - ----------------
#NOTES:
     dance-single:
     :
     Hard:
     5:
     0.281,0.254,0.188,0.161,0.000: // measure 1
0000
0000
0000
0000
,  // measure 2
0000
0000
0000
0000
,  // measure 3
0000
0000
0000
0000
,  // measure 4
0000
0000
1001
0001
,  // measure 5
0000
1000
0100
0010
0001
0000
0010
0000
,  // measure 6
0001
1000
0001
0000
0000
0000
1000
0100
,  // measure 7
0010
0000
0000
0000
0000
0001
0010
0100
,  // measure 8
0000
1001
0110
1001
,  // measure 9
0000
0001
0010
0100
1000
0000
0010
0000
,  // measure 10
1000
0001
1000
0000
0000
0000
0001
0010
,  // measure 11
0100
0000
0000
0000
0000
1000
0100
0010
,  // measure 12
0000
1001
0110
1001
,  // measure 13
0001
0001
0001
1000
,  // measure 14
1000
1000
1000
0010
,  // measure 15
0010
0010
0010
0100
,  // measure 16
0100
0000
0100
0010
0100
0010
2000
0000
,  // measure 17
0000
0100
3100
0000
0000
0000
1000
0100
,  // measure 18
0010
0001
0100
0000
0010
0000
1002
0000
,  // measure 19
0000
0010
0013
0000
0000
0000
0001
0010
,  // measure 20
0100
1000
0010
0000
0100
0000
2001
0000
,  // measure 21
0000
0010
3010
0000
0000
0000
1000
0100
,  // measure 22
0010
0001
0100
0000
0010
0000
2000
0000
,  // measure 23
0000
0000
0000
3002
,  // measure 24
0000
1000
1003
1001
,  // measure 25
0000
0001
0010
0100
1000
0000
0010
0000
,  // measure 26
1000
0001
1000
0000
0000
0000
0001
0010
,  // measure 27
0100
0000
0000
0000
0000
1000
0100
0010
,  // measure 28
0000
1001
0110
1001
,  // measure 29
0000
1000
0100
0010
0001
0000
0100
0000
,  // measure 30
0001
1000
0001
0000
0000
0000
1000
0100
,  // measure 31
0010
0000
0000
0000
0000
0001
0010
0100
,  // measure 32
0000
1001
0110
1001
,  // measure 33
1000
1000
1000
0001
,  // measure 34
0001
0001
0001
0100
,  // measure 35
0100
0100
0100
0010
,  // measure 36
0010
0000
0010
0100
0010
0100
0002
0000
,  // measure 37
0000
0010
0013
0000
0000
0000
0001
0010
,  // measure 38
0100
1000
0010
0000
0100
0000
2001
0000
,  // measure 39
0000
0100
3100
0000
0000
0000
1000
0100
,  // measure 40
0010
0001
0100
0000
0010
0000
1002
0000
,  // measure 41
0000
0010
0013
0000
0000
0000
0001
0010
,  // measure 42
0100
1000
0010
0000
0100
0000
2001
0000
,  // measure 43
0000
0000
0000
3002
,  // measure 44
0000
1000
1003
0020
,  // measure 45
0000
0000
0000
0230
,  // measure 46
0000
0000
0000
0302
,  // measure 47
0000
0000
0000
0203
,  // measure 48
0000
0000
0310
2001
,  // measure 49
0001
0000
3000
0002
,  // measure 50
0100
0000
0003
2000
,  // measure 51
0010
0000
3000
0020
,  // measure 52
0100
0030
1001
0000
;

//---------------dance-single - ----------------
#NOTES:
     dance-single:
     :
     Challenge:
     7:
     0.438,0.415,0.510,0.072,0.009: // measure 1
0000
0000
0000
0000
,  // measure 2
0000
0000
0000
0000
,  // measure 3
0000
0000
0000
0000
,  // measure 4
0000
0000
1001
0210
,  // measure 5
0000
0301
0010
0100
1000
0000
0010
0000
,  // measure 6
1000
0001
1000
0010
0110
0000
0001
0010
,  // measure 7
1000
0010
0100
1001
0000
1000
0100
0001
,  // measure 8
0000
0100
1001
0000
0110
0000
1002
0000
,  // measure 9
0000
1003
0100
0010
0001
0000
0100
0000
,  // measure 10
0001
1000
0001
0100
0110
0000
1000
0100
,  // measure 11
0001
0100
0010
1001
0000
0001
0010
1000
,  // measure 12
0000
0010
1001
0000
0110
0000
1001
0000
,  // measure 13
0100
0000
1000
0100
0001
0000
1001
0000
,  // measure 14
0010
0000
0001
0010
1000
0000
1001
0000
,  // measure 15
0100
0000
1000
0100
0001
0000
1001
0000
,  // measure 16
0010
0000
0001
1000
0100
0010
0001
0010
,  // measure 17
0010
0001
1001
0000
0110
0000
0001
0010
,  // measure 18
0100
1000
0010
0100
0110
1000
0001
0100
,  // measure 19
0100
0001
1001
0000
0110
0000
1000
0100
,  // measure 20
0010
0000
0001
0000
0100
0000
0010
0100
0010
0000
1000
0000
0100
0000
0010
0000
,  // measure 21
0010
0100
1001
0000
0110
0000
0001
0010
,  // measure 22
0100
1000
0010
0100
0110
0000
0001
0000
,  // measure 23
0100
0010
0000
0010
1000
0000
0010
0000
,  // measure 24
0100
0000
0001
0001
1001
0000
0120
0000
,  // measure 25
0000
1030
0100
0010
0001
0000
0100
0000
,  // measure 26
0001
1000
0001
0100
0110
0000
1000
0100
,  // measure 27
0001
0100
0010
1001
0000
0001
0010
1000
,  // measure 28
0000
0010
1001
0000
0110
0000
2001
0000
,  // measure 29
0000
3001
0010
0100
1000
0000
0010
0000
,  // measure 30
1000
0001
1000
0010
0110
0000
0001
0010
,  // measure 31
1000
0010
0100
1001
0000
1000
0100
0001
,  // measure 32
0000
0100
1001
0000
0110
0000
1001
0000
,  // measure 33
0010
0000
0001
0010
1000
0000
1001
0000
,  // measure 34
0100
0000
1000
0100
0001
0000
1001
0000
,  // measure 35
0100
0000
0001
0100
1000
0000
1001
0000
,  // measure 36
0010
0000
0100
0010
0100
0010
1000
0010
,  // measure 37
0010
1000
1001
0000
0110
0000
1000
0100
,  // measure 38
0010
0001
0100
0010
0110
1000
0001
0010
,  // measure 39
0010
0001
1001
0000
0110
0000
0001
0010
,  // measure 40
0100
0000
1000
0000
0010
0000
0100
0010
0100
0000
0001
0000
1000
0000
0010
0000
,  // measure 41
0010
1000
1001
0000
0110
0000
1000
0100
,  // measure 42
0010
0001
0100
0010
0110
0000
1000
0000
,  // measure 43
0010
1000
0000
1000
0100
0000
1000
0000
,  // measure 44
0010
0000
1000
1000
1001
0000
0200
0000
,  // measure 45
0001
0000
0301
0010
0000
0000
0200
0000
,  // measure 46
1000
0000
1300
0010
0000
0000
0200
0000
,  // measure 47
0001
0000
0301
0010
0000
0000
0200
0000
,  // measure 48
1000
0000
1300
0010
0110
0000
1001
0010
,  // measure 49
0001
0000
0001
0110
0000
0000
1001
0100
,  // measure 50
1000
0000
1000
0110
0000
0000
1001
0100
,  // measure 51
0001
0000
0001
0110
0000
0000
1001
0010
,  // measure 52
1000
0000
1000
0110
1001
0000
0000
0000
;

//---------------dance-single - ----------------
#NOTES:
     dance-single:
     :
     Beginner:
     1:
     0.052,0.069,0.072,0.000,0.000:
0000
0000
0000
0000
,
0000
0000
0000
0000
,
0000
0000
0000
0000
,
0000
0000
0000
1000
,
0000
0000
0000
0000
,
0000
0000
0000
1000
,
0000
0000
0000
0000
,
0000
0000
0000
0001
,
0000
0000
0000
0000
,
0000
0000
0000
0001
,
0000
0000
0000
0000
,
0000
0000
0000
1001
,
0000
0000
0000
0100
,
0000
0000
0000
0010
,
0000
0000
0000
0100
,
0000
0000
0000
1001
,
0000
0000
0000
0010
,
0000
0000
0000
0010
,
0000
0000
0000
0100
,
0000
0000
0000
0100
,
0000
0000
0000
0001
,
0000
0000
0000
0000
,
0000
0000
0000
0000
,
0000
0000
0000
1001
,
0000
0000
0000
0000
,
0000
0000
0000
1000
,
0000
0000
0000
0001
,
0000
0000
0000
1001
,
0000
0000
0000
0000
,
0000
0000
0000
0001
,
0000
0000
0000
1000
,
0000
0000
0000
1001
,
0000
0000
0000
0010
,
0000
0000
0000
0100
,
0000
0000
0000
0010
,
0000
0000
0000
1000
,
0000
0000
0000
0000
,
0000
0000
0000
0001
,
0000
0000
0000
0000
,
0000
0000
0000
1000
,
0000
0000
0000
0000
,
0000
0000
0000
0010
,
0000
0000
0000
0000
,
0000
0000
0000
1001
,
0000
0000
0000
0000
,
0000
0000
0000
0100
,
0000
0000
0000
0000
,
0000
0000
0000
1001
,
0000
0000
0000
0000
,
0000
0000
0000
0010
,
0000
0000
0000
0000
,
0000
0000
1001
0000
;

//---------------dance-single - ----------------
#NOTES:
     dance-single:
     :
     Medium:
     3:
     0.202,0.184,0.125,0.251,0.000:
0000
0000
0000
0000
,
0000
0000
0000
0000
,
0000
0000
0000
0000
,
0000
0000
1001
1000
,
0001
0010
0100
1000
,
0001
1000
0000
0002
,
0000
0000
0000
1003
0000
2000
0000
0000
,
0000
3001
0001
1001
,
1000
0100
0010
0001
,
1000
0001
0000
2000
,
0000
0000
0000
3001
0000
0002
0000
0000
,
0000
1003
1000
1002
,
0000
0000
0000
2003
,
0000
0000
0000
3020
,
0000
0000
0000
0230
,
0000
0000
0300
1001
,
0000
0100
0100
0000
0000
0000
0001
0000
,
0010
0100
1000
1001
,
0000
0010
0010
0000
0000
0000
1000
0000
,
0100
0010
0001
1001
,
0000
0100
0100
0000
0000
0000
0001
0000
,
0010
0100
1000
0020
,
0000
0000
0000
0230
,
0000
0301
0001
1001
,
1000
0100
0010
0001
,
1000
0001
0000
2000
,
0000
0000
0000
3001
0000
0002
0000
0000
,
0000
1003
1000
1001
,
0001
0010
0100
1000
,
0001
1000
0000
0002
,
0000
0000
0000
1003
0000
2000
0000
0000
,
0000
3001
0001
2001
,
0000
0000
0000
3002
,
0000
0000
0000
0203
,
0000
0000
0000
0320
,
0000
0000
0030
1001
,
0000
0100
0100
0000
0000
0000
1000
0000
,
0100
0010
0001
1001
,
0000
0010
0010
0000
0000
0000
0001
0000
,
0010
0100
1000
1001
,
0000
0100
0100
0000
0000
0000
1000
0000
,
0100
0010
0001
0200
,
0000
0000
0000
0320
,
0000
1030
1000
1002
,
0000
0000
0000
0023
,
0000
0000
0000
0230
,
0000
0000
0000
2300
,
0000
0000
0000
3020
,
0000
0000
0000
0230
,
0000
0000
0000
0302
,
0000
0000
0000
2003
,
0000
3000
1001
0000
;
