#TITLE:Wanna Party?;
#SUBTITLE:;
#ARTIST:RAM;
#TITLETRANSLIT:;
#SUBTITLETRANSLIT:;
#ARTISTTRANSLIT:;
#CREDIT:DMAxel;
#BANNER:Wanna Party.png;
#BACKGROUND:Wanna Party-bg.png;
#LYRICSPATH:;
#CDTITLE:beatmaniaIIDX.png;
#MUSIC:Wanna Party.mp3;
#OFFSET:-7.860;
#SAMPLESTART:30.335;
#SAMPLELENGTH:12.000;
#SELECTABLE:YES;
#BPMS:0.000=128.000;
#STOPS:;
#BGCHANGES:-20.000=Wanna Party.avi=1.000=1=1=0,
99999=-nosongbg-=1.000=0=0=0 // don't automatically add -songbackground-
;

//---------------dance-single - ----------------
#NOTES:
     dance-single:
     :
     Easy:
     3:
     0.211,0.287,0.150,0.060,0.000: // measure 1
0001
0001
0001
0001
,  // measure 2
1000
1000
1000
1000
,  // measure 3
0010
0010
0010
0010
,  // measure 4
0110
0000
0000
0000
,  // measure 5
1001
0000
0000
0000
,  // measure 6
0010
0000
0000
0000
,  // measure 7
0100
0000
0000
0000
,  // measure 8
0001
0000
0000
0000
,  // measure 9
0200
0000
0000
0000
,  // measure 10
0320
0000
0000
0000
,  // measure 11
0130
0000
0000
0000
,  // measure 12
1001
0100
0010
0100
,  // measure 13
1001
0010
0001
0010
,  // measure 14
0100
1000
0010
1000
,  // measure 15
0100
0010
0001
0100
,  // measure 16
0010
0100
0001
0100
,  // measure 17
0001
0010
0100
1000
,  // measure 18
0010
1000
0100
1000
,  // measure 19
0100
0010
0001
0100
,  // measure 20
0010
1000
1001
0000
,  // measure 21
1001
0010
0000
0100
,  // measure 22
0100
0001
0000
0010
,  // measure 23
0010
0001
0000
0100
,  // measure 24
0100
0010
0000
1000
,  // measure 25
1000
0100
0000
1000
,  // measure 26
1000
0010
0000
0100
,  // measure 27
0100
0000
0010
0000
0000
0000
0000
1001
,  // measure 28
0000
0010
0001
0010
,  // measure 29
1100
0000
0001
0100
,  // measure 30
0000
0000
0010
1000
,  // measure 31
0001
0000
1000
0010
,  // measure 32
0000
0000
0100
0001
,  // measure 33
1001
0000
0100
0000
,  // measure 34
0010
0000
0100
0000
,  // measure 35
1001
0000
1001
0001
,  // measure 36
0010
0100
1000
1001
,  // measure 37
1001
0000
0010
0100
,  // measure 38
0000
0000
0001
0010
,  // measure 39
1100
0000
1000
0010
,  // measure 40
0101
0000
0000
1000
,  // measure 41
0001
0000
0100
0010
,  // measure 42
0100
0000
0001
1000
,  // measure 43
0001
0000
1000
0100
,  // measure 44
1000
0100
0010
0001
,  // measure 45
0000
0200
0000
0000
0000
0000
0000
0000
,  // measure 46
0000
0320
0000
0000
0000
0000
0000
0000
,  // measure 47
0000
0230
0000
0000
0000
0000
0000
0000
,  // measure 48
0000
0320
0000
0000
0000
0000
0000
0030
;

//---------------dance-single - ----------------
#NOTES:
     dance-single:
     :
     Hard:
     7:
     0.458,0.454,0.100,0.090,0.285: // measure 1
1000
0100
0010
0100
,  // measure 2
1000
0001
0100
1000
,  // measure 3
0100
0001
0010
0100
,  // measure 4
0022
0000
0000
0033
,  // measure 5
1000
0000
0010
0000
0000
0010
0000
0000
0010
0000
0000
0010
0000
0000
0010
0000
,  // measure 6
1000
0000
0001
0000
0000
0001
0000
0000
0001
0000
0000
0001
0000
0000
0001
0000
,  // measure 7
0010
0000
0100
0000
0000
0100
0000
0000
0100
0000
0000
0100
0000
0000
0100
0000
,  // measure 8
1000
0000
0001
0000
0000
0001
0000
0000
0001
0000
0000
0001
0000
0000
0001
0000
,  // measure 9
1000
0000
0010
0000
0000
1000
0000
0000
0010
0000
0000
1000
0000
0000
0010
0000
,  // measure 10
1000
0000
0001
0000
0000
0010
0000
0000
0001
0000
0000
0010
0000
0000
0001
0000
,  // measure 11
1000
0000
0100
0000
0000
1000
0000
0000
0100
0000
0000
1000
0000
0000
0100
0000
,  // measure 12
0010
0001
0100
1000
0100
0100
0010
0010
,  // measure 13
0001
0000
1000
0000
0000
0010
0000
0000
1000
0000
0000
0010
1000
0000
1000
0000
,  // measure 14
0001
0000
0100
0000
0000
0010
0000
0000
1000
0000
0000
0010
0000
0000
1000
0000
,  // measure 15
0010
0000
0100
0000
0000
0001
0000
0000
0010
0000
0000
0001
0010
0000
0010
0000
,  // measure 16
0001
0000
0100
0000
0000
0010
0000
0000
0100
0000
0000
0010
0000
0000
0100
0000
,  // measure 17
0010
0000
1000
0000
0000
0100
0000
0000
1000
0000
0000
0010
0100
0000
0100
0000
,  // measure 18
0001
0000
1000
0000
0000
0010
0000
0000
1000
0000
0000
0010
0000
0000
1000
0000
,  // measure 19
0010
0000
0100
0000
0000
0010
0000
0000
1000
0000
0000
0001
1000
0000
1000
0000
,  // measure 20
0010
0000
0100
0000
0000
0010
0000
0000
1001
0000
0000
1001
0000
0000
1001
0000
,  // measure 21
1000
0100
0001
0000
0100
0001
1000
0000
,  // measure 22
0001
0100
1000
0000
0100
1000
0001
0000
,  // measure 23
1000
0100
0001
0000
0100
0001
1000
0000
,  // measure 24
0001
0100
1000
0000
0100
1000
0001
0000
,  // measure 25
0100
0001
1000
0000
0100
1000
0010
0000
,  // measure 26
0001
0010
1000
0000
0010
0100
0001
0000
,  // measure 27
0100
0001
0010
0000
1000
0010
0001
1001
,  // measure 28
0000
0000
0000
0000
1001
0000
0000
0000
1000
0000
0001
0000
1000
0100
1000
0100
,  // measure 29
1000
0000
0010
0000
0000
0100
0000
0000
0002
0000
0000
0000
1000
0000
1003
0000
,  // measure 30
0001
0000
0100
0000
0000
0001
0000
0000
1000
0000
0100
0000
1000
0000
0001
0000
,  // measure 31
0100
0000
0001
0000
0000
1000
0000
0000
0002
0000
0000
0000
1000
0000
1003
0000
,  // measure 32
0010
0000
0100
0000
0000
0001
0000
0000
0100
0000
0001
0000
1000
0000
0100
0000
,  // measure 33
1000
0000
0100
1000
0001
0010
0100
0010
,  // measure 34
0001
0000
0100
0000
0000
0010
0000
0000
1000
0000
0100
0000
0010
0000
0001
0000
,  // measure 35
0101
0000
1000
0100
1100
0000
0001
0100
,  // measure 36
0001
0000
0001
0000
1000
0000
1000
0000
0001
0000
0100
0000
0001
1000
0001
1000
,  // measure 37
0001
0000
0010
0000
0000
0100
0000
0000
1000
0000
0010
0000
1000
0000
0001
0000
,  // measure 38
0010
0000
0001
0000
0000
1000
0000
0000
0001
0000
0010
0000
0100
0000
1000
0000
,  // measure 39
0010
0000
0100
0000
0000
0010
0000
0000
1000
0000
0100
0000
0010
0000
0002
0000
,  // measure 40
0000
1000
1003
0000
1000
0100
0001
0100
,  // measure 41
1000
0000
0010
0100
0001
0010
0100
0010
,  // measure 42
0001
0000
1000
0000
0000
0000
0001
0100
0001
0000
1000
0100
1000
0000
0001
1000
,  // measure 43
0001
0000
0100
0010
0000
0000
1000
0000
0100
0000
0001
0000
0100
0000
0010
0000
,  // measure 44
1000
0000
1000
0000
0001
0010
0100
1000
0001
0000
0000
0101
0000
0000
1001
0000
,  // measure 45
0000
0000
0200
0000
0000
0010
0000
0000
0010
0000
0000
0010
0000
0000
0310
0000
,  // measure 46
0000
0000
0002
0000
0000
1000
0000
0000
1000
0000
0000
1000
0000
0000
1003
0000
,  // measure 47
0000
0000
2000
0000
0000
0001
0000
0000
0001
0000
0000
0001
0000
0000
3001
0000
,  // measure 48
0000
0000
0020
0000
0000
0100
0000
0000
0100
0000
0000
0100
0000
0000
0130
0000
;

//---------------dance-single - ----------------
#NOTES:
     dance-single:
     :
     Medium:
     5:
     0.337,0.383,0.200,0.190,0.010: // measure 1
0001
1000
0001
1000
,  // measure 2
0100
0010
0100
0010
,  // measure 3
0001
0100
0010
1000
,  // measure 4
2002
0000
0000
3003
,  // measure 5
2020
0000
0000
3000
,  // measure 6
0200
0000
0000
0330
,  // measure 7
0202
0000
0000
0003
,  // measure 8
0020
0000
0000
0330
,  // measure 9
0022
0000
0000
0030
,  // measure 10
2000
0000
0000
3003
,  // measure 11
2200
0000
0000
0300
,  // measure 12
3001
0000
1000
0000
0001
1000
0001
1000
,  // measure 13
0001
0100
1000
0100
,  // measure 14
0010
0000
1000
0000
0001
1000
0001
1000
,  // measure 15
0001
0100
1000
0100
,  // measure 16
0010
0000
1000
0000
0001
1000
0001
1000
,  // measure 17
0001
0010
1000
0010
,  // measure 18
0100
0000
1000
0000
0001
1000
0001
1000
,  // measure 19
0001
0010
1000
0010
,  // measure 20
0100
0000
0000
0000
1000
0000
0000
0000
0001
0000
0000
0001
0000
0000
0001
0000
,  // measure 21
1000
0100
1000
0000
0001
0000
1001
0000
,  // measure 22
0001
0010
0001
0000
1000
0000
1001
0000
,  // measure 23
1000
0010
1000
0000
0001
0000
1001
0000
,  // measure 24
0001
0100
0001
0000
1000
0000
1001
0000
,  // measure 25
0100
0010
0100
0000
1000
0000
1001
0000
,  // measure 26
0010
0100
0010
0000
0001
0000
1001
0000
,  // measure 27
0100
0010
0100
0000
1000
0000
0001
1000
,  // measure 28
0000
0000
0001
0000
0001
1000
0001
1000
,  // measure 29
0001
0000
1000
0000
0010
0000
1000
0001
,  // measure 30
0000
0100
0000
0000
0001
1000
0001
1000
,  // measure 31
0001
0000
1000
0000
0010
0000
1000
0001
,  // measure 32
0000
0100
0000
0000
0001
1000
0001
1000
,  // measure 33
0001
0000
0000
1000
0010
1000
0001
0010
,  // measure 34
0001
0000
1000
0001
1000
0001
0010
0100
,  // measure 35
1001
0100
1001
0100
,  // measure 36
1001
0110
1001
0110
,  // measure 37
1001
0000
0000
0000
0001
0010
0100
1000
,  // measure 38
0002
0000
0100
0000
0103
0001
1000
0100
,  // measure 39
1000
0000
0000
0000
1000
0100
0010
0002
,  // measure 40
0000
1000
1003
0000
1000
0010
0100
0010
,  // measure 41
1000
0000
0000
0001
0010
0100
1000
0001
,  // measure 42
0000
0100
0000
0001
0100
0001
1000
0100
,  // measure 43
1000
0001
0000
0100
0001
0010
0100
1000
,  // measure 44
1001
0000
0000
0000
0110
0000
0000
0000
0001
0000
0000
1000
0000
0000
0001
0000
,  // measure 45
0000
0200
0000
0000
0000
0000
0000
0000
,  // measure 46
0000
0320
0000
0000
0000
0000
0000
0000
,  // measure 47
0000
2030
0000
0000
0000
0000
0000
0000
,  // measure 48
0000
3002
0000
0000
0000
0000
0000
0003
;

//---------------dance-single - ----------------
#NOTES:
     dance-single:
     :
     Beginner:
     1:
     0.074,0.118,0.080,0.000,0.000: // measure 1
0000
0000
0000
0000
,  // measure 2
0001
0000
0000
0000
,  // measure 3
1000
0000
0000
0000
,  // measure 4
0001
0000
0000
0000
,  // measure 5
1001
0000
0000
0000
,  // measure 6
0000
0000
0000
0000
,  // measure 7
0110
0000
0000
0000
,  // measure 8
0000
0000
0000
0000
,  // measure 9
1001
0000
0000
0000
,  // measure 10
0000
0000
0000
0000
,  // measure 11
0110
0000
0000
0000
,  // measure 12
0001
0000
0000
0000
,  // measure 13
1001
0000
0000
0000
,  // measure 14
0001
0000
0000
0000
,  // measure 15
1000
0000
0000
0000
,  // measure 16
0001
0000
0000
0000
,  // measure 17
0100
0000
0000
0000
,  // measure 18
0010
0000
0000
0000
,  // measure 19
0100
0000
0000
0000
,  // measure 20
0100
0000
0000
0000
,  // measure 21
1001
0000
0000
0000
,  // measure 22
1000
0000
0000
0000
,  // measure 23
0001
0000
0000
0000
,  // measure 24
0001
0000
0000
0000
,  // measure 25
1000
0000
0000
0000
,  // measure 26
0001
0000
0000
0000
,  // measure 27
1000
0000
0000
0000
0000
0000
0000
1000
,  // measure 28
0000
0000
0000
0000
,  // measure 29
1001
0000
0000
0000
,  // measure 30
0001
0000
0000
0000
,  // measure 31
1000
0000
0000
0000
,  // measure 32
0001
0000
0000
0000
,  // measure 33
0001
0000
0000
0000
,  // measure 34
1000
0000
0000
0000
,  // measure 35
1000
0000
0000
0000
,  // measure 36
0010
0000
0000
0000
,  // measure 37
1001
0000
0000
0000
,  // measure 38
1000
0000
0000
0000
,  // measure 39
1000
0000
0000
0000
,  // measure 40
0001
0000
0000
0000
,  // measure 41
0100
0000
0000
0000
,  // measure 42
0100
0000
0000
0000
,  // measure 43
0001
0000
0000
0000
,  // measure 44
1000
0000
0000
0000
,  // measure 45
0000
0001
0000
0000
0000
0000
0000
0000
,  // measure 46
0000
0001
0000
0000
0000
0000
0000
0000
,  // measure 47
0000
1000
0000
0000
0000
0000
0000
0000
,  // measure 48
0000
1000
0000
0000
0000
0000
0000
0000
;
