#TITLE:Wall Street down-sizer;
#SUBTITLE:;
#ARTIST:Thomas Howard Lichtenstein;
#TITLETRANSLIT:;
#SUBTITLETRANSLIT:;
#ARTISTTRANSLIT:;
#CREDIT:DMAxel;
#BANNER:Wall Street down-sizer.png;
#BACKGROUND:Wall Street down-sizer-bg.png;
#LYRICSPATH:;
#CDTITLE:Mambo A Go Go.png;
#MUSIC:Wall Street down-sizer.mp3;
#OFFSET:-0.040;
#SAMPLESTART:30.960;
#SAMPLELENGTH:12.000;
#SELECTABLE:YES;
#BPMS:0.000=160.000;
#STOPS:;
#BGCHANGES:;

//---------------dance-single - ----------------
#NOTES:
     dance-single:
     :
     Easy:
     4:
     0.260,0.410,0.230,0.019,0.000: // measure 1
0000
0000
0000
0000
,  // measure 2
0000
0000
0000
0000
,  // measure 3
0000
0000
0000
0000
,  // measure 4
0000
0000
0000
0000
,  // measure 5
0000
0000
0000
0000
,  // measure 6
1000
0000
0001
0000
,  // measure 7
1000
0000
0001
0000
,  // measure 8
0100
0000
0010
0000
,  // measure 9
0100
0000
0010
0000
,  // measure 10
1000
0000
0001
0000
,  // measure 11
1000
0000
0001
0000
,  // measure 12
0100
0000
0010
0000
,  // measure 13
0100
0000
0010
0000
,  // measure 14
1000
0000
0100
0000
,  // measure 15
1000
0000
0100
0000
,  // measure 16
0010
0000
0001
0000
,  // measure 17
0010
0000
0001
0100
,  // measure 18
0001
0000
1000
0001
,  // measure 19
1000
0000
0001
0100
,  // measure 20
0010
0100
0001
1001
,  // measure 21
0000
0000
0000
0010
,  // measure 22
0001
0010
0001
0010
,  // measure 23
0001
0010
0100
1000
,  // measure 24
0100
1000
0100
1000
,  // measure 25
0100
0010
0001
0100
,  // measure 26
1001
0000
0100
0001
,  // measure 27
0010
0100
1000
0010
,  // measure 28
1000
0010
1000
0001
,  // measure 29
0100
0001
0100
0001
,  // measure 30
1001
0000
0010
1000
,  // measure 31
0100
0010
0001
0010
,  // measure 32
0001
0010
0100
1000
,  // measure 33
0100
1000
0010
0100
,  // measure 34
1001
0000
0010
0001
,  // measure 35
0010
0100
1000
0010
,  // measure 36
1000
0010
0100
0001
,  // measure 37
0100
0010
0010
1001
,  // measure 38
0000
0000
0000
0000
,  // measure 39
1000
0000
0001
0000
,  // measure 40
1000
0000
0001
0000
,  // measure 41
1000
0000
0010
0000
,  // measure 42
0100
0000
0010
0000
,  // measure 43
0100
0000
0010
0000
,  // measure 44
1000
0000
0001
0000
,  // measure 45
1001
0000
0000
0011
,  // measure 46
0000
0000
0000
1001
0000
0000
0000
0000
,  // measure 47
1000
0100
1000
0100
,  // measure 48
1000
0100
0010
0001
,  // measure 49
0010
0001
0100
1010
,  // measure 50
0000
0000
0000
1001
0000
0000
0000
0000
,  // measure 51
0010
0001
0010
0001
,  // measure 52
0010
0100
1000
0100
,  // measure 53
1000
0100
0010
1001
,  // measure 54
0010
1001
0100
1001
,  // measure 55
0000
0000
0010
0000
,  // measure 56
1000
0010
1000
0010
,  // measure 57
0100
0001
0010
1001
,  // measure 58
0100
1001
0010
1001
,  // measure 59
1100
0011
1100
1001
,  // measure 60
0000
0011
0000
0000
1000
0000
0220
0000
,  // measure 61
0000
0000
0330
1001
,  // measure 62
0000
0000
0000
0000
,  // measure 63
0000
0000
0000
0000
,  // measure 64
0000
0000
0000
1000
,  // measure 65
0000
0000
0000
0000
,  // measure 66
0000
0000
0000
1001
;

//---------------dance-single - ----------------
#NOTES:
     dance-single:
     :
     Hard:
     7:
     0.472,0.536,0.211,0.000,0.024:
0000
0000
0000
0000
,
0000
0000
0000
0000
,
0000
0000
0000
0000
,
0000
0000
0000
0000
,
0000
0000
0000
0010
,
0100
0000
0001
0010
0100
1000
0100
0000
,
1000
0000
0010
0100
0001
0000
0010
0000
,
0001
0000
0100
0001
0010
0100
1000
0000
,
0010
0000
0100
0010
1000
0000
0010
0000
,
0100
0001
0100
0010
1000
0100
0000
0100
,
1000
0000
0100
1000
0001
0000
0100
0000
,
0001
0000
0010
0001
0010
0100
1000
0000
,
0010
0000
1000
0100
0010
0001
0010
0000
,
0001
0000
1000
0100
0010
0001
0100
0000
,
0010
0000
0100
0010
1000
0000
0010
0000
,
0100
0000
0001
0010
0100
1000
0010
0000
,
0010
0100
0000
0100
0001
0010
0100
1000
,
0010
0100
0001
0010
,
0100
0000
1000
0010
0100
0000
0001
0000
,
0010
0000
0001
0010
0100
1000
0010
0000
,
1001
0000
1001
0000
0000
0010
0000
0000
,
0100
0000
0010
1000
0000
0010
0000
0001
,
0100
0010
0100
0001
0100
1000
0000
0010
,
1000
0010
0100
0010
0000
1000
0000
0010
,
0100
0000
0001
0010
0100
1000
1001
0000
,
0110
0000
0000
0101
0000
0010
0000
1000
,
0010
0100
0001
1000
0100
0001
0000
0010
,
0001
0100
0001
0010
0000
0001
0000
0100
,
0010
1000
0010
0100
1001
0000
1100
0000
,
1001
0000
0001
0010
0000
0001
0000
1000
,
0100
0010
0001
1000
0010
0001
0000
0100
,
0010
1000
0100
1000
0000
0010
0000
0100
,
0001
0000
0000
0010
0001
0100
0001
0000
,
1001
0000
0010
0100
0000
0001
0000
1000
,
0010
0100
0001
1000
0100
0001
0000
1000
,
0100
1000
0010
1000
0000
0010
0000
1000
,
0010
0001
1100
0000
0101
0000
1001
0000
,
0010
0001
0010
0001
,
0100
0010
1000
0100
,
1000
0010
1000
0001
,
0010
1000
0010
0001
,
0100
1000
0100
0001
,
0010
1000
0010
0001
,
0100
1000
0100
0001
,
0010
0000
1000
0010
1000
0001
0100
0100
,
0100
0010
0000
1100
0000
0101
0000
0000
,
0010
0001
0100
0010
1000
0010
0000
0010
,
0100
0001
0010
0001
0000
1000
0000
0010
,
0100
0001
0010
0100
1000
0010
0100
0100
,
0100
0100
0100
0011
0000
1010
0000
0001
,
1000
0100
0010
0001
0100
0010
0000
0010
,
1000
0001
0010
0100
0000
1000
0000
0010
,
0000
0100
0000
0001
0100
1000
0010
0010
,
0010
0010
0100
0100
0100
0100
1001
0000
,
0010
1000
0100
0010
0001
0100
0000
0001
,
0100
1000
0010
1000
0000
0100
0000
1000
,
0100
0001
0000
0100
0001
0010
0001
0001
,
0001
0000
0001
0000
0100
0000
0100
0000
0100
0000
0100
0000
0100
0001
0000
0000
,
0001
0010
0000
0000
0010
0100
0000
0000
1100
0000
0000
0000
1001
0000
0000
0000
,
0010
0000
0101
0000
0000
0000
0100
0000
0010
0000
1000
0000
0010
0000
0000
0100
,
0000
0000
0001
0000
0000
1000
0000
0000
0001
0000
0100
0000
1001
0000
0000
0000
,
0000
0000
0000
0000
,
0000
0000
0000
0000
,
0000
0000
0000
0010
,
0000
0000
0000
0000
,
0000
0000
0000
1001
;

//---------------dance-single - ----------------
#NOTES:
     dance-single:
     :
     Challenge:
     9:
     0.585,0.789,0.182,0.000,0.197:
0000
0000
0000
0000
,
0000
0000
0000
0000
,
0000
0000
0000
0000
,
0000
0000
0000
0000
,
0000
0000
0000
0001
,
0010
0001
0100
0001
0010
0001
0000
0001
,
1000
0000
0010
0100
0010
1000
0010
0000
,
1001
0000
0100
0010
0100
0001
0000
0001
,
1000
0000
0010
0100
0010
1000
0010
0000
,
1000
0010
0001
0100
0001
0010
0000
0010
,
0001
0000
0010
0001
0010
1000
0100
1000
,
0010
0100
0010
0100
0000
0001
1000
0100
,
0001
0100
0010
1000
0100
0010
0001
0000
,
0110
0000
1000
0100
0001
0000
0100
0010
,
0100
0010
1000
0010
0100
0000
1001
0000
,
0010
0000
0001
0010
1000
0010
0100
0000
,
0100
0001
0000
0001
0010
0100
1000
0010
,
1000
0100
0000
0100
1000
0010
0100
0000
,
0100
0010
0000
0010
1000
0100
0010
0001
,
0100
1000
0010
0100
0001
0000
1001
0000
,
1001
0000
0010
0010
0000
0100
0000
0010
,
1000
0010
0001
0010
0001
0100
0000
0100
,
0001
0010
0100
1000
0001
0010
0000
0010
,
0001
0100
1000
0010
0000
0101
0000
0010
,
1000
0000
1000
0100
0010
0001
0010
0000
,
1001
0000
0100
1000
0010
0100
0010
1000
,
0100
0010
0001
0100
1000
0100
0000
1000
,
0100
1000
0010
1000
0100
1000
0001
0010
,
0100
0000
1000
0000
0010
0100
0000
0010
0100
0000
0001
0000
0011
0000
0000
0000
,
1100
0000
1001
0100
1000
0010
1000
0001
,
0010
0100
1000
0100
0001
0100
0000
0001
,
0010
0001
0100
0001
0010
0001
0000
0001
,
1000
0000
1000
0100
0010
0001
1100
0000
,
0011
0000
1000
0010
0000
0100
0000
0001
,
0010
0100
1000
0010
0001
0010
0000
0001
,
0010
0001
0100
0001
0000
0100
0010
1000
,
0100
0000
0001
0000
0100
0000
0010
0000
0100
0010
0100
0000
1001
0000
0000
0000
,
0010
0000
0001
0000
0010
0000
0100
0000
1000
0000
0010
0000
0100
0000
0000
0010
,
0000
0000
0100
0000
0000
0010
0000
0000
1000
0000
0100
0000
0010
0000
0001
0000
,
0010
1000
0010
0001
0100
0010
1000
0100
,
0000
1000
0000
0000
0100
0000
0000
1000
0000
0000
0001
0000
0010
0000
0001
0000
,
0000
0010
0000
0000
0001
0000
0000
0100
0000
0000
0001
0000
0100
0000
0010
0000
,
0000
1000
0000
0000
0001
0000
0000
1000
0000
0000
0010
0000
0100
0000
0010
0000
,
0000
0100
0000
0000
0010
0000
0000
0100
0000
0000
0001
0000
1000
0000
0001
0000
,
0010
0000
0100
0000
1000
0000
0010
0000
0100
0000
0001
0000
1000
0001
1000
0001
,
1000
0010
0000
1100
0000
1001
0000
0001
,
1000
0100
0010
0001
0100
0001
0000
0100
,
0010
0100
0001
0100
0000
0010
0000
1000
,
0100
0000
1000
0000
0010
0000
0100
0000
0001
0000
0010
0000
0001
1000
0001
1000
,
0001
1000
0001
1000
0001
0000
0100
0000
0000
0000
0011
0000
0000
0000
0100
0000
,
1000
0100
0010
0001
0100
0001
0000
0001
,
0010
0100
1000
0010
0000
0100
0001
0010
,
0100
0000
1000
0000
0100
0000
0010
0000
0001
0000
0100
0000
0001
1000
0001
1000
,
0001
1000
0001
0100
0010
0100
0010
0100
0010
0100
0010
0000
1000
0000
0001
0000
,
0010
0100
1000
0010
0100
0001
0000
0001
,
0100
0001
0010
0001
0000
0100
0000
0010
,
1000
0000
0100
0000
0010
0000
0001
0000
0100
0000
0010
0000
1000
0001
1000
0001
,
1000
0001
1000
0001
0100
0010
0100
0010
0100
0010
0100
0000
0001
0100
0001
0000
,
1000
0010
1000
0000
0100
1000
0100
0000
0010
0001
0010
0000
0001
0000
0100
0000
,
0010
0000
0110
0000
0000
0000
1000
0000
0001
0000
0010
0000
0100
1000
0000
0010
,
0100
0000
0001
0100
0000
0010
0100
0000
0001
0000
0100
0000
1001
0000
0000
0000
,
0000
0000
0000
0000
,
0000
0000
0000
0000
,
0000
0000
0000
0010
,
0000
0000
0000
0000
,
0000
0000
0000
1001
;

//---------------dance-single - ----------------
#NOTES:
     dance-single:
     :
     Beginner:
     2:
     0.130,0.221,0.106,0.000,0.000: // measure 1
0000
0000
0000
0000
,  // measure 2
0000
0000
0000
0000
,  // measure 3
0000
0000
0000
0000
,  // measure 4
0000
0000
0000
0000
,  // measure 5
0000
0000
0000
0000
,  // measure 6
1000
0000
1000
0000
,  // measure 7
1000
0000
0000
0000
,  // measure 8
0001
0000
0001
0000
,  // measure 9
0001
0000
0000
0000
,  // measure 10
1000
0000
0001
0000
,  // measure 11
1000
0000
0000
0000
,  // measure 12
0001
0000
1000
0000
,  // measure 13
0001
0000
0000
0000
,  // measure 14
0100
0000
0100
0000
,  // measure 15
0100
0000
0000
0000
,  // measure 16
0010
0000
0010
0000
,  // measure 17
0010
0000
0000
0000
,  // measure 18
0100
0000
0010
0000
,  // measure 19
0100
0000
0000
0000
,  // measure 20
0010
0000
0100
0000
,  // measure 21
0000
0000
0000
0000
,  // measure 22
0001
0000
1000
0000
,  // measure 23
0001
0000
1000
0000
,  // measure 24
0010
0000
0100
0000
,  // measure 25
0010
0000
0100
0000
,  // measure 26
0001
0000
1000
0000
,  // measure 27
0001
0000
1000
0000
,  // measure 28
0010
0000
0100
0000
,  // measure 29
0010
0000
0100
0000
,  // measure 30
0001
0000
0010
0000
,  // measure 31
0001
0000
0010
0000
,  // measure 32
0100
0000
1000
0000
,  // measure 33
0100
0000
1000
0000
,  // measure 34
0010
0000
1000
0000
,  // measure 35
0010
0000
0100
0000
,  // measure 36
0001
0000
0100
0000
,  // measure 37
0001
0000
0000
1001
,  // measure 38
0000
0000
0000
0000
,  // measure 39
0000
0000
0000
0001
,  // measure 40
0000
0000
0000
0000
,  // measure 41
0000
0000
0000
1000
,  // measure 42
0000
0000
0000
0001
,  // measure 43
0000
0000
0000
1000
,  // measure 44
0000
0000
0000
0000
,  // measure 45
0000
0000
0000
1001
,  // measure 46
0000
0000
0000
0000
,  // measure 47
0010
0000
0100
0000
,  // measure 48
0010
0000
0100
0000
,  // measure 49
0010
0000
1000
0000
,  // measure 50
0000
0000
0000
0000
,  // measure 51
0001
0000
1000
0000
,  // measure 52
0001
0000
1000
0000
,  // measure 53
0001
0000
0000
1001
,  // measure 54
0000
0110
0000
1001
,  // measure 55
0000
0000
0000
0000
,  // measure 56
0010
0000
0001
0000
,  // measure 57
0010
0000
0000
1001
,  // measure 58
0000
0110
0000
1001
,  // measure 59
0000
0000
0000
1001
,  // measure 60
0000
0000
0000
0010
,  // measure 61
0000
0000
0000
1001
,  // measure 62
0000
0000
0000
0000
,  // measure 63
0000
0000
0000
0000
,  // measure 64
0000
0000
0000
0000
,  // measure 65
0000
0000
0000
0000
,  // measure 66
0000
0000
0000
1001
;

//---------------dance-single - ----------------
#NOTES:
     dance-single:
     :
     Medium:
     6:
     0.377,0.505,0.230,0.067,0.000: // measure 1
0000
0000
0000
0000
,  // measure 2
0000
0000
0000
0000
,  // measure 3
0000
0000
0000
0000
,  // measure 4
0000
0000
0000
0000
,  // measure 5
0000
0000
0000
0001
,  // measure 6
1000
0001
1000
0001
,  // measure 7
1000
0001
0010
0100
,  // measure 8
1000
0100
1000
0001
,  // measure 9
1000
0100
0010
0001
,  // measure 10
0100
0010
0100
0010
,  // measure 11
0100
0001
1000
0010
,  // measure 12
1000
0010
1000
0001
,  // measure 13
1000
0100
0010
0001
,  // measure 14
0100
0010
1000
0100
,  // measure 15
1000
0100
0010
0001
,  // measure 16
0100
0010
1000
0001
,  // measure 17
0010
1000
0100
0010
,  // measure 18
0001
0100
0010
1000
,  // measure 19
0100
0001
0100
0010
,  // measure 20
1000
0100
1000
0001
,  // measure 21
1001
0000
0000
0000
0000
1100
0000
0000
,  // measure 22
0010
0000
0100
0010
0000
1000
0000
0100
,  // measure 23
1000
0000
0100
0000
0010
0001
0000
0010
,  // measure 24
0001
0000
0100
0010
0000
1000
0000
0001
,  // measure 25
0010
0100
1000
0010
,  // measure 26
1001
0000
0000
1010
0000
0101
0000
1000
,  // measure 27
0010
0000
0100
0000
0001
0010
0000
0001
,  // measure 28
0100
0000
0010
0010
0000
1000
0000
0100
,  // measure 29
1000
0000
0010
0100
0010
0000
1100
0000
,  // measure 30
1001
0000
0100
0010
0000
1000
0000
0100
,  // measure 31
1000
0000
0010
0100
0001
0010
0000
0001
,  // measure 32
1000
0000
0010
0010
0000
0100
0000
0001
,  // measure 33
0010
0001
0100
0010
,  // measure 34
1001
0000
0100
1000
0000
0010
0000
0100
,  // measure 35
0001
0000
0100
0000
0010
0010
0000
0100
,  // measure 36
0001
0100
0001
0100
0000
0010
0000
1000
,  // measure 37
0100
1000
0011
0000
1010
0000
2001
0000
,  // measure 38
0000
0000
0000
3002
,  // measure 39
0000
0000
0000
2003
,  // measure 40
0000
0000
0000
3020
,  // measure 41
0000
0000
0000
0230
,  // measure 42
0000
0000
0000
0320
,  // measure 43
0000
0000
0000
2030
,  // measure 44
0000
0000
0000
3001
,  // measure 45
0100
0000
0010
0000
1000
0000
0001
0100
,  // measure 46
0010
0100
0000
1001
0000
0011
0000
0100
,  // measure 47
1000
0000
0010
0000
0100
0001
0000
0010
,  // measure 48
0001
0010
0001
0010
0000
0001
0000
1000
,  // measure 49
0100
0000
1000
0000
0010
0000
0100
0010
,  // measure 50
0100
0010
0100
1001
0000
1010
0000
0100
,  // measure 51
0001
0000
0100
0000
0010
1000
0000
0100
,  // measure 52
1000
0100
1000
0100
0000
1000
0000
0001
,  // measure 53
0000
0100
0000
0010
0100
0000
0001
0010
,  // measure 54
0001
0010
0100
1000
0100
1000
1001
0000
,  // measure 55
0000
0011
0000
0100
1000
0100
0000
1000
,  // measure 56
0010
0000
0100
0000
0001
0010
0000
0001
,  // measure 57
0100
0001
0000
1000
0100
1000
0001
0100
,  // measure 58
0001
0100
0010
1000
0010
1000
0010
0100
,  // measure 59
0010
0100
0010
0100
0010
0000
1001
0000
,  // measure 60
0000
1100
0000
0001
0100
0000
0011
0000
,  // measure 61
0000
1100
0000
0000
0101
0000
1001
0000
,  // measure 62
0000
0000
0000
0000
,  // measure 63
0000
0000
0000
0000
,  // measure 64
0000
0000
0000
0100
,  // measure 65
0000
0000
0000
0000
,  // measure 66
0000
0000
0000
1001
;
