#TITLE:WONDERLAND;
#SUBTITLE:(beatmania version);
#ARTIST:X-TREME;
#TITLETRANSLIT:;
#SUBTITLETRANSLIT:;
#ARTISTTRANSLIT:;
#CREDIT:DMAxel;
#BANNER:WONDERLAND (beatmania version).png;
#BACKGROUND:WONDERLAND (beatmania version)-bg.png;
#LYRICSPATH:WONDERLAND (beatmania version).lrc;
#CDTITLE:Dancemania SUMMERS 2.PNG;
#MUSIC:WONDERLAND (beatmania version).mp3;
#OFFSET:0.080;
#SAMPLESTART:51.893;
#SAMPLELENGTH:12.000;
#SELECTABLE:YES;
#BPMS:0.000=127.950;
#STOPS:111.000=0.500
;
#BGCHANGES:;

//---------------dance-single - ----------------
#NOTES:
     dance-single:
     :
     Easy:
     3:
     0.224,0.248,0.174,0.000,0.000:
0000
0000
0000
0000
,
0000
0000
0000
0000
,
0000
0010
0000
0100
,
0000
0010
0000
0100
,
0000
0001
0010
0100
,
1000
0100
0010
0001
,
0010
0100
1000
0100
,
0010
1001
0000
0000
,
0000
0100
1000
0010
,
0010
0100
0001
0100
,
0100
0001
0010
0001
,
0001
0100
0100
0100
,
0010
1001
0000
0100
,
0000
1000
0000
0100
,
0000
0010
0000
0001
,
0000
0010
0000
0100
,
0000
1001
0000
0010
,
0000
0100
0000
0001
,
0000
0100
0000
0001
,
0000
0010
0100
1000
,
0100
1001
0000
0010
,
0010
1001
0000
0100
,
0100
1001
0000
0000
,
0000
0010
1000
0100
,
0010
1001
0000
0010
,
0010
1001
0000
0100
,
0100
1001
0000
0000
,
0000
0001
1000
1001
,
0100
0100
1000
0010
,
0100
0100
0010
1000
,
0001
0001
0100
0001
,
0010
0010
0010
0001
,
1001
0000
0000
1100
,
0000
0000
0000
0000
,
0001
0010
0100
1000
,
0100
0010
0001
0010
,
1001
0000
0000
0000
,
0100
0100
0100
1000
,
0010
0010
0010
0010
,
1000
0100
0010
0001
,
1001
0000
0000
0000
;

//---------------dance-single - ----------------
#NOTES:
     dance-single:
     :
     Hard:
     6:
     0.405,0.446,0.671,0.000,0.000:
0000
0000
0000
0000
,
0000
0000
0000
0000
,
0000
0011
0010
1010
,
1000
1100
0100
0101
,
0001
1001
0010
0100
,
1000
1100
0110
0011
,
0101
0110
1010
1001
,
0110
1001
0000
0000
,
0000
0000
0100
1000
0100
0010
0001
0001
,
0001
0000
0010
0001
0010
0100
1000
1000
,
1000
0000
0010
1000
0010
0100
0001
0001
,
0001
0000
0100
0100
0010
0010
1000
0100
,
0010
0010
1001
0000
0100
0000
1000
0000
,
0100
0001
0100
1000
,
0100
1001
1001
0010
,
1000
0010
0001
0010
,
1000
0010
1001
0110
,
0001
0110
1000
0100
,
1001
0000
0010
0000
0001
0000
0100
0010
,
0100
1010
0101
1010
,
0101
0000
1001
0000
0000
0000
0010
0010
,
1000
0100
1001
0000
0000
0000
0100
0100
,
0001
0010
0001
0000
0100
0000
0010
0000
,
1000
0011
1100
0011
,
1100
0000
1001
0000
0000
0000
0100
0100
,
0001
0010
1001
0000
0000
0000
0010
0010
,
1000
0100
1000
0000
0010
0000
0100
0000
,
0001
0011
1100
1001
,
0100
0100
1000
0100
0010
0010
0001
0000
,
1000
0000
1001
0000
0010
0010
0001
0010
,
0100
0000
1001
0000
0100
1000
0100
0000
,
0011
0000
1010
0000
0011
0000
1000
1000
,
1001
0000
0000
0000
0000
0000
1100
1001
,
0000
0000
0000
0000
,
0001
0010
0100
1000
,
1100
0011
0101
1010
,
1001
0000
0000
0000
,
0100
0100
1000
1000
0100
0100
1000
0100
,
0001
0001
0010
0010
0001
0001
0010
0010
,
1100
0000
0101
0000
1010
0000
0011
1001
;

//---------------dance-single - ----------------
#NOTES:
     dance-single:
     :
     Challenge:
     7:
     0.476,0.447,0.472,0.025,0.025: // measure 1
0000
0000
0000
0000
,  // measure 2
0000
0000
0000
0000
,  // measure 3
0000
0000
1001
1000
0100
0010
0001
0001
,  // measure 4
0010
0100
1001
1000
0010
0100
0001
0001
,  // measure 5
0100
0010
1001
0000
1100
0000
0011
0000
,  // measure 6
0001
0010
1000
1000
0100
0100
0010
0010
,  // measure 7
0001
0001
0010
0100
1000
0100
0001
0010
,  // measure 8
1000
0001
1001
0000
0000
0000
0002
0000
,  // measure 9
0000
0000
0013
0001
0010
0100
1000
0100
,  // measure 10
0001
0000
1000
0100
0010
0001
0001
0010
,  // measure 11
1000
0000
0001
0100
0010
1000
1000
0010
,  // measure 12
0001
0000
0000
0000
0010
0001
0010
0000
0100
1000
0100
0000
1000
0000
0010
0000
,  // measure 13
0100
0100
1001
0000
0010
0001
0100
0000
,  // measure 14
1001
0000
0100
1000
0010
0100
0010
0000
,  // measure 15
1001
0000
0010
0010
0001
0100
0010
0000
,  // measure 16
1001
0000
0100
0100
1000
0010
0100
0000
,  // measure 17
1001
0000
0110
0000
0001
0010
1000
0000
,  // measure 18
0010
0100
0010
1000
0100
0010
0001
0000
,  // measure 19
0100
0010
0100
0001
0010
0100
1000
0100
,  // measure 20
0001
1100
0011
1100
,  // measure 21
0011
0000
1001
0000
0000
0000
0100
0100
,  // measure 22
0001
0010
1001
0000
0000
0000
0010
0010
,  // measure 23
1000
0100
1000
0000
0010
0000
0100
0001
,  // measure 24
0010
1100
0011
1100
,  // measure 25
0011
0000
1001
0000
0000
0000
0010
0010
,  // measure 26
1000
0100
1001
0000
0000
0000
0100
0100
,  // measure 27
0001
0010
0001
0000
0100
0000
0010
1000
,  // measure 28
0100
0000
0000
0000
1000
0100
1000
0000
0001
0010
0001
0000
1001
0000
0000
0000
,  // measure 29
0010
0010
0001
0010
0100
0100
1000
0100
,  // measure 30
0001
0100
1000
0000
0100
0100
1000
0100
,  // measure 31
0010
0010
0001
0010
1000
0010
0001
0000
,  // measure 32
1000
1000
0100
0010
0001
0100
0001
0001
,  // measure 33
1001
0000
0000
0000
0000
0000
0011
1001
,  // measure 34
0000
0010
0000
0010
,  // measure 35
1100
0011
1100
0011
,  // measure 36
1010
0101
1010
0101
,  // measure 37
1001
0000
0002
0000
,  // measure 38
0013
0010
0001
0001
0010
0010
0001
0010
,  // measure 39
1000
1000
0100
0100
1000
1000
0100
0100
,  // measure 40
0010
0001
0010
0100
1000
0100
0001
0100
,  // measure 41
1001
0000
0000
0000
;

//---------------dance-single - ----------------
#NOTES:
     dance-single:
     :
     Beginner:
     1:
     0.076,0.099,0.087,0.000,0.000:
0000
0000
0000
0000
,
0000
0000
0000
0000
,
0000
1000
0000
0000
,
0000
0001
0000
0000
,
0000
1000
0000
0000
,
0000
0010
0000
0000
,
0000
0100
0000
0000
,
0000
1001
0000
0000
,
0000
0001
0000
0000
,
0000
1000
0000
0000
,
0000
0001
0000
0000
,
0000
0100
0000
0000
,
0000
0010
0000
0000
,
0000
0000
0000
0000
,
0000
0010
0000
0000
,
0000
0100
0000
0000
,
0000
0100
0000
0000
,
0000
0001
0000
0000
,
0000
1000
0000
0000
,
0000
0001
0000
0000
,
0000
1001
0000
0000
,
0000
1001
0000
0000
,
0000
1000
0000
0000
,
0000
0000
0000
0000
,
0000
0010
0000
0000
,
0000
0110
0000
0000
,
0000
0100
0000
0000
,
0000
0001
0000
0000
,
1000
0000
0000
0000
,
0100
0000
0000
0000
,
0010
0000
0000
0000
,
0001
0000
0000
0000
,
1001
0000
0000
0000
,
0000
0000
0000
0000
,
0001
0000
0000
0000
,
1000
0000
0000
0000
,
1001
0000
0000
0000
,
1000
0000
0000
0000
,
0100
0000
0000
0000
,
0010
0000
0000
0000
,
1001
0000
0000
0000
;

//---------------dance-single - ----------------
#NOTES:
     dance-single:
     :
     Medium:
     5:
     0.309,0.422,0.447,0.000,0.000:
0000
0000
0000
0000
,
0000
0000
0000
0000
,
0000
0100
0100
0010
,
0010
1000
1000
0001
,
0001
1000
0100
0010
,
0001
0010
0100
1000
,
0100
0011
0011
1100
,
1100
1001
0000
0000
,
0000
0000
0010
0000
0001
0000
0100
0010
,
0100
0000
0010
0000
1000
0000
0010
0100
,
0010
0000
1000
0000
0100
0000
1000
0001
,
1000
0000
0010
0100
0010
0100
0010
0000
,
0100
1001
0000
0010
,
0000
0001
0000
0010
,
0000
0100
0000
1000
,
0000
0100
0000
0010
,
0000
1001
0000
0100
,
0000
0010
0000
1000
,
0000
0010
0000
1000
,
0000
1100
1100
0011
,
0011
0000
1001
0000
0000
0000
0100
0010
,
0100
0000
1001
0000
0000
0000
0010
0100
,
0010
1001
0000
0010
,
0000
0101
0101
1010
,
1010
0000
1001
0000
0000
0000
0100
0010
,
0100
0000
1001
0000
0000
0000
0010
0100
,
0010
1001
0000
0100
,
0000
1010
0101
1001
,
0010
0001
0010
0000
0001
0000
0100
0000
,
0010
0100
0010
0000
0100
0000
0001
0000
,
1000
0100
1000
0000
0010
0000
1000
0000
,
0010
0100
0010
0100
0010
0000
1000
0000
,
1001
0000
0000
0000
0000
0000
0001
1001
,
0000
0000
0000
0000
,
1000
0100
0010
0001
,
0011
0011
1100
1100
,
1001
0000
0000
0000
,
0010
0100
0010
0100
0010
0000
1000
0000
,
0001
1000
0001
1000
0001
1000
0001
0000
,
1010
0101
1100
0011
,
1001
0000
0000
0000
;
