#TITLE:WILD RUSH MEGAMIX;
#SUBTITLE:;
#ARTIST:Remixed by PCM;
#TITLETRANSLIT:;
#SUBTITLETRANSLIT:;
#ARTISTTRANSLIT:;
#CREDIT:DMAxel;
#BANNER:WILD RUSH MEGAMIX.png;
#BACKGROUND:WILD RUSH MEGAMIX-bg.png;
#LYRICSPATH:;
#CDTITLE:DanceDanceRevolution Solo.png;
#MUSIC:WILD RUSH MEGAMIX.mp3;
#OFFSET:0.000;
#SAMPLESTART:16.474;
#SAMPLELENGTH:12.000;
#SELECTABLE:YES;
#DISPLAYBPM:127.000;
#BPMS:0.000=127.100,35.000=63.550,38.000=127.100;
#STOPS:;
#BGCHANGES:;

//---------------dance-single - ----------------
#NOTES:
     dance-single:
     :
     Easy:
     3:
     0.186,0.338,0.125,0.062,0.000: // measure 1
0000
0000
0000
0000
,  // measure 2
0000
0000
0000
0000
,  // measure 3
0000
0000
0000
0000
,  // measure 4
0000
0000
0100
0000
,  // measure 5
0000
0000
0010
0000
,  // measure 6
0000
0000
0100
0000
,  // measure 7
0000
0000
0001
0000
,  // measure 8
0000
0000
1000
0000
,  // measure 9
0000
0000
0000
1001
,  // measure 10
0000
0000
0100
0000
,  // measure 11
0001
0000
1000
0000
,  // measure 12
0001
0000
0010
0000
,  // measure 13
0100
0000
0010
0000
,  // measure 14
0001
0000
1000
0000
,  // measure 15
0100
0000
1000
0000
,  // measure 16
0010
0000
0100
0000
,  // measure 17
0010
0000
0100
0000
,  // measure 18
0001
0000
0100
0000
,  // measure 19
0002
0000
0000
0000
,  // measure 20
2003
0000
0000
0000
,  // measure 21
3200
0000
0000
0000
,  // measure 22
0310
0000
1001
0000
,  // measure 23
1000
0000
1001
0000
,  // measure 24
0100
0000
0110
0000
,  // measure 25
0010
0000
1001
0001
,  // measure 26
0000
0000
0000
0000
,  // measure 27
0100
0010
0100
0001
,  // measure 28
0010
0001
0010
0100
,  // measure 29
1000
0100
1000
0001
,  // measure 30
1000
0001
0100
0000
,  // measure 31
0100
0010
0100
0010
,  // measure 32
1000
0010
1000
0001
,  // measure 33
0100
0001
0100
0010
,  // measure 34
0010
0010
0000
1000
,  // measure 35
0001
1000
0001
0100
,  // measure 36
0010
0100
0010
1000
,  // measure 37
1000
0100
0100
0010
,  // measure 38
0010
0001
0001
0010
,  // measure 39
1001
0100
1001
0010
,  // measure 40
1001
0100
1001
2002
,  // measure 41
0000
0000
0000
0000
,  // measure 42
0000
0000
0000
0000
0000
3003
0000
0000
;

//---------------dance-single - ----------------
#NOTES:
     dance-single:
     :
     Hard:
     6:
     0.339,0.364,0.287,0.037,0.150: // measure 1
0000
0000
0000
0000
,  // measure 2
0000
0000
0000
0000
,  // measure 3
0000
0000
0000
0000
,  // measure 4
0000
0000
0000
0000
,  // measure 5
0000
0000
0000
0000
0001
0010
0010
0000
,  // measure 6
0001
0000
1000
0100
0100
0100
1000
0000
,  // measure 7
0010
0000
0000
0000
0100
0000
0000
0000
0001
0000
0001
0000
0001
0000
0000
0010
,  // measure 8
0000
0000
0000
0001
0200
0000
0010
0000
,  // measure 9
0310
0000
0000
1000
,  // measure 10
0000
0000
0001
0010
,  // measure 11
0001
0000
0100
0010
0010
0000
1000
0000
,  // measure 12
0010
0000
1000
0001
1000
0000
0010
0000
,  // measure 13
0100
0000
0010
1000
0010
0000
0100
0010
,  // measure 14
0010
0000
0000
0000
0000
1000
0000
0000
0100
0000
0000
0000
1000
0000
0000
0000
,  // measure 15
1100
0100
1100
0000
,  // measure 16
0011
0010
0011
0000
,  // measure 17
0110
0000
0100
0000
0110
0000
0001
0010
,  // measure 18
0010
0000
0000
0000
0000
0100
0000
0000
1000
0000
0000
0100
0000
0000
0000
0000
,  // measure 19
1001
0010
0101
0000
,  // measure 20
1010
0100
1001
0000
,  // measure 21
0110
0000
0010
0000
1001
0000
0000
0100
,  // measure 22
0100
0000
0000
0000
0000
1000
0000
0000
1001
0000
0000
0000
0010
0000
0001
0000
,  // measure 23
0100
0000
0000
0001
0000
0000
0000
0000
0101
0000
0000
0000
0010
0000
1000
0000
,  // measure 24
0100
0000
0000
1000
0000
0000
0000
0000
1010
0000
0000
0000
0100
0000
0000
0010
,  // measure 25
0100
0000
0000
0010
0000
0000
0100
0000
0001
0000
0000
0000
1001
0000
0000
0000
,  // measure 26
0000
0000
0000
0000
0000
0000
0010
0001
,  // measure 27
0100
0000
0010
0000
0100
0000
0010
1000
,  // measure 28
0100
0000
1000
0000
0100
0000
0010
0001
,  // measure 29
0100
0000
0000
0010
0000
0000
0100
0000
0000
0000
1001
0000
0000
0000
0010
0000
,  // measure 30
0010
0000
0001
0000
0000
0100
0000
0000
0010
0000
0000
0100
0000
0000
0000
0000
,  // measure 31
0001
0000
0000
0010
0000
0000
0001
0000
1000
0000
0000
0000
0100
0000
1000
0000
,  // measure 32
0010
0000
0000
0000
0000
0100
0000
0000
0010
0000
0010
0000
0100
0000
0001
0000
,  // measure 33
0100
0000
0000
0010
0000
0000
1000
0000
0010
0000
1000
0000
0000
0000
0001
0000
,  // measure 34
0000
0000
0010
0000
0000
0000
0100
0000
0000
0000
1000
0001
1000
0000
0010
0000
,  // measure 35
0100
0000
0000
0010
0000
0000
0100
0000
0010
0000
0000
0000
1000
0000
0001
0000
,  // measure 36
1000
0000
0000
0000
0000
0010
0000
0000
0100
0000
0100
0000
0000
0000
0001
0000
,  // measure 37
0101
0000
0000
1000
0000
0000
0000
0000
1001
0000
0000
0000
0000
0000
1000
0000
,  // measure 38
1010
0000
0000
0000
0000
0001
0000
0000
1001
0000
0000
1000
0000
0000
0100
0000
,  // measure 39
1000
0000
0000
0100
0000
0000
0000
0000
0011
0000
0000
0000
0010
0000
0000
0000
,  // measure 40
0001
0000
0000
0100
0000
0010
1000
0000
0010
0000
0010
0000
2002
0000
0000
0000
,  // measure 41
0000
0000
0000
0000
,  // measure 42
0000
0000
0000
0000
0000
3003
0000
0000
;

//---------------dance-single - ----------------
#NOTES:
     dance-single:
     :
     Challenge:
     8:
     0.473,0.468,0.237,0.037,0.456: // measure 1
0000
0000
0000
0000
,  // measure 2
0000
0000
0000
0000
,  // measure 3
0000
0000
0000
0000
,  // measure 4
0000
0000
0000
0000
0000
0000
0000
0000
0001
0000
0000
0000
0000
0010
0000
0001
,  // measure 5
0000
0010
0001
0000
0100
0000
0000
0100
0000
0000
0001
0000
0010
0000
0000
0000
,  // measure 6
0001
0000
0000
0010
0000
0000
1000
0000
0010
0000
1000
0000
0000
0100
0000
0000
,  // measure 7
0001
0000
0000
0100
0000
0000
0010
0100
0010
0000
1000
0000
1001
0000
0000
0000
,  // measure 8
0001
0000
0000
0010
0000
0000
1000
0000
0001
0000
0010
0000
0001
0000
0010
0000
,  // measure 9
0100
1000
0100
2000
0000
0000
0000
0000
3000
0000
0000
0000
1001
0000
0000
0000
,  // measure 10
0000
0000
0000
0000
0000
0000
0000
0000
0100
0000
0000
0000
1000
0010
0000
0000
,  // measure 11
1000
0000
0000
0001
0000
0000
0100
0000
0100
0000
0000
0000
0001
0100
0000
0000
,  // measure 12
0001
0000
0000
1000
0000
0000
0010
0000
0100
0010
0100
0000
0010
1000
0000
0000
,  // measure 13
0010
0000
0000
0100
0000
0001
1000
0000
0001
0000
0000
0000
0010
0000
0001
0000
,  // measure 14
0001
0000
0000
0000
0010
0100
0000
0000
1000
0000
0100
0010
0000
0000
0001
0000
,  // measure 15
0101
0000
0000
0010
0000
0000
1000
0000
0100
0000
0000
0000
1000
0000
0010
0000
,  // measure 16
1010
0000
0000
0100
0000
0001
0010
0000
0001
1000
0001
0000
0000
0000
0010
0000
,  // measure 17
0001
0000
0000
0010
0000
0000
1000
0000
1100
0000
0000
0000
1000
0000
0001
0000
,  // measure 18
0101
0000
0000
0010
0000
1000
0100
0000
1000
0001
0000
1000
0001
0000
0000
0000
,  // measure 19
1100
0000
0000
0010
0000
0000
0001
0000
0011
0000
0000
0000
0001
0000
0000
0000
,  // measure 20
1001
0000
0000
0000
0000
0100
0010
0000
1000
0001
1000
0000
0000
0000
0000
0000
,  // measure 21
0011
0000
0000
0100
0000
0000
1000
0000
1001
0000
0000
0000
0010
0000
0100
0000
,  // measure 22
0100
0000
0000
0000
0001
0010
0000
0000
0101
0000
0000
1000
0100
0000
0000
0000
,  // measure 23
1010
0000
0000
0100
0000
0001
0010
0000
0001
0000
0000
0000
0100
0000
0010
0000
,  // measure 24
1000
0000
0000
0000
0010
0100
0000
0000
0001
1000
0001
0000
0100
0000
0000
0010
,  // measure 25
1000
0000
0000
0010
0000
0000
0001
0000
0100
0000
0010
0000
1001
0000
0000
0000
,  // measure 26
0000
0000
0000
0000
0000
0000
0000
0000
0000
0000
0010
0100
0010
0000
1000
0000
,  // measure 27
0001
0000
0000
0010
0000
0000
1000
0000
0100
0000
1000
0000
1000
0000
0010
0000
,  // measure 28
1000
0000
0000
0010
0000
0100
0001
0000
1000
0001
1000
0000
0010
0000
0100
0000
,  // measure 29
0001
0000
0000
0100
0000
0000
1000
0010
0000
0000
1000
0000
0100
0000
1000
0000
,  // measure 30
1000
0000
0100
0000
1000
0010
0000
0000
0100
0000
0001
0010
0000
0000
0001
0000
,  // measure 31
1000
0000
0000
0100
0000
0000
0001
0000
0010
0000
0001
0000
0100
0000
0001
0000
,  // measure 32
0001
0000
0000
0100
0000
0010
1000
0000
0010
0100
0010
0000
0000
0000
0100
0000
,  // measure 33
0001
0000
0000
0010
0000
0000
1000
0010
0000
0000
0100
0001
0000
0000
0100
0010
,  // measure 34
0000
0000
0100
0010
0000
0000
0000
0000
0000
0000
1000
0001
1000
0000
0010
0000
,  // measure 35
1000
0000
0000
0010
0000
0000
0001
0000
0011
0000
0000
0000
1000
0000
0000
0000
,  // measure 36
0001
0000
0000
0100
0000
0010
1000
0000
0010
0100
0010
0000
0000
0000
1000
0000
,  // measure 37
0001
0000
0000
0100
0000
0000
1000
0000
1100
0000
0000
0000
0010
0000
0001
0000
,  // measure 38
0011
0000
0000
0100
0000
0010
1000
0000
0010
0100
0010
0000
1000
0000
0010
0000
,  // measure 39
1000
0000
0000
0100
0000
0000
0001
0000
0101
0000
0000
0000
0010
0000
0001
0000
,  // measure 40
1000
0000
0000
0010
0000
0100
0001
0000
0100
0010
0100
0000
2002
0000
0000
0000
,  // measure 41
0000
0000
0000
0000
,  // measure 42
0000
0000
0000
0000
0000
3003
0000
0000
;

//---------------dance-single - ----------------
#NOTES:
     dance-single:
     :
     Medium:
     4:
     0.277,0.364,0.275,0.037,0.000: // measure 1
0000
0000
0000
0000
,  // measure 2
0000
0000
0000
0000
,  // measure 3
0000
0000
0000
0000
,  // measure 4
0000
0000
0000
0000
,  // measure 5
0000
0000
0000
0010
,  // measure 6
0000
0001
0000
0010
,  // measure 7
0000
0001
0000
1000
,  // measure 8
0000
0001
0010
0100
,  // measure 9
2000
0000
0000
3001
,  // measure 10
0000
0000
1000
0000
,  // measure 11
0010
0100
0010
1000
,  // measure 12
0100
0000
1000
0010
,  // measure 13
0100
0001
0100
0000
,  // measure 14
0010
0000
0100
0001
,  // measure 15
0010
0001
1000
0000
,  // measure 16
0100
0000
1000
0000
,  // measure 17
0010
0100
0001
0010
,  // measure 18
0100
1000
0100
0010
,  // measure 19
0011
0001
0011
0000
,  // measure 20
1100
1000
1100
0000
,  // measure 21
1010
1000
1010
0000
,  // measure 22
0101
0001
0101
0000
,  // measure 23
1001
1000
1001
0000
,  // measure 24
1001
0001
1001
0000
,  // measure 25
0110
0100
0110
1001
,  // measure 26
0000
0000
0000
0000
0000
0000
1000
0100
,  // measure 27
1000
0000
0010
0000
0100
0000
0001
0010
,  // measure 28
0001
0000
0000
0000
0100
0000
0010
1000
,  // measure 29
0010
0000
0100
0000
0001
0000
0010
0001
,  // measure 30
0010
0000
0000
0000
0001
0000
0010
0001
,  // measure 31
0100
0000
0010
1000
0010
0000
0100
0001
,  // measure 32
0100
0000
0010
1000
0100
0000
1000
0001
,  // measure 33
1000
0000
0010
0000
0100
0001
0000
1000
,  // measure 34
0000
0001
1000
0000
0000
0010
0010
0100
,  // measure 35
0001
0000
0010
0001
0010
0000
0001
0000
,  // measure 36
1000
0000
0100
1000
0100
0000
1000
0000
,  // measure 37
1100
1000
1100
0001
,  // measure 38
0011
0001
0011
1000
,  // measure 39
1001
0000
0001
0000
1001
0000
1000
0001
,  // measure 40
1000
0000
0010
0100
0010
0010
2002
0000
,  // measure 41
0000
0000
0000
0000
,  // measure 42
0000
0000
0000
0000
0000
3003
0000
0000
;

//---------------dance-single - ----------------
#NOTES:
     dance-single:
     :
     Beginner:
     1:
     0.084,0.099,0.000,0.000,0.000: // measure 1
0000
0000
0000
0000
,  // measure 2
0000
0000
0000
0000
,  // measure 3
0000
0000
0000
0000
,  // measure 4
0000
0000
0000
0000
,  // measure 5
0000
0000
0000
1000
,  // measure 6
0000
0000
0000
0001
,  // measure 7
0000
0000
0000
1000
,  // measure 8
0000
0000
0001
0000
,  // measure 9
0000
0000
0000
1000
,  // measure 10
0000
0000
0000
0000
,  // measure 11
0001
0000
0010
0000
,  // measure 12
0001
0000
0000
0000
,  // measure 13
1000
0000
0100
0000
,  // measure 14
1000
0000
0000
0000
,  // measure 15
0010
0000
0010
0000
,  // measure 16
0010
0000
0000
0000
,  // measure 17
0100
0000
0100
0000
,  // measure 18
0100
0000
0000
0000
,  // measure 19
0001
0000
0000
0000
,  // measure 20
1000
0000
0000
0000
,  // measure 21
0001
0000
0000
0000
,  // measure 22
1000
0000
0000
0000
,  // measure 23
0010
0000
0000
0000
,  // measure 24
0100
0000
0000
0000
,  // measure 25
0010
0000
0000
0100
,  // measure 26
0000
0000
0000
0000
,  // measure 27
0001
0000
1000
0000
,  // measure 28
0001
0000
0000
0000
,  // measure 29
1000
0000
0001
0000
,  // measure 30
1000
0000
0000
0000
,  // measure 31
0010
0000
0100
0000
,  // measure 32
0010
0000
0000
0000
,  // measure 33
0100
0000
0010
0000
,  // measure 34
0000
0000
0000
0000
,  // measure 35
1000
0000
0100
0000
,  // measure 36
1000
0000
0000
0001
,  // measure 37
0000
0000
0100
0000
,  // measure 38
0001
0000
0100
0000
,  // measure 39
0010
0000
1000
0000
,  // measure 40
0010
0000
0100
0000
;
