#TITLE:Votum stellarum;
#SUBTITLE:;
#ARTIST:iconoclasm;
#TITLETRANSLIT:;
#SUBTITLETRANSLIT:;
#ARTISTTRANSLIT:;
#CREDIT:DMAxel;
#BANNER:Votum stellarum.png;
#BACKGROUND:Votum stellarum-bg.png;
#LYRICSPATH:;
#CDTITLE:pop'n music.png;
#MUSIC:Votum stellarum.mp3;
#OFFSET:-0.360;
#SAMPLESTART:106.193;
#SAMPLELENGTH:12.000;
#SELECTABLE:YES;
#BPMS:0.000=68.000,9.000=147.000,185.000=73.500,201.000=147.000,297.000=72.000,306.500=75.500,313.000=73.000;
#STOPS:;
#BGCHANGES:;

//---------------dance-single - ----------------
#NOTES:
     dance-single:
     :
     Easy:
     2:
     0.183,0.224,0.043,0.213,0.000: // measure 1
0000
0000
0000
0000
,  // measure 2
0000
0000
0000
0000
,  // measure 3
0000
1001
0000
0000
,  // measure 4
0000
0000
0000
0100
,  // measure 5
0000
0100
0000
0000
,  // measure 6
0000
0000
0000
0000
,  // measure 7
0000
1001
0000
0000
,  // measure 8
0000
0002
0000
0000
,  // measure 9
0000
0023
0000
0000
,  // measure 10
0000
0230
0000
0000
,  // measure 11
0000
2300
0000
0000
,  // measure 12
0000
3020
0000
0000
,  // measure 13
0000
0130
0000
0001
,  // measure 14
0000
0100
0010
0100
,  // measure 15
0001
1001
0100
0000
,  // measure 16
1000
0000
0100
0000
,  // measure 17
1000
0000
0100
0000
,  // measure 18
0010
0001
0010
0100
,  // measure 19
1000
0001
0010
0000
,  // measure 20
0001
0000
0010
0000
,  // measure 21
0001
0200
0000
0320
,  // measure 22
0000
0030
0000
0000
,  // measure 23
0000
1001
0000
1000
,  // measure 24
0000
0010
0000
0100
,  // measure 25
0000
0010
0000
1000
,  // measure 26
0000
0100
0000
1000
,  // measure 27
0000
0100
0010
0001
,  // measure 28
0100
0010
1000
0001
,  // measure 29
1000
0002
0000
2003
,  // measure 30
0000
3010
0100
0001
,  // measure 31
1000
1001
0000
0000
,  // measure 32
0000
0010
0000
0000
,  // measure 33
0000
0100
0000
0000
,  // measure 34
0000
0010
0000
0000
,  // measure 35
0000
1000
0000
0000
,  // measure 36
0000
0001
0000
0000
,  // measure 37
0000
1000
0000
0000
,  // measure 38
0000
0010
0000
0100
,  // measure 39
0100
0010
0100
0010
,  // measure 40
0100
0010
0100
0010
,  // measure 41
1000
0000
0001
1000
,  // measure 42
0001
1000
0001
1000
,  // measure 43
0001
0000
0100
0010
,  // measure 44
0100
0010
0100
0010
,  // measure 45
0100
0000
0001
1000
,  // measure 46
0001
0010
0100
1000
,  // measure 47
0100
1001
0000
0010
,  // measure 48
0100
0010
0000
1000
,  // measure 49
0001
1000
0000
0001
,  // measure 50
0000
0200
0000
0310
,  // measure 51
0000
1000
0001
1000
,  // measure 52
0001
1000
0001
1000
,  // measure 53
0001
0100
0010
0100
,  // measure 54
0010
0100
0010
0100
,  // measure 55
0010
2000
0000
0001
,  // measure 56
0000
3002
0000
1000
,  // measure 57
0000
0103
0010
0100
,  // measure 58
0001
2002
0000
0000
,  // measure 59
3003
0020
0000
0000
,  // measure 60
0000
0230
0000
0000
,  // measure 61
0000
0302
0000
0000
,  // measure 62
0000
0023
0000
0000
,  // measure 63
0000
0031
0000
0000
,  // measure 64
0000
1000
0010
0100
,  // measure 65
0001
1000
0001
0100
,  // measure 66
0020
0000
0000
0000
,  // measure 67
0000
2030
0000
0000
,  // measure 68
0000
3200
0000
0000
,  // measure 69
0000
0320
0000
0000
,  // measure 70
0000
0032
0000
0000
,  // measure 71
0000
0023
0000
0000
,  // measure 72
0000
0230
0000
0000
,  // measure 73
0000
1300
0000
0100
,  // measure 74
0000
0010
0000
0001
,  // measure 75
0100
0020
0000
0230
,  // measure 76
0000
0302
0000
2003
,  // measure 77
0000
3001
0000
0001
,  // measure 78
0000
1000
0000
0100
,  // measure 79
0000
2000
0000
3002
,  // measure 80
0000
0023
0000
0032
,  // measure 81
0000
0203
0000
0000
,  // measure 82
0000
0302
0000
1000
,  // measure 83
1003
0000
0000
0000
;

//---------------dance-single - ----------------
#NOTES:
     dance-single:
     :
     Hard:
     7:
     0.376,0.425,0.061,0.121,0.043: // measure 1
0000
0000
0000
0000
,  // measure 2
0000
0000
0000
0000
,  // measure 3
0000
1002
0000
0000
,  // measure 4
0000
0000
0000
2003
,  // measure 5
0000
3020
0000
0000
,  // measure 6
0000
0000
0000
0130
,  // measure 7
0000
1001
0010
0100
,  // measure 8
1000
0100
1000
0100
,  // measure 9
1000
0100
0010
0001
,  // measure 10
0010
0001
0010
0001
,  // measure 11
0100
0001
0010
0100
,  // measure 12
1000
0100
0010
0001
,  // measure 13
1000
0000
0001
0010
0001
0100
0010
1000
,  // measure 14
0100
0010
1001
0000
1001
0000
0100
0010
,  // measure 15
1000
0001
1000
0000
0001
0100
0010
0000
,  // measure 16
0100
0010
0100
0010
1000
0000
0100
0010
,  // measure 17
0001
0000
0100
0010
0100
0000
0010
1000
,  // measure 18
0100
0000
0010
0001
0100
0000
0100
0010
,  // measure 19
0100
0000
0000
0000
0001
0000
0000
0010
0000
0000
1000
0000
0100
0000
0010
0000
,  // measure 20
0001
0000
0110
0000
1001
0000
0010
0001
,  // measure 21
0010
0001
0100
0000
0010
0000
1000
0000
,  // measure 22
0010
0000
0100
0000
0000
0000
0000
0000
0000
0000
0000
0000
0001
0000
0000
1000
,  // measure 23
0000
0000
0001
0000
1001
0000
0000
0100
0000
0000
0001
0000
0100
0000
0000
0010
,  // measure 24
0000
0010
1000
0100
0010
0001
0100
0010
,  // measure 25
1000
0000
0001
0010
0100
1000
0010
0100
,  // measure 26
0001
0000
1000
0100
0010
0001
0100
0010
,  // measure 27
1000
0000
0000
0000
0001
0100
0000
0000
0010
0000
0000
0000
1000
0010
0000
0000
,  // measure 28
0100
0000
0000
0000
0001
0010
0000
0000
0001
0000
1000
0000
0100
1000
0000
0000
,  // measure 29
0100
1000
0002
0000
0000
0000
0203
0000
,  // measure 30
0000
0310
1000
0100
,  // measure 31
0010
0000
1001
0100
1000
0001
0010
0001
,  // measure 32
1000
0000
0001
0010
0001
1000
0100
1000
,  // measure 33
0001
0000
1000
0010
1000
0001
0100
0001
,  // measure 34
1000
0000
0001
0100
0001
1000
0010
1000
,  // measure 35
0001
0000
1000
0100
0010
0001
0010
0100
,  // measure 36
1000
0000
0001
0010
0100
1000
0100
0010
,  // measure 37
0001
0000
1000
0010
0100
0001
0010
0001
,  // measure 38
1000
1000
0000
0000
0000
0000
0010
0010
,  // measure 39
0010
0100
0010
0000
1000
0000
0100
0000
,  // measure 40
0010
0001
0010
0100
,  // measure 41
1000
0001
0010
0100
,  // measure 42
1000
0100
0010
0001
,  // measure 43
1000
0100
0010
0001
,  // measure 44
0010
0100
1000
0001
,  // measure 45
0010
0100
1000
0100
,  // measure 46
0010
0000
0001
0000
0010
0000
0100
1000
,  // measure 47
0100
1000
0002
0000
0203
0000
0310
0000
,  // measure 48
0100
0020
2030
3010
,  // measure 49
0100
0010
0000
0100
,  // measure 50
0000
0000
0001
0010
0100
1000
0100
0010
,  // measure 51
0001
1001
1000
0001
,  // measure 52
1000
0001
1000
0001
,  // measure 53
1000
0010
0100
0010
,  // measure 54
0100
0010
0100
0010
,  // measure 55
0100
0000
0000
0000
0001
0000
0010
0000
0100
0000
1000
0000
0001
0000
0000
0100
,  // measure 56
0000
0000
0010
0000
1000
0000
0100
0000
0010
0000
0001
0000
1000
0000
0000
0010
,  // measure 57
0000
0000
0000
0100
0010
0000
0000
0010
0100
0000
0000
0001
1000
0000
0000
1000
,  // measure 58
0001
0100
0020
0000
0000
0000
0000
0000
,  // measure 59
0000
0000
1030
0100
1000
0010
1000
0100
,  // measure 60
0001
0010
0001
0100
0001
0010
0001
0100
,  // measure 61
1000
0010
1000
0100
1000
0010
1000
0100
,  // measure 62
0001
0010
0001
0100
0001
0010
0001
0100
,  // measure 63
1000
0010
1000
0100
1000
0010
1000
0100
,  // measure 64
0010
0001
0100
0010
0100
0001
1000
0001
,  // measure 65
0100
0010
1000
0100
0010
0001
0010
0100
,  // measure 66
1000
1000
0000
0000
0000
0000
0000
0000
,  // measure 67
0000
0000
1001
0000
0100
0000
0010
1000
,  // measure 68
0100
0010
0001
0000
0100
0000
0001
0010
,  // measure 69
0100
1000
0010
0000
0100
0000
0001
0010
,  // measure 70
0100
1000
0010
0000
0100
0000
0010
1000
,  // measure 71
0100
0010
0001
0000
0100
0000
0001
0010
,  // measure 72
0001
0000
0100
0000
0010
0000
1000
0100
,  // measure 73
1000
0000
0010
0000
0100
0000
0010
0100
,  // measure 74
0010
2000
0000
3002
,  // measure 75
0000
0000
1003
0001
0000
0000
0100
0010
,  // measure 76
0000
0000
1000
0100
0000
0000
0010
0001
,  // measure 77
0000
0010
0100
0000
0000
0000
1000
0100
,  // measure 78
0010
0001
0010
0100
1000
0100
0010
0001
,  // measure 79
0100
0010
2000
0000
0000
0000
3002
0000
,  // measure 80
0000
0023
0000
0230
,  // measure 81
0000
2300
0000
0000
,  // measure 82
0000
3002
0000
0203
,  // measure 83
0020
0330
0000
0000
;

//---------------dance-single - ----------------
#NOTES:
     dance-single:
     :
     Challenge:
     8:
     0.491,0.599,0.146,0.206,0.161: // measure 1
0000
0000
0000
0000
,  // measure 2
0000
0000
0000
0000
,  // measure 3
0000
2002
0000
0000
,  // measure 4
3000
0203
0000
0320
,  // measure 5
0000
2000
0000
0000
,  // measure 6
0030
3002
0000
2000
,  // measure 7
3003
0000
0000
0000
1001
0000
0000
0000
0001
0000
0000
0001
1000
0000
0000
0000
,  // measure 8
1000
0000
0000
0000
0010
0000
0000
0000
0010
0000
0000
0010
0100
0000
0000
0000
,  // measure 9
0100
0000
0110
0000
0001
0010
0100
1000
,  // measure 10
0010
0100
0001
0010
0001
0010
1000
0100
,  // measure 11
1000
0100
0001
0100
0001
0010
0001
1000
,  // measure 12
0100
0000
1000
0010
0100
0001
0010
0100
,  // measure 13
1000
0001
1100
0000
0010
0000
0011
0000
,  // measure 14
0100
1001
0101
1010
,  // measure 15
0100
1000
0100
1000
0100
0000
0000
1000
0000
0000
0001
0000
0010
0000
0000
0001
,  // measure 16
0000
0000
0100
0000
0010
0000
0010
1000
0000
0000
0100
0000
0010
0001
0000
0010
,  // measure 17
0000
0001
0100
0000
0000
0010
0000
0100
0010
0000
0000
1000
0000
0000
0001
0000
,  // measure 18
1000
0001
0000
0000
0100
0000
0001
0000
0010
0000
0001
0100
0000
0010
0100
0000
,  // measure 19
0010
0000
1000
0000
0010
0000
0000
1000
0000
0000
0010
1000
0000
0010
0100
0000
,  // measure 20
0010
0000
0100
0000
0001
0000
0000
0000
0100
0000
0000
0010
0100
0000
0010
0000
,  // measure 21
1000
0001
1000
0000
0001
0000
0010
0000
0001
0000
0100
0000
0001
0000
0010
0000
,  // measure 22
0100
0000
1001
0000
0000
0000
0000
0000
0000
0000
0000
0000
1000
0001
0000
0001
,  // measure 23
1000
0000
0010
0000
0100
0000
0000
0001
0000
0000
0010
0000
0001
0000
0000
1000
,  // measure 24
0000
0000
0010
0000
0100
0000
0001
0000
0100
0000
0000
0001
0000
0000
0010
0000
,  // measure 25
0100
0000
1000
0000
0010
0000
0100
0000
0010
0000
0000
0100
0000
0000
0010
0000
,  // measure 26
1000
0100
0010
0001
0010
0001
0010
0100
,  // measure 27
1000
0000
0000
0000
0100
1000
0100
0000
1000
0000
0010
0000
0100
0001
0100
0000
,  // measure 28
0001
0000
0010
0000
0001
0000
0010
0000
0100
0000
1000
0000
0010
1000
0010
0000
,  // measure 29
0100
0010
0101
0000
0010
0000
1010
0000
,  // measure 30
1000
0110
0001
0010
,  // measure 31
0100
0000
1001
0100
1000
0100
0001
0100
,  // measure 32
1000
0000
0001
0010
1000
0010
0001
0010
,  // measure 33
1000
0000
0001
0100
1000
0100
0001
0100
,  // measure 34
1000
0000
0001
0010
1000
0010
0001
1000
,  // measure 35
0000
0100
0000
0000
0001
0000
0100
0000
1000
0000
0100
0000
0001
0000
0010
0000
,  // measure 36
0000
1000
0000
0000
0100
0000
0010
0000
0001
0000
0010
0000
1000
0000
0100
0000
,  // measure 37
0000
0001
0000
0000
0100
0000
1000
0000
0001
0000
0100
0000
1000
0000
0100
0000
,  // measure 38
0010
0001
0000
0000
0000
0000
1000
0100
,  // measure 39
0010
0000
0001
0010
0001
0000
0100
0000
0000
0000
0010
0000
0000
0000
0100
0000
,  // measure 40
0010
1000
0000
0010
0000
0100
0000
0010
,  // measure 41
0100
0001
0000
0010
0000
0001
0000
1000
,  // measure 42
0010
0100
0000
0010
0000
0100
0000
0001
,  // measure 43
0100
0010
0000
1000
0100
0010
0001
0010
,  // measure 44
0100
0000
1000
0010
0000
0000
0001
0000
0010
0000
0100
0000
1000
0000
0010
0000
,  // measure 45
0100
0000
0001
0100
0000
0000
1000
0000
0010
0000
0100
0000
0001
0000
0010
0000
,  // measure 46
0100
0000
1000
0000
0000
0000
1000
0000
0100
0000
0010
0001
0000
0000
0100
0000
,  // measure 47
0010
0100
1002
0000
0023
0000
0031
0010
,  // measure 48
0100
1000
0020
0000
1030
0100
0010
0001
,  // measure 49
0100
0000
0010
0100
0001
0000
0000
0000
0001
0000
0010
0100
1000
0100
0010
0001
,  // measure 50
0100
0010
0100
0000
0001
0010
0100
1000
0100
0010
0001
0100
0010
0000
0000
0000
,  // measure 51
1000
0000
1002
0000
0000
0000
0010
0013
,  // measure 52
0000
0000
2001
0000
0000
0000
0010
3010
,  // measure 53
0000
0000
1020
0000
0000
0000
0100
0130
,  // measure 54
0000
0000
0201
0000
0000
0000
0010
0310
,  // measure 55
1000
0000
0100
0000
0010
0000
0001
0000
0100
0000
0010
0000
0100
0000
0000
0001
,  // measure 56
0000
1000
0100
0010
0001
0010
0001
0100
,  // measure 57
0010
0000
0000
1000
0100
0000
0000
0100
0010
0000
0000
0010
0001
0000
0000
0001
,  // measure 58
1000
0100
1000
0100
0001
0100
1000
0010
,  // measure 59
0001
0000
0010
0000
1000
0000
0010
0000
0100
0000
0001
0000
0010
0001
0010
0000
,  // measure 60
0001
0000
0100
0000
0001
0000
0010
0000
0100
0000
1000
0000
0001
0010
0001
0000
,  // measure 61
0100
0010
1000
0100
0001
0100
1000
0100
,  // measure 62
0001
0100
1000
0010
0001
0010
1000
0010
,  // measure 63
0001
0000
1000
0010
0001
0010
1000
0010
,  // measure 64
0001
0010
1000
0100
0001
0100
1000
0100
,  // measure 65
0001
0100
1000
0100
0001
0010
0100
1000
,  // measure 66
0001
0020
0000
0000
0000
0000
0031
0100
,  // measure 67
0010
1000
1001
0000
0010
0100
0001
0100
,  // measure 68
1000
0100
0001
0000
0100
0010
1000
0010
,  // measure 69
0001
0010
1000
0010
0100
0001
0010
0100
,  // measure 70
1000
0001
0100
0000
0010
0100
0001
0100
,  // measure 71
1000
0100
0001
0000
1001
0000
0001
0100
,  // measure 72
0010
0100
0001
0000
1001
0000
1000
0010
,  // measure 73
0100
0010
1000
0000
1001
0000
0001
0010
,  // measure 74
0100
0010
0001
0000
1001
0000
1000
0100
,  // measure 75
0010
0100
1001
0020
0000
0000
0031
0200
,  // measure 76
0000
0000
0310
2000
0000
0000
3010
0100
,  // measure 77
0000
0100
0002
0000
0000
0000
0103
0010
,  // measure 78
1000
0100
0010
0001
0100
0010
1000
0100
,  // measure 79
1000
0001
0020
0000
0032
0000
0023
0000
,  // measure 80
0230
2300
3200
0320
,  // measure 81
0032
0203
0000
0320
,  // measure 82
0230
0320
2030
3002
,  // measure 83
2000
3003
0000
0000
;

//---------------dance-single - ----------------
#NOTES:
     dance-single:
     :
     Medium:
     5:
     0.311,0.400,0.079,0.176,0.000: // measure 1
0000
0000
0000
0000
,  // measure 2
0000
0000
0000
0000
,  // measure 3
0000
2001
0000
0000
,  // measure 4
0000
0000
0000
3002
,  // measure 5
0000
0203
0000
0000
,  // measure 6
0000
0000
0000
0310
,  // measure 7
0000
1000
0100
0010
,  // measure 8
0001
0010
0001
0010
,  // measure 9
0001
0010
0100
1000
,  // measure 10
0100
1000
0100
1000
,  // measure 11
0010
0100
0001
0010
,  // measure 12
0001
0100
0010
1000
,  // measure 13
0001
2000
0000
3020
,  // measure 14
0000
0130
0001
0010
,  // measure 15
0100
0000
1001
0000
1000
0000
0001
1000
,  // measure 16
0001
0000
0010
0100
0000
1000
0010
1000
,  // measure 17
0010
0000
0100
0010
0100
0000
0010
0100
,  // measure 18
0001
0000
0100
0010
1000
0000
0010
0100
,  // measure 19
0010
0000
0100
0000
0001
0000
0010
0100
,  // measure 20
1000
0000
0110
0000
1001
0000
1000
0100
,  // measure 21
0010
0001
0020
0000
0000
0000
0032
0000
,  // measure 22
1000
1003
0000
0000
0000
0000
0110
0000
,  // measure 23
0000
0000
1001
0000
1000
0001
1000
0000
,  // measure 24
0010
0000
0100
0010
0100
0000
0001
0000
,  // measure 25
1001
0000
1000
0001
1000
0000
0010
0000
,  // measure 26
1000
0000
0001
0100
0001
0000
0100
0000
,  // measure 27
0001
1000
0100
0010
,  // measure 28
0001
0000
1000
0001
1000
0000
0010
0000
,  // measure 29
0100
0002
0000
2003
,  // measure 30
0000
3010
0100
0010
,  // measure 31
0100
1001
0010
0001
,  // measure 32
1000
0100
1000
0010
,  // measure 33
0100
0001
0010
0001
,  // measure 34
1000
0002
0000
0000
,  // measure 35
1003
0020
0000
0000
,  // measure 36
0000
0230
0000
0000
,  // measure 37
0301
2000
0000
0000
,  // measure 38
0010
3010
0000
0000
0000
0000
0100
0100
,  // measure 39
0100
0010
0100
0000
0001
0000
0010
0000
,  // measure 40
0100
1000
0100
0010
,  // measure 41
0001
1000
0100
0010
,  // measure 42
0001
0010
0100
1000
,  // measure 43
0001
0010
0100
1000
,  // measure 44
0100
0010
0001
1000
,  // measure 45
0100
0010
0001
0010
,  // measure 46
0100
0000
1000
0000
0010
0100
0010
1000
,  // measure 47
0000
0001
1000
0000
0100
0000
0010
0000
,  // measure 48
0100
1000
0100
0010
,  // measure 49
0001
0100
0000
0010
,  // measure 50
0100
0000
0001
0010
0100
1000
0010
0100
,  // measure 51
0001
1001
0001
1000
,  // measure 52
0001
1000
0001
1000
,  // measure 53
0001
0100
0010
0100
,  // measure 54
0010
0100
0010
0100
,  // measure 55
0010
2000
0010
3010
,  // measure 56
0100
0002
0100
0103
,  // measure 57
0010
0100
0010
1000
,  // measure 58
0001
0200
0000
0000
,  // measure 59
0000
0000
0301
0010
0001
0100
0001
0000
,  // measure 60
1001
0000
1000
0010
1000
0100
1000
0000
,  // measure 61
1001
0000
0001
0010
0001
0100
0001
0000
,  // measure 62
1001
0000
1000
0010
1000
0100
1000
0000
,  // measure 63
1001
0000
0001
0010
0001
0100
0001
0010
,  // measure 64
0100
1000
0010
0000
1000
0000
0001
0000
,  // measure 65
0100
0010
1000
0010
,  // measure 66
0100
0001
0000
0000
0000
0000
0000
0000
,  // measure 67
0000
0000
1000
0000
0010
0000
0100
0001
,  // measure 68
0010
0100
1000
0000
0010
0000
1000
0100
,  // measure 69
0010
0001
0100
0000
0010
0000
1000
0100
,  // measure 70
0010
0001
0100
0000
0010
0000
1000
0100
,  // measure 71
0010
0001
0100
0000
0010
0000
1000
0000
,  // measure 72
0001
0010
0001
0010
,  // measure 73
0100
1000
0010
1000
,  // measure 74
0001
0100
0000
0010
,  // measure 75
0000
2000
0000
3020
,  // measure 76
0000
0230
0000
0302
,  // measure 77
0000
0000
2003
0000
0000
0000
3001
0010
,  // measure 78
0100
1000
0100
0010
0001
0010
0100
1000
,  // measure 79
0010
0100
0002
0000
0000
0000
2003
0000
,  // measure 80
0000
3200
0000
0320
,  // measure 81
0000
0032
0000
0000
,  // measure 82
0000
2003
0000
3020
,  // measure 83
0200
0330
0000
0000
;
