#TITLE:Votum stellarum;
#SUBTITLE:-forest #25 RMX-;
#ARTIST:iconoclasm;
#TITLETRANSLIT:;
#SUBTITLETRANSLIT:;
#ARTISTTRANSLIT:;
#CREDIT:DMAxel;
#BANNER:Votum stellarum -forest #25 RMX-.png;
#BACKGROUND:Votum stellarum -forest #25 RMX--bg.png;
#LYRICSPATH:;
#CDTITLE:pop'n music.png;
#MUSIC:Votum stellarum -forest #25 RMX-.mp3;
#OFFSET:0.060;
#SAMPLESTART:43.217;
#SAMPLELENGTH:12.000;
#SELECTABLE:YES;
#BPMS:0.000=140.000,165.000=70.000,181.000=140.000;
#STOPS:;
#BGCHANGES:;

//---------------dance-single - ----------------
#NOTES:
     dance-single:
     :
     Easy:
     3:
     0.165,0.247,0.107,0.029,0.000:
0000
0000
0000
0000
,
0000
0000
0000
0000
,
0000
0000
0000
0000
,
0000
0000
0000
0000
,
0000
0000
0000
0000
,
0000
0000
0000
0000
,
0000
0000
0000
0000
,
0000
0000
0000
0000
,
0000
0001
0000
0000
,
0000
1000
0000
0000
,
0000
0001
0000
0000
,
0000
1000
0000
0000
,
0000
0010
0000
0000
,
0000
0100
0000
0000
,
0000
0010
0000
1000
,
0000
0100
0000
0010
,
0000
0000
0000
0000
,
0000
1001
0000
0010
,
0000
0010
0000
0010
,
0000
0001
0000
0001
,
0000
0001
0000
0100
,
0010
1000
0000
1000
,
0000
1000
0000
0010
,
0000
0010
0100
0010
,
0100
0020
0000
0000
,
0030
1000
0000
0100
,
0000
1000
0000
0100
,
0000
0010
0000
0001
,
0000
0010
0000
0100
,
0000
1001
0000
0010
,
0000
0001
0000
0100
,
0000
0010
0000
1000
,
0000
0100
0000
1000
,
0000
1001
0000
0010
,
0000
0100
0000
0100
,
0000
0010
0000
0010
,
0000
1000
0000
0100
,
0000
1001
0000
0010
,
0000
0001
0000
1000
,
0000
0010
0000
0010
,
0000
0200
0000
0000
,
0300
1001
0000
0000
,
0000
0010
0000
0000
,
0000
0100
0000
0000
,
0000
0000
0010
0000
0000
0000
1000
0100
,
0010
1001
0010
0001
,
0010
0100
1000
0010
,
1000
0100
0010
0001
,
0100
0010
1000
0010
,
0010
0100
0001
0010
,
0100
1000
0010
0100
,
0100
0001
0100
0010
,
1000
0100
0010
0001
,
0010
1001
0000
0010
,
0000
0100
0000
1000
,
0000
0010
0000
0100
,
0000
0001
0000
0010
,
1001
0100
0000
1000
,
0000
0100
0000
0010
,
0000
0001
0000
1000
,
0000
0002
0000
0000
,
1003
1001
0010
0001
,
0001
0010
0100
1000
,
1000
0010
0100
0001
,
0001
0100
0010
1000
,
1000
1001
0000
0010
,
0000
1001
0100
0010
,
1000
0100
0000
1001
,
0110
1002
0000
0000
,
1003
0110
0000
0000
;

//---------------dance-single - ----------------
#NOTES:
     dance-single:
     :
     Hard:
     7:
     0.392,0.405,0.214,0.057,0.193: // measure 1
0000
0000
0000
0000
,  // measure 2
0000
0000
0000
0000
,  // measure 3
0000
0000
0000
0000
,  // measure 4
0000
0000
0000
0000
,  // measure 5
0000
0000
0000
0000
,  // measure 6
0000
0000
0000
0000
,  // measure 7
0000
0000
0000
0000
,  // measure 8
0000
0000
0000
0000
,  // measure 9
0000
0000
0000
1000
0000
0100
1000
0000
0100
1000
0000
0100
,  // measure 10
0010
0000
0000
0001
0000
0010
0001
0000
0010
0001
0000
0010
,  // measure 11
0100
0000
0000
1000
0000
0010
1000
0000
0010
1000
0000
0100
,  // measure 12
0010
0000
0000
0001
0000
0100
0001
0000
0100
0001
0000
0010
,  // measure 13
0100
0000
0000
1000
0000
0010
0100
0000
0010
0100
0000
0000
,  // measure 14
1001
0000
0000
0001
0000
0100
0010
0000
0100
0010
0000
0000
,  // measure 15
1001
0000
0000
1000
0000
0010
0100
0000
0100
0001
0000
0001
,  // measure 16
0010
0000
0000
0100
0000
1000
0010
0000
0000
0100
0000
0001
,  // measure 17
0100
0001
0100
0000
0000
0000
0000
0000
0000
0000
0000
0000
,  // measure 18
0000
0000
1001
0000
0100
0000
0100
0010
,  // measure 19
0100
0000
0100
0000
0010
0000
0010
0100
,  // measure 20
0010
0000
0010
0000
0100
0000
0100
0010
,  // measure 21
0100
0000
0100
0000
0010
0000
0100
0010
,  // measure 22
1000
0100
0010
0000
0001
0010
0100
0000
,  // measure 23
1000
0000
0000
0010
1000
0000
0000
0000
0100
0000
0010
0000
0001
0000
0000
0000
,  // measure 24
0010
0000
0000
0001
0100
0000
0010
0000
0100
0000
0000
0000
0001
0000
1000
0000
,  // measure 25
0001
0000
1000
0100
0010
0001
0010
1000
,  // measure 26
0100
0000
0000
0000
1001
0000
0100
1000
0000
0000
0010
0000
1000
0000
0100
0000
,  // measure 27
0010
0000
0001
0010
0001
0000
0100
0010
,  // measure 28
1000
0100
1000
0000
0100
0010
0001
0000
,  // measure 29
0010
0001
0100
0000
0010
0000
0100
0000
,  // measure 30
0010
0000
1001
0000
0100
1000
0010
0000
,  // measure 31
0100
0001
0010
0000
0100
1000
0100
0000
,  // measure 32
1000
0100
0010
0000
0100
0000
0010
0000
,  // measure 33
0100
0000
0010
0001
0010
0100
1000
0010
,  // measure 34
0100
0000
0000
0000
1001
0000
0000
0000
0100
0000
0000
1000
0010
0000
0100
0000
,  // measure 35
0010
0000
0000
0000
0100
0000
0010
0000
0100
0000
0000
0001
0100
0000
0010
0000
,  // measure 36
0100
0000
0000
0000
0010
0000
0100
0000
0010
0000
0000
1000
0010
0000
0100
0000
,  // measure 37
0001
0010
0100
0100
1000
0010
0010
0000
,  // measure 38
0110
0000
1001
0000
0100
1000
0010
0100
,  // measure 39
0010
0000
1000
0010
0001
0100
0010
0100
,  // measure 40
0001
0010
0100
0000
1001
0000
0110
0000
,  // measure 41
1001
0000
0110
0000
1000
0100
0010
0001
,  // measure 42
0100
2001
0000
0000
,  // measure 43
0000
3100
0000
0000
,  // measure 44
0000
1002
0000
0000
,  // measure 45
0000
0000
0013
0000
0000
0000
0011
0011
,  // measure 46
0100
1000
0100
0000
1001
0000
0000
0100
0000
0000
1000
0000
0001
0000
0000
0010
,  // measure 47
0000
0000
0001
0000
1000
0000
0000
0010
0000
0000
0100
0000
0010
0000
0100
0000
,  // measure 48
0010
0000
0000
0000
1000
0000
0000
0010
0000
0000
0100
0000
0010
0000
0000
0100
,  // measure 49
0000
0000
0001
0000
0100
0000
0000
0010
0000
0000
1000
0000
0001
0000
1000
0000
,  // measure 50
0001
0000
0000
0000
1000
0000
0000
0010
0000
0000
1000
0000
0001
0000
0000
0010
,  // measure 51
0000
0000
0001
0000
1000
0000
0000
0010
0000
0000
0100
0000
0010
0000
0100
0000
,  // measure 52
0010
0000
0000
0000
1000
0000
0000
0010
0000
0000
0100
0000
0010
0000
0000
0100
,  // measure 53
0000
0001
0011
0000
1100
0000
1001
0000
,  // measure 54
0000
0000
0000
0000
0110
0000
0000
0000
1000
0000
0000
0000
0100
0000
0000
1000
,  // measure 55
0000
0000
0100
0000
0010
0000
0000
0000
0001
0000
0000
0000
0100
0000
0000
0001
,  // measure 56
0000
0000
0010
0000
0100
0000
0000
0000
1000
0000
0000
0000
0010
0000
0000
1000
,  // measure 57
0000
0100
0010
0000
0001
0000
0010
0100
,  // measure 58
1001
0020
0000
0230
,  // measure 59
0000
0302
0000
2003
,  // measure 60
0000
3020
0000
0230
,  // measure 61
0000
0000
0000
0301
0100
0001
0100
0010
1000
0100
0000
0000
,  // measure 62
1001
0000
0000
0000
1001
0000
0010
0000
0100
0000
0000
0000
1000
0000
0010
0100
,  // measure 63
0000
0000
0001
0100
0010
0000
1000
0100
,  // measure 64
0010
0000
0000
0000
0001
0000
0100
0000
0010
0000
0000
0000
1000
0000
0010
0100
,  // measure 65
0000
0000
0010
0100
0010
0100
0001
0000
,  // measure 66
0110
0000
0000
0000
1001
0000
0000
0000
0100
0000
0000
1000
0010
0000
0000
0000
,  // measure 67
0100
0000
1001
0010
0001
1000
0100
1000
,  // measure 68
0001
0010
0100
0000
0000
0000
1001
0000
,  // measure 69
0110
0000
1000
0100
0001
0010
1000
0100
,  // measure 70
0110
0000
0000
0000
0001
0000
0010
0001
0000
0000
0100
0000
0010
0000
0000
1000
,  // measure 71
0000
0000
0100
0000
0010
0000
0000
0001
0000
0000
0100
0000
0010
0000
0100
0000
,  // measure 72
0010
0000
0000
0000
;

//---------------dance-single - ----------------
#NOTES:
     dance-single:
     :
     Challenge:
     8:
     0.505,0.582,0.250,0.029,0.296: // measure 1
0000
0000
0000
0000
,  // measure 2
0000
0000
0000
0000
,  // measure 3
0000
0000
0000
0000
,  // measure 4
0000
0000
0000
0000
,  // measure 5
0000
0000
0000
0000
,  // measure 6
0000
0000
0000
0000
,  // measure 7
0000
0000
0000
0000
,  // measure 8
0000
0000
0000
0000
,  // measure 9
0000
0000
0000
0001
0000
0010
0001
0010
0001
0010
0001
0010
,  // measure 10
0100
0000
0000
1000
0000
0100
1000
0100
1000
0100
1000
0100
,  // measure 11
0010
0000
0000
0001
0000
0100
0001
0100
0001
0100
0001
0010
,  // measure 12
0100
0000
0000
1000
0000
0010
1000
0010
1000
0010
1000
0100
,  // measure 13
0010
0000
0000
0001
0000
0100
0010
0000
0100
0010
0000
0000
,  // measure 14
1100
0000
0001
1000
0000
0010
0100
0000
0010
0100
0000
0000
,  // measure 15
0011
0000
1000
0001
0000
0100
0010
0000
0010
1000
0100
1000
,  // measure 16
0100
0000
0000
0010
0000
0001
0100
0001
0100
0010
0000
1000
,  // measure 17
0010
0000
1000
0000
0010
0000
0000
0000
0000
0000
0000
0000
0000
0000
0000
0000
0000
0000
0000
0000
0000
0100
0000
0000
,  // measure 18
0100
0000
1001
0000
0010
0001
0100
0001
,  // measure 19
0010
0000
0100
1000
0010
1000
0100
0010
,  // measure 20
0001
0000
0100
0001
0010
0001
0100
0010
,  // measure 21
1000
0000
0010
1000
0100
1000
0010
0100
,  // measure 22
0001
0010
0100
0000
1000
0100
0010
0001
,  // measure 23
0100
0000
0001
0100
0001
0000
0000
0000
0010
0000
0100
0000
1000
0000
0100
0000
,  // measure 24
1000
0000
0010
1000
0010
0000
0100
0000
0010
0000
0000
0000
1000
0000
0001
0000
,  // measure 25
1000
0000
0001
0010
1000
0100
0001
0010
,  // measure 26
0110
0000
0000
0000
1001
0000
0010
0001
0000
0000
0100
0000
0001
0000
0010
0000
,  // measure 27
0100
0000
1000
0100
1000
0000
0100
0000
1000
0000
0000
0000
0010
0000
0100
0000
,  // measure 28
0001
0000
0010
0001
0010
0000
0001
0000
0010
0000
0100
1000
0100
0000
1000
0000
,  // measure 29
0100
1000
0010
0000
0100
0001
0010
0001
,  // measure 30
0100
0000
1001
0000
0010
0001
0100
0001
,  // measure 31
0010
1000
0100
0001
0010
0001
0010
0001
,  // measure 32
1000
0000
0100
1000
0010
1000
0100
1000
,  // measure 33
0010
1000
0100
1000
0100
0010
0001
0100
,  // measure 34
0110
0000
0000
0000
1001
0000
0000
0000
0010
0000
0000
0001
0100
0000
0010
0000
,  // measure 35
0100
0000
0001
0000
0010
0000
0100
0000
1000
0000
0000
1000
0010
0000
0100
0000
,  // measure 36
0010
0000
1000
0000
0100
0000
0010
0000
0001
0000
0100
0001
0100
0000
0010
0000
,  // measure 37
1000
0100
0010
0010
0001
0100
0100
0010
,  // measure 38
0110
0000
1001
0100
0010
0001
0100
0010
,  // measure 39
0100
0000
1001
0100
1000
0010
0100
0010
,  // measure 40
1000
0100
0110
0000
1001
0000
0110
0000
,  // measure 41
1001
0000
0110
0000
0001
0010
0100
1000
,  // measure 42
0110
0000
0000
0000
0000
0000
0000
0000
1001
0000
0000
0010
0000
0000
0001
0000
0100
0000
0000
0010
0000
0000
0100
0000
0001
0000
0000
0010
0000
0000
0001
0000
,  // measure 43
0010
0100
1000
0000
0220
0000
0000
0000
0330
0000
0000
0000
0000
0000
0000
0000
,  // measure 44
0000
0000
0000
0000
0000
0000
0000
0000
1001
0000
0000
0010
0000
0000
1000
0000
0100
0000
0000
0010
0000
0000
0100
0000
1000
0000
0000
0010
0000
0000
1000
0000
,  // measure 45
0100
0010
0001
0000
0220
0000
0000
0000
0330
0000
0000
0000
1001
0000
0110
0000
,  // measure 46
0001
0100
0110
0000
1001
0000
0000
0010
0001
0000
0100
0000
0010
0000
0000
1000
,  // measure 47
0010
0000
0100
0000
0010
0000
0000
0100
0010
0000
1000
0000
0100
0000
0010
0000
,  // measure 48
0001
0000
0000
0000
1001
0000
0000
0010
1000
0000
0010
0000
0100
0000
0000
0001
,  // measure 49
0100
0000
0010
0000
0100
0000
0000
0001
1000
0000
0001
0000
0010
0000
0100
0000
,  // measure 50
1000
0000
0001
0001
0010
0100
1000
1000
,  // measure 51
0100
0010
0001
1000
0001
0100
0010
0100
,  // measure 52
0010
0000
1000
0010
0010
0100
0001
0100
,  // measure 53
0010
1000
0100
0001
0010
0100
1000
0010
,  // measure 54
0110
0000
0000
0000
1001
0000
0000
0000
0010
0000
0001
0000
0010
0000
0001
0100
,  // measure 55
0000
0000
0010
0000
0100
0000
0000
0000
0010
0000
1000
0000
0100
0000
1000
0010
,  // measure 56
0000
0000
0100
0000
0010
0000
0000
0000
0001
0000
0100
0000
0001
0000
0010
0001
,  // measure 57
0000
0010
0100
0000
1000
0100
0001
0010
,  // measure 58
0110
0000
1000
0100
0010
0000
0100
1000
,  // measure 59
0100
0000
0010
0001
0010
0000
0100
0010
,  // measure 60
0001
0000
0100
0010
1000
0000
0010
0100
,  // measure 61
0001
0000
0000
0000
0000
0000
1000
0000
0010
0000
1000
0000
0010
0000
0100
0000
0001
0000
0100
0000
0000
0010
0000
0000
,  // measure 62
0110
0000
0000
0000
1001
0000
0010
0000
0001
0000
0100
0000
0001
0000
0010
0100
,  // measure 63
0000
0000
1000
0010
0100
0010
1000
0100
,  // measure 64
0010
0000
0000
0000
0001
0000
0100
0000
0010
0000
0100
0000
0001
0000
0010
0100
,  // measure 65
0000
0000
1000
0100
0010
0001
0100
0010
,  // measure 66
0110
0000
0000
0000
1001
0000
0000
0000
0100
0000
0000
1000
0010
0000
0100
0000
,  // measure 67
0010
0000
0000
1000
0001
0000
0000
0001
0100
0000
0000
0100
0010
0000
1000
0000
,  // measure 68
0001
0010
0100
0000
1000
0000
0010
0100
,  // measure 69
0110
0000
1000
0100
0001
0010
1000
0100
,  // measure 70
0110
0000
0000
0000
0001
0000
0010
0001
0000
0000
0100
0000
0010
0000
0000
1000
,  // measure 71
0000
0000
0100
0000
0010
0000
0001
0010
0000
0000
0001
0000
0100
0000
0000
0010
;

//---------------dance-single - ----------------
#NOTES:
     dance-single:
     :
     Beginner:
     1:
     0.086,0.123,0.064,0.000,0.000:
0000
0000
0000
0000
,
0000
0000
0000
0000
,
0000
0000
0000
0000
,
0000
0000
0000
0000
,
0000
0000
0000
0000
,
0000
0000
0000
0000
,
0000
0000
0000
0000
,
0000
0000
0000
0000
,
0000
0000
0000
0000
,
0000
0000
0000
0000
,
0000
0000
0000
0000
,
0000
0000
0000
0000
,
0000
0000
0000
0000
,
0000
0000
0000
0000
,
0000
0000
0000
0000
,
0000
0000
0000
0000
,
0000
0000
0000
0000
,
0000
1001
0000
0000
,
1000
0000
1000
0000
,
1000
0000
1000
0000
,
1000
0000
1000
0000
,
0000
0000
0001
0000
,
0001
0000
0001
0000
,
0100
0000
0100
0000
,
0010
0000
0000
0000
,
0000
1001
0000
0000
,
0000
0010
0000
0001
,
0000
0010
0000
0000
,
0000
0001
0000
1000
,
0000
0001
0000
0000
,
0000
1000
0000
0100
,
0000
1000
0000
0000
,
0000
0010
0000
0100
,
0000
0010
0000
0000
,
0000
1000
0000
0000
,
0000
0001
0000
0000
,
0000
0010
0000
0000
,
0000
0100
0000
0000
,
0000
1000
0000
0000
,
0000
1001
0000
0010
,
0000
1001
0000
0000
,
0000
0100
0000
0000
,
0000
0000
0000
0000
,
0000
0000
0000
0000
,
0000
0000
0000
0000
,
0000
1001
0000
0000
,
0000
0010
0000
1000
,
0000
0010
0000
1000
,
0000
0001
0000
0100
,
0000
0001
0000
0100
,
0000
0010
0000
0100
,
0000
0010
0000
1000
,
0000
0100
0000
0010
,
0000
1001
0000
0000
,
0000
0100
0000
0000
,
0000
0010
0000
0000
,
0000
1000
0000
0000
,
0000
1001
0000
0010
,
0000
0100
0000
1000
,
0000
0010
0000
0100
,
0000
0010
0000
0000
,
0000
1000
0000
0001
,
0000
1000
0000
0010
,
0000
0100
0000
0001
,
0000
0010
0000
0001
,
0000
1001
0000
0100
,
0000
1000
0000
1000
,
0000
0001
0000
0000
,
0000
0000
0000
0000
,
0000
1001
0000
0000
;

//---------------dance-single - ----------------
#NOTES:
     dance-single:
     :
     Medium:
     5:
     0.280,0.356,0.193,0.164,0.000:
0000
0000
0000
0000
,
0000
0000
0000
0000
,
0000
0000
0000
0000
,
0000
0000
0000
0000
,
0000
0000
0000
0000
,
0000
0000
0000
0000
,
0000
0000
0000
0000
,
0000
0000
0000
0000
,
0000
0002
0000
0000
,
0000
2003
0000
0000
,
0000
3002
0000
0000
,
0000
0203
0000
0000
,
0000
0320
0000
0030
,
0000
0200
0000
0300
,
0000
0002
0000
0000
,
0000
2003
0000
0000
,
3000
0000
0000
0000
,
0000
0010
0010
0100
,
0010
1000
1000
0001
,
1000
0010
0010
0100
,
0010
1000
1000
0001
,
0010
1001
0010
0001
,
0010
0001
0010
0000
0100
0000
1000
0000
,
0100
1000
0100
0000
1001
0000
0010
0000
,
1001
0000
0000
0000
,
0000
0000
1001
0000
0010
0000
0001
0100
,
0010
0000
1000
0000
0010
0000
1000
0010
,
0100
0000
0001
0000
0100
0000
0001
0010
,
0100
0000
1000
0000
0010
0000
1000
0100
,
0010
1001
0010
0001
,
0100
0010
1000
0000
0100
1000
0010
0000
,
0100
0001
0010
0000
0100
0000
1000
0000
,
0001
0000
0100
0010
0100
0010
0100
0010
,
0100
0000
1001
0000
0010
0001
0001
0000
,
0010
0000
0100
0000
1000
0100
0100
0000
,
0010
0000
0001
0000
0010
0000
0001
0010
,
0100
1000
0010
0000
0100
0000
0010
1000
,
0100
0010
0001
0000
0010
0000
0001
0010
,
0100
0000
1001
0000
0010
0000
0100
0001
,
0010
1001
0100
1001
,
0010
0000
1001
0000
0000
0000
0000
0010
,
0010
1002
0000
0000
,
0000
0013
0000
0000
,
0000
2001
0000
0000
,
0000
0000
3100
0000
0000
0000
1000
0001
,
1000
0010
0100
0010
,
1000
0001
1000
0000
0010
0000
0100
0000
,
0010
0100
0010
0000
1000
0000
0010
0000
,
1000
0010
1000
0000
0010
0100
0010
0100
,
0010
1000
0100
0010
,
0001
0000
0010
0000
0001
1000
0001
1000
,
0001
0000
0010
0001
0100
0000
0010
1000
,
0100
1100
0011
1001
,
0000
0110
0001
0010
,
0100
1000
0010
0100
,
0001
0010
0100
1000
,
0100
0000
0010
0000
0001
0000
1000
0001
,
1000
0020
0000
0230
,
0000
0320
0000
0230
,
0000
0302
0000
2003
,
0000
3002
0000
0000
,
0003
0000
1001
0000
0010
0000
0001
1000
,
0001
0000
1001
0000
0100
0000
1000
0001
,
1000
0000
1001
0000
0010
0000
0001
1000
,
0001
0000
1001
0000
0100
0000
1000
0001
,
1000
0012
0000
0103
,
0000
1010
0110
0101
,
0110
2001
0000
3020
,
0000
0230
0000
0000
,
0300
1001
0010
0002
,
0000
1003
0100
2000
,
0000
3000
0000
0000
;
