#TITLE:Übertreffen;
#SUBTITLE:;
#ARTIST:TAKA respect for J.S.B.;
#TITLETRANSLIT:Ubertreffen;
#SUBTITLETRANSLIT:;
#ARTISTTRANSLIT:;
#CREDIT:DMAxel;
#BANNER:Ubertreffen.png;
#BACKGROUND:Ubertreffen-bg.png;
#LYRICSPATH:;
#CDTITLE:pop'n music.png;
#MUSIC:Ubertreffen.mp3;
#OFFSET:-6.180;
#SAMPLESTART:11.663;
#SAMPLELENGTH:12.000;
#SELECTABLE:YES;
#BPMS:0.000=174.000;
#STOPS:;
#BGCHANGES:;

//---------------dance-single - ----------------
#NOTES:
     dance-single:
     :
     Easy:
     4:
     0.363,0.456,0.450,0.180,0.000: // measure 1
1001
0000
0000
0000
,  // measure 2
0110
0000
0000
0000
,  // measure 3
1001
0000
0000
0000
,  // measure 4
1000
0001
2000
0000
,  // measure 5
3001
1001
0100
0010
,  // measure 6
0100
0001
1000
0100
,  // measure 7
0010
0001
0100
0001
,  // measure 8
1000
0100
1000
0001
,  // measure 9
1000
1001
0000
0101
,  // measure 10
0000
1100
0000
1001
,  // measure 11
0100
1100
0100
1100
,  // measure 12
0010
0011
0010
0011
,  // measure 13
2002
0000
3003
1001
,  // measure 14
0010
0100
0010
0100
,  // measure 15
2002
0000
3003
1001
,  // measure 16
0100
0010
0100
0010
,  // measure 17
2000
0000
3001
0010
,  // measure 18
0200
0000
1300
0100
,  // measure 19
0020
0000
0031
0010
,  // measure 20
0100
1000
0001
1000
,  // measure 21
0020
0000
1030
0100
,  // measure 22
0020
0000
0031
0010
,  // measure 23
0200
0000
1300
0100
,  // measure 24
0010
0002
1000
1003
,  // measure 25
0100
1100
0001
0010
,  // measure 26
0100
0000
0010
0001
,  // measure 27
1000
0000
0100
1000
,  // measure 28
0001
0100
0001
0100
,  // measure 29
0001
0010
0100
1000
,  // measure 30
0011
0000
0100
1000
,  // measure 31
0010
0000
0100
0001
,  // measure 32
0010
0000
0100
1000
,  // measure 33
1001
0000
0100
0001
,  // measure 34
0010
0100
1000
0001
,  // measure 35
0100
0010
1000
0100
,  // measure 36
0010
0001
1000
0001
,  // measure 37
0200
0000
0000
0000
,  // measure 38
0302
0000
0000
0000
,  // measure 39
2003
0000
0000
0000
,  // measure 40
3200
0000
0000
0000
,  // measure 41
1300
1000
1000
0000
,  // measure 42
0001
0001
0001
0000
,  // measure 43
1000
1000
1000
0000
,  // measure 44
1001
0000
1000
0000
,  // measure 45
1001
0000
0001
0000
,  // measure 46
1001
0000
0110
0000
,  // measure 47
1001
0010
0100
1000
,  // measure 48
0001
0011
0001
0011
,  // measure 49
1000
0010
0100
0001
,  // measure 50
1000
1100
1000
1100
,  // measure 51
0001
0100
0010
1000
,  // measure 52
0001
1001
0000
1100
,  // measure 53
0000
0011
0000
1001
,  // measure 54
0000
0101
0000
1010
,  // measure 55
0000
1001
0000
1001
,  // measure 56
0010
0100
0001
0010
,  // measure 57
0100
1000
0010
0100
,  // measure 58
1001
0000
0010
0010
,  // measure 59
1010
0000
0100
0100
,  // measure 60
0101
1001
0100
1001
,  // measure 61
0100
1001
0010
1001
,  // measure 62
0010
1001
0010
0100
,  // measure 63
1000
0000
2002
0000
,  // measure 64
0000
0000
0000
0000
,  // measure 65
0000
0000
0000
0000
,  // measure 66
0000
3003
0000
0000
;

//---------------dance-single - ----------------
#NOTES:
     dance-single:
     :
     Hard:
     8:
     0.603,0.554,0.530,0.040,0.000: // measure 1
0001
0001
0001
1001
,  // measure 2
1001
1000
1000
1001
,  // measure 3
1001
0001
0001
0001
,  // measure 4
0001
0010
0001
1000
0010
0100
0001
0000
,  // measure 5
1000
0010
1010
0000
0001
0010
0100
1000
,  // measure 6
0001
0000
0010
0100
0010
0001
0100
0001
,  // measure 7
1000
0100
0010
0001
1000
0000
1001
0000
,  // measure 8
1000
0100
0010
0001
1000
0000
1001
0000
,  // measure 9
0100
0000
0100
0001
1000
0000
0100
1000
,  // measure 10
0100
0000
0100
1000
0001
0000
0100
0001
,  // measure 11
1000
0100
1000
0000
0100
0010
0100
0000
,  // measure 12
1000
0100
1000
0000
0100
0010
0100
0000
,  // measure 13
1000
1000
1000
1000
1000
0000
1001
0000
,  // measure 14
0100
0101
1000
1001
,  // measure 15
0001
0001
0001
0001
0001
0000
1001
0000
,  // measure 16
0010
1010
0001
1001
,  // measure 17
1100
0000
0001
0010
0100
0010
0000
0001
,  // measure 18
0000
0001
1000
0100
0010
0100
0000
1000
,  // measure 19
0000
1000
0001
0010
0100
0010
0000
0001
,  // measure 20
0000
0001
1000
0100
0010
0001
1000
0010
,  // measure 21
0100
0001
1000
0100
0010
0100
0000
1000
,  // measure 22
0010
1000
0001
0010
0100
0010
0000
0001
,  // measure 23
0100
0001
1000
0100
0010
0100
0000
1000
,  // measure 24
0010
1000
0001
0010
0100
1000
0001
0000
,  // measure 25
0100
0000
0101
0000
1000
0100
1000
0100
,  // measure 26
0010
0000
1001
0000
0001
0010
0001
0010
,  // measure 27
0100
0000
1001
0000
1000
0100
1000
0100
,  // measure 28
0010
0001
0010
0001
1000
0010
1000
0010
,  // measure 29
0100
0101
0110
1010
,  // measure 30
1001
0000
0010
1000
0001
0010
0001
0000
,  // measure 31
1001
0000
0010
0001
1000
0010
1000
0000
,  // measure 32
1001
0000
0010
1000
0001
0010
0001
0000
,  // measure 33
1001
0000
1000
0000
0001
0100
0001
1000
,  // measure 34
0100
0010
0100
1000
0001
0010
0001
1000
,  // measure 35
0010
0100
0001
0010
0100
1000
0001
0100
,  // measure 36
0010
0100
0001
0010
0100
1000
0001
0000
,  // measure 37
0100
0001
1000
0100
0000
1000
0100
1000
,  // measure 38
0000
0001
0100
0001
0000
0100
0010
0100
,  // measure 39
0002
0100
1000
0100
,  // measure 40
2003
0100
0001
0100
,  // measure 41
3001
0000
1001
0000
1000
0000
0001
0100
,  // measure 42
1000
0000
1001
0000
0001
0000
1000
0100
,  // measure 43
0001
0000
1001
0000
1000
0000
0001
0100
,  // measure 44
1000
0101
1000
0101
,  // measure 45
1001
1100
0001
1100
,  // measure 46
1001
0110
1001
0110
,  // measure 47
1000
0100
0010
0001
0100
0010
1000
0000
,  // measure 48
0001
0100
0010
0100
0001
0100
1000
0100
,  // measure 49
0010
1001
0100
1001
,  // measure 50
1000
0010
0100
0010
1000
0100
0001
0100
,  // measure 51
0010
1001
0010
1001
,  // measure 52
0100
1100
0001
0101
,  // measure 53
1000
1010
0001
0011
,  // measure 54
0100
0110
1000
1001
,  // measure 55
0010
0110
0001
1001
,  // measure 56
1001
0000
0100
1000
0001
0100
0001
1000
,  // measure 57
0100
0001
0100
1000
0100
0010
0001
1000
,  // measure 58
1001
0000
0010
0001
1000
0010
0001
0010
,  // measure 59
1000
0000
0010
1000
0001
0100
1000
0100
,  // measure 60
0001
0100
0010
1000
0100
0000
1001
0000
,  // measure 61
0100
0000
1001
0000
0001
0010
1000
0010
,  // measure 62
0001
0100
0010
1000
0100
0010
0001
0100
,  // measure 63
1000
0000
2002
0000
,  // measure 64
0000
0000
0000
0000
,  // measure 65
0000
0000
0000
0000
,  // measure 66
0000
3003
0000
0000
;

//---------------dance-single - ----------------
#NOTES:
     dance-single:
     :
     Challenge:
     9:
     0.750,0.717,0.480,0.090,0.230: // measure 1
0001
0001
0001
0101
,  // measure 2
1100
1000
1000
1100
,  // measure 3
0101
0001
0001
1001
,  // measure 4
0010
0000
1000
0000
0010
0000
1000
0000
0001
0010
0001
0000
1000
0000
0010
0000
,  // measure 5
1000
0001
0011
0000
0100
1000
0100
0010
,  // measure 6
0100
0000
1001
0000
0010
0100
0010
0001
,  // measure 7
1000
0010
1000
0010
0100
0001
0100
0001
,  // measure 8
1000
0100
0010
0001
0100
1000
0100
0001
,  // measure 9
0100
0000
0000
0010
1000
0000
0001
0000
0001
0000
0000
0010
0001
0000
1000
0000
,  // measure 10
1000
0000
0000
0100
1000
0000
0001
0000
0001
0000
0000
0100
0001
0000
1000
0000
,  // measure 11
1000
0000
0100
1000
0100
0000
1000
0000
0001
0000
0100
0001
0100
0000
0001
0000
,  // measure 12
1000
0000
0010
1000
0010
0000
1000
0000
0001
0000
0010
0001
0010
0000
0100
0000
,  // measure 13
1000
1000
1000
1000
1001
0000
0011
0000
,  // measure 14
0100
1000
1010
0000
0001
0010
0100
1000
,  // measure 15
0001
0001
0001
0001
1001
0000
1100
0000
,  // measure 16
0001
0100
0101
0000
1000
0100
0010
0100
,  // measure 17
1000
0000
0001
0100
0001
0000
1000
0000
0100
0000
0020
0000
0000
0000
0001
0000
,  // measure 18
0031
0000
1000
0010
1000
0000
0001
0000
0010
0000
0200
0000
0000
0000
1000
0000
,  // measure 19
1300
0000
0001
0100
0001
0000
1000
0000
0100
0000
0020
0000
0000
0000
0001
0000
,  // measure 20
0031
1000
0100
1000
0001
0010
0100
0010
,  // measure 21
0001
0000
1000
0100
1000
0000
0001
0000
0100
0000
0020
0000
0000
0000
1000
0000
,  // measure 22
1030
0000
0001
0010
0001
0000
1000
0000
0010
0000
0200
0000
0000
0000
0001
0000
,  // measure 23
0301
0000
1000
0100
1000
0000
0001
0000
0100
0000
0020
0000
0000
0000
1000
0000
,  // measure 24
1030
0000
0001
0000
0010
0001
0010
0000
0001
0000
1000
0000
0010
0000
0000
0000
,  // measure 25
0100
0001
1000
0100
0010
0100
1000
0001
,  // measure 26
0100
0010
0100
0000
0010
0000
1000
0000
0001
0000
0010
0000
0100
0000
0010
0000
,  // measure 27
0001
1000
0001
0000
0010
0000
0001
0000
1000
0000
0100
0000
0010
0000
0100
0000
,  // measure 28
1000
0100
0001
0100
1000
0001
0100
0010
,  // measure 29
1000
0000
0010
0100
0010
0000
1000
0010
1000
0000
0001
0100
0001
0000
1000
0000
,  // measure 30
0010
0100
0010
0100
0010
0000
1000
0000
0010
0000
0100
0000
0001
0000
1000
0000
,  // measure 31
0010
0100
0010
0100
0010
0000
1000
0000
0100
0000
0010
0000
0001
0000
1000
0000
,  // measure 32
0010
0100
0010
0100
0010
0000
1000
0000
0001
0000
0010
0000
0100
0000
1000
0000
,  // measure 33
1001
0000
0000
0000
0100
0000
0001
0000
1000
0100
1000
0000
0001
0100
0001
0000
,  // measure 34
1000
0000
0100
0000
0010
0000
0001
0000
1000
0010
1000
0000
0001
0010
0001
0000
,  // measure 35
1000
0010
0100
0001
0100
1000
0100
0001
,  // measure 36
0100
0000
0010
0000
1000
0000
0010
0000
0100
0010
0100
0000
0001
0000
0010
0000
,  // measure 37
0100
1000
0010
0100
0000
0001
0100
1000
,  // measure 38
0000
0100
0010
0100
0000
1000
0100
0001
,  // measure 39
0000
0100
0010
1000
0100
0010
0001
1000
,  // measure 40
0001
0000
0010
0000
0100
0000
1000
0000
0001
0000
1000
0001
1000
0000
0000
0000
,  // measure 41
0101
0000
0000
0000
0101
0000
0000
0000
0010
0000
1000
0000
0100
0000
1000
0100
,  // measure 42
1000
0000
0000
0000
1100
0000
0000
0000
0010
0000
0001
0000
0100
0000
0001
0100
,  // measure 43
0001
0000
0000
0000
0101
0000
0000
0000
0010
0000
1000
0000
0100
0000
1000
0100
,  // measure 44
1000
1001
0100
1010
,  // measure 45
1001
0101
0100
0101
,  // measure 46
1001
0011
1001
1100
,  // measure 47
0001
0000
0010
0000
0100
0000
1000
0000
0010
0000
0100
0001
0200
0000
0000
0000
,  // measure 48
0301
0100
0101
0000
1000
0100
1100
0000
,  // measure 49
0010
0001
1000
0100
0010
0100
1001
0000
,  // measure 50
1000
0010
1010
0000
0001
0010
0011
0000
,  // measure 51
0100
1000
0001
0010
0100
0010
1001
0000
,  // measure 52
0010
0100
1001
0000
0010
0100
1001
0000
,  // measure 53
0100
0010
1001
0000
0100
0010
1001
0000
,  // measure 54
0100
1000
0101
0000
0100
0001
1100
0000
,  // measure 55
0010
1000
0011
0000
0100
0001
1100
0000
,  // measure 56
1001
0000
0010
1000
0010
0000
1000
0000
0001
0000
0001
0000
0100
0000
0010
1000
,  // measure 57
0010
0100
0001
0100
1000
0100
0010
0001
,  // measure 58
1001
0000
0000
0000
0100
0000
1000
0000
0001
0100
0001
0000
1000
0100
1000
0000
,  // measure 59
0001
0000
0000
0000
0001
1000
0001
0000
0100
0000
0010
0000
1000
0000
1000
0000
,  // measure 60
0001
0100
0110
0000
1000
0001
1001
0000
,  // measure 61
0010
0000
0100
0000
0110
0000
0000
0000
1000
0000
0001
0000
1000
0100
1000
0000
,  // measure 62
0001
0000
0100
0000
0010
1000
0010
0000
0100
0010
0100
0000
0001
0010
0001
0000
,  // measure 63
1001
0000
2002
0000
,  // measure 64
0000
0000
0000
0000
,  // measure 65
0000
0000
0000
0000
,  // measure 66
0000
3003
0000
0000
;

//---------------dance-single - ----------------
#NOTES:
     dance-single:
     :
     Medium:
     7:
     0.535,0.489,0.430,0.100,0.000: // measure 1
1000
1000
1000
1000
,  // measure 2
1001
0001
0001
0001
,  // measure 3
1001
1000
1000
1000
,  // measure 4
1001
0000
0001
0000
0100
0010
0100
0000
,  // measure 5
0001
0101
1000
0001
,  // measure 6
1001
0000
1000
0000
0010
1000
0010
0000
,  // measure 7
0100
0010
0100
0000
0010
0100
0010
0000
,  // measure 8
0100
0001
0100
0000
0010
1000
0001
0000
,  // measure 9
1000
1001
0010
1010
,  // measure 10
0100
0101
1000
1001
,  // measure 11
0100
0001
1000
0000
0100
1000
0001
0000
,  // measure 12
0100
0001
1000
0000
0100
1000
0001
0000
,  // measure 13
1001
0000
0001
0001
0001
0000
1001
0000
,  // measure 14
0010
0100
1000
0001
,  // measure 15
1001
0000
1000
1000
1000
0000
1001
0000
,  // measure 16
0100
0010
0001
1000
,  // measure 17
0110
0000
0001
0100
0001
2000
0000
0000
,  // measure 18
3001
0000
1000
0010
1000
0002
0000
0000
,  // measure 19
1003
0000
0001
0100
0001
2000
0000
0000
,  // measure 20
3001
0100
0010
0000
0100
0010
1000
0000
,  // measure 21
1001
0000
1000
0100
1000
0002
0000
0000
,  // measure 22
1003
0000
0001
0010
0001
2000
0000
0000
,  // measure 23
3001
0000
1000
0100
1000
0002
0000
0000
,  // measure 24
1003
0010
0100
0000
0010
0100
0001
0000
,  // measure 25
1001
0000
0100
0000
0010
0001
0010
0001
,  // measure 26
0010
0000
1001
0000
0100
1000
0100
1000
,  // measure 27
0100
0000
1001
0000
0100
0001
0100
0001
,  // measure 28
0100
0000
1001
0000
0010
1000
0010
1000
,  // measure 29
0010
1001
0100
0010
,  // measure 30
1001
0000
0010
0000
0100
1000
0001
0000
,  // measure 31
1000
0000
0010
0000
0100
0001
1000
0000
,  // measure 32
0100
0000
0010
0000
0001
1000
0010
0000
,  // measure 33
1001
0000
1000
0000
0010
1000
0010
0000
,  // measure 34
0100
0001
0100
0000
0010
1000
0001
0000
,  // measure 35
0100
0001
1000
0100
0010
0001
1000
0000
,  // measure 36
0010
1000
0001
0010
0100
1000
0001
0000
,  // measure 37
0100
0001
0000
1000
0000
0100
1000
0100
,  // measure 38
0000
1000
0000
0001
0000
0100
0001
1000
,  // measure 39
0100
1000
0001
0010
,  // measure 40
0100
0000
1000
0000
0010
0100
0010
0000
,  // measure 41
1000
0000
1000
0000
1000
0001
1000
0000
,  // measure 42
0001
0000
0001
0000
0001
1000
0001
0000
,  // measure 43
0100
0000
0100
0000
0100
0010
0100
0000
,  // measure 44
1001
0001
1000
1000
,  // measure 45
0011
1000
0001
0001
,  // measure 46
0110
1001
0110
1001
,  // measure 47
0100
0001
0100
0001
1000
0100
2000
0000
,  // measure 48
3001
0010
0100
0000
1000
0000
1010
0000
,  // measure 49
0001
0100
0001
1000
0100
1000
0001
0000
,  // measure 50
1000
0100
0010
0000
0001
0000
0101
0000
,  // measure 51
1000
0010
1000
0001
0010
0001
1000
0000
,  // measure 52
0001
1100
0001
1100
,  // measure 53
1000
0101
1000
0101
,  // measure 54
1000
1001
0001
1001
,  // measure 55
0100
0110
0010
0110
,  // measure 56
1001
0010
0100
1000
,  // measure 57
0010
0100
0001
0000
0100
0010
1000
0000
,  // measure 58
1001
0000
0000
0100
0001
0100
0001
1000
,  // measure 59
0100
0000
0010
0001
0010
0001
1000
0010
,  // measure 60
1000
1010
0001
0101
,  // measure 61
1000
0100
0010
0000
0001
0100
0010
1000
,  // measure 62
0002
0000
1000
0000
1003
0100
0010
0001
,  // measure 63
1000
0000
2002
0000
,  // measure 64
0000
0000
0000
0000
,  // measure 65
0000
0000
0000
0000
,  // measure 66
0000
3003
0000
0000
;

//---------------dance-single - ----------------
#NOTES:
     dance-single:
     :
     Beginner:
     2:
     0.143,0.187,0.170,0.000,0.000: // measure 1
1000
0000
0000
0000
,  // measure 2
1000
0000
0000
0000
,  // measure 3
1000
0000
0000
0000
,  // measure 4
1000
0000
0000
0000
,  // measure 5
1001
0000
0001
0000
,  // measure 6
1000
0000
0001
0000
,  // measure 7
1000
0000
0001
0000
,  // measure 8
1000
0000
0001
0000
,  // measure 9
0010
0000
0100
0000
,  // measure 10
0010
0000
0100
0000
,  // measure 11
1000
0000
0001
0000
,  // measure 12
1000
0000
0001
0000
,  // measure 13
1001
0000
0000
0000
,  // measure 14
1000
0000
0001
0000
,  // measure 15
1001
0000
0000
0000
,  // measure 16
0001
0000
1000
0000
,  // measure 17
1001
0000
0000
0000
,  // measure 18
0001
0000
0000
0000
,  // measure 19
1000
0000
0000
0000
,  // measure 20
0001
0000
0000
0000
,  // measure 21
0100
0000
0000
0000
,  // measure 22
0010
0000
0000
0000
,  // measure 23
0100
0000
0000
0000
,  // measure 24
0010
0000
0000
0000
,  // measure 25
1001
0000
0000
0000
,  // measure 26
1000
0000
0000
0000
,  // measure 27
0001
0000
0000
0000
,  // measure 28
0001
0000
0000
0000
,  // measure 29
1000
0000
0000
0000
,  // measure 30
1001
0000
0000
0000
,  // measure 31
0010
0000
0000
0000
,  // measure 32
0100
0000
0000
0000
,  // measure 33
1001
0000
0000
0000
,  // measure 34
1000
0000
0000
0000
,  // measure 35
0001
0000
0000
0000
,  // measure 36
1000
0000
0000
0000
,  // measure 37
0001
0000
0000
0000
,  // measure 38
0001
0000
0000
0000
,  // measure 39
1000
0000
0000
0000
,  // measure 40
1000
0000
0000
0000
,  // measure 41
1001
0000
0000
0000
,  // measure 42
0001
0000
0000
0000
,  // measure 43
1000
0000
0000
0000
,  // measure 44
1001
0000
0000
0000
,  // measure 45
1001
0000
0000
0000
,  // measure 46
0001
0000
0001
0000
,  // measure 47
0001
0000
0000
0000
,  // measure 48
1001
0000
0000
0000
,  // measure 49
1000
0000
0000
0000
,  // measure 50
0001
0000
0000
0000
,  // measure 51
1000
0000
0000
0000
,  // measure 52
0000
1001
0000
0001
,  // measure 53
0000
1000
0000
0001
,  // measure 54
0000
1001
0000
1000
,  // measure 55
0000
0001
0000
1000
,  // measure 56
0000
0001
0000
0000
,  // measure 57
0000
0000
0000
0000
,  // measure 58
1001
0000
1000
0000
,  // measure 59
0001
0000
1000
0000
,  // measure 60
1000
0000
1001
0000
,  // measure 61
0001
0000
1001
0000
,  // measure 62
0010
0000
0100
0000
,  // measure 63
1000
0000
1001
0000
;
