#TITLE:UNLIMITED;
#SUBTITLE:;
#ARTIST:NMR;
#TITLETRANSLIT:;
#SUBTITLETRANSLIT:;
#ARTISTTRANSLIT:;
#CREDIT:DMAxel;
#BANNER:UNLIMITED.png;
#BACKGROUND:UNLIMITED-bg.png;
#LYRICSPATH:UNLIMITED.lrc;
#CDTITLE:pop'n music.png;
#MUSIC:UNLIMITED.mp3;
#OFFSET:-10.260;
#SAMPLESTART:47.020;
#SAMPLELENGTH:12.000;
#SELECTABLE:YES;
#BPMS:0.000=150.000;
#STOPS:;
#BGCHANGES:0.000=1.avi=1.000=1=0=1,
3.500=white.PNG=1.000=0=0=1,
4.000=ice_frame.gif.AVI=0.800=1=0=1,
8.000=white.PNG=1.000=1=0=1,
9.000=1.avi=1.000=1=0=1,
12.000=1.png=1.000=0=0=1,
12.750=2.png=1.000=0=0=1,
13.500=3.png=1.000=0=0=1,
14.000=4.png=1.000=0=0=1,
14.500=timer_16frame_great.gif.AVI=0.800=0=0=1,
15.500=white.PNG=1.000=0=0=1,
16.000=UNLIMITED-bg.png=1.000=1=0=1,
19.000=white.PNG=1.000=1=0=1,
21.000=Blizzard1.avi=1.000=1=0=1,
36.000=Star1.avi=1.000=0=0=1,
51.000=white.PNG=1.000=1=0=1,
52.000=Cyber1.avi=1.000=1=0=1,
68.000=11.avi=1.000=0=0=1,
75.000=white.PNG=1.000=0=0=1,
76.000=timer_16frame.gif.AVI=1.000=1=0=1,
82.000=timer_16frame_great.gif.AVI=0.500=0=0=1,
83.500=white.PNG=1.000=0=0=1,
84.000=ice_frame.gif.AVI=1.000=1=0=1,
87.500=white.PNG=1.000=0=0=1,
88.000=1.avi=1.000=1=0=1,
91.500=white.PNG=1.000=0=0=1,
92.000=timer_16frame.gif.AVI=1.000=1=0=1,
100.000=Wheel1.avi=1.000=1=0=1,
108.000=trance8=1.000=1=0=1,
116.000=11.avi=1.000=1=0=1,
121.500=white.PNG=1.000=0=0=1,
122.000=timer_16frame_great.gif.AVI=0.500=1=0=1,
124.500=2.avi=1.000=1=0=1,
139.500=white.PNG=1.000=0=0=1,
140.000=Star2R.avi=1.000=1=0=1,
154.000=white.PNG=1.000=1=0=1,
156.000=1.png=1.000=1=0=1,
158.000=2.png=1.000=0=0=1,
160.000=3.png=1.000=0=0=1,
162.000=4.png=1.000=0=0=1,
163.000=white.PNG=1.000=0=0=1,
164.000=ice_frame.gif.AVI=0.700=1=0=1,
171.500=white.PNG=1.000=0=0=1,
172.000=timer_16frame.gif.AVI=1.000=1=0=1,
176.000=timer_16frame_great.gif.AVI=0.500=0=0=1,
178.000=white.PNG=1.000=0=0=1,
179.000=1.avi=1.000=1=0=1,
183.000=white.PNG=1.000=0=0=1,
184.000=timer_16frame.gif.AVI=1.000=1=0=1,
191.000=Cyber1.avi=1.000=1=0=1,
200.000=trance8=1.000=1=0=1,
208.000=Star1.avi=1.000=1=0=1,
215.000=white.PNG=1.000=0=0=1,
216.000=timer_16frame.gif.AVI=1.000=1=0=1,
224.000=Blizzard1.avi=1.000=1=0=1,
232.000=trance8=1.000=1=0=1,
240.000=Star2R.avi=1.000=1=0=1,
248.000=timer_16frame.gif.AVI=1.000=1=0=1,
256.000=2.avi=1.000=1=0=1,
261.500=white.PNG=1.000=0=0=1,
262.000=timer_16frame_great.gif.AVI=0.700=1=0=1,
264.000=UNLIMITED-bg.png=1.000=0=0=1,
99999=-nosongbg-=1.000=0=0=0 // don't automatically add -songbackground-
;

//---------------dance-single - ----------------
#NOTES:
     dance-single:
     :
     Easy:
     3:
     0.190,0.275,0.217,0.075,0.000: // measure 1
1001
0000
0000
0000
,  // measure 2
0000
0000
0000
0000
,  // measure 3
0110
0000
0000
0000
,  // measure 4
0000
0000
0001
0001
,  // measure 5
1001
0000
0000
0000
,  // measure 6
1000
0000
1000
0000
,  // measure 7
0010
0000
0010
0000
,  // measure 8
1000
0000
0001
0000
,  // measure 9
0100
0000
0100
0000
,  // measure 10
0001
0000
1001
0000
,  // measure 11
1000
0000
1001
0000
,  // measure 12
0001
0000
0001
0000
,  // measure 13
0100
0000
0000
0000
,  // measure 14
0010
0000
0010
0000
,  // measure 15
0100
0000
0010
0100
,  // measure 16
0010
0000
0010
0000
,  // measure 17
1000
0000
0001
1000
,  // measure 18
0001
0000
0100
0000
,  // measure 19
0001
0000
1000
0001
,  // measure 20
1000
0000
0001
0000
,  // measure 21
1000
0000
0000
0000
,  // measure 22
0002
0000
0000
0000
,  // measure 23
2003
0000
0000
0000
,  // measure 24
3010
0000
0010
0000
,  // measure 25
0100
0000
0100
0000
,  // measure 26
0001
0000
1000
0000
,  // measure 27
0001
0000
0010
0000
,  // measure 28
1001
0000
1000
0000
,  // measure 29
0010
0000
1000
0000
,  // measure 30
1001
0000
0100
0000
,  // measure 31
0010
0000
0000
0000
,  // measure 32
0220
0000
0000
0330
,  // measure 33
2002
0000
0000
3003
,  // measure 34
0220
0000
0000
0330
,  // measure 35
1001
0000
0001
0001
,  // measure 36
1001
0000
1000
0000
,  // measure 37
0010
0000
1000
0000
,  // measure 38
0100
0000
0010
0000
,  // measure 39
0001
0001
0001
0000
,  // measure 40
1000
0000
0001
0000
,  // measure 41
0010
0000
0100
0000
,  // measure 42
1001
0000
0000
0000
,  // measure 43
1000
0000
0001
0000
,  // measure 44
1001
0000
0110
0000
,  // measure 45
1001
0000
0000
0000
,  // measure 46
0020
0000
0000
0000
,  // measure 47
0130
0000
0000
0000
,  // measure 48
0000
0000
0000
0000
,  // measure 49
1001
0000
0000
0000
,  // measure 50
1000
0000
1000
0000
,  // measure 51
0110
0000
0001
0000
,  // measure 52
1000
0000
1000
0000
,  // measure 53
0110
0000
0010
0000
,  // measure 54
1001
0000
0000
0000
,  // measure 55
0110
0000
0100
0000
,  // measure 56
1001
0000
0000
0000
,  // measure 57
1001
0000
0001
0000
,  // measure 58
0110
0000
0110
0000
,  // measure 59
1000
0001
1000
0000
,  // measure 60
0010
0100
0010
0000
,  // measure 61
1000
0010
1000
0000
,  // measure 62
0001
1000
0001
0000
,  // measure 63
0100
0001
0100
0000
,  // measure 64
0010
0100
0010
0000
,  // measure 65
1000
0001
1000
0001
,  // measure 66
1000
0000
0000
0001
,  // measure 67
1001
0000
0000
0000
;

//---------------dance-single - ----------------
#NOTES:
     dance-single:
     :
     Hard:
     8:
     0.540,0.496,0.359,0.067,0.163: // measure 1
0101
0000
0000
0101
0000
0000
1100
0000
0000
1100
0000
0000
1001
0000
0000
0000
,  // measure 2
0100
0000
0000
1000
0000
0000
0100
0000
0000
0000
1000
0000
0001
0000
0000
0000
,  // measure 3
1100
0000
0000
1100
0000
0000
0101
0000
0000
0101
0000
0000
1001
0000
0000
0000
,  // measure 4
0100
0000
0000
0001
0000
0000
0100
0000
0001
0000
0000
0000
1000
0000
0000
0000
,  // measure 5
1100
0000
0000
0101
0000
0000
1001
0000
0000
0000
0000
0000
0000
0000
0000
0000
,  // measure 6
1000
0010
0100
0000
0010
0100
0001
0000
,  // measure 7
0100
0001
0010
0100
1000
0010
0100
0000
,  // measure 8
0011
0000
0100
1000
0001
0000
0100
0001
,  // measure 9
0010
0100
1000
0010
0100
0010
1000
0000
,  // measure 10
1001
0000
0000
0000
1100
0000
0000
0000
0001
0000
0000
1000
0000
0000
0010
0000
,  // measure 11
1000
0100
0010
0001
0100
0000
0001
0100
,  // measure 12
1000
0000
0100
0010
0100
0000
1000
0100
,  // measure 13
0001
0100
0010
1000
0001
0000
1001
0000
,  // measure 14
0001
0100
0010
0100
0001
0100
0010
0100
,  // measure 15
0001
0010
0100
1000
0001
0000
0101
0000
,  // measure 16
1000
0010
0100
0010
1000
0010
0100
0010
,  // measure 17
1000
0100
0010
0001
1000
0000
1010
0000
,  // measure 18
0001
0000
0010
0000
0100
0000
1000
0000
0001
0000
0000
0100
0000
0000
0001
0000
,  // measure 19
1000
0000
0000
0100
0000
0000
1000
0000
0001
0000
0000
0000
1001
0000
0000
0000
,  // measure 20
2100
0000
0000
0000
0000
0000
0001
0000
3001
0000
0000
0100
0000
0000
0001
0000
,  // measure 21
1000
0000
0000
0100
0000
0000
1000
0000
0002
0000
0000
0000
0000
0000
0000
0000
,  // measure 22
0103
0000
0000
0001
0000
0000
0100
0000
0000
0001
0000
0000
1000
0000
0000
0000
,  // measure 23
0010
0000
0000
1000
0000
0000
0010
0000
0000
0100
0000
0000
0001
0000
0000
0000
,  // measure 24
1000
0001
0010
0100
0001
0100
1000
0001
,  // measure 25
0010
0100
0010
0001
1000
0000
0001
1000
,  // measure 26
0010
0100
1000
0100
0001
1000
0100
0010
,  // measure 27
0100
0000
0000
1000
0000
0000
0001
0000
0101
0000
0000
0000
1001
0000
0000
0000
,  // measure 28
1000
0000
0001
0000
0010
0000
0100
0000
0010
0000
0000
0001
0000
0000
1000
0000
,  // measure 29
0100
0001
0100
1000
0001
0000
0100
0100
,  // measure 30
0001
0000
1000
0000
0100
0000
0010
0000
0100
0000
0000
1000
0000
0000
0001
0000
,  // measure 31
0100
0000
0000
0000
0000
0000
0000
0000
0001
0000
0000
0000
1000
0010
1000
0010
,  // measure 32
1000
0001
0000
0000
0100
0000
0100
0000
,  // measure 33
0101
1100
0000
0000
0010
0000
0010
0000
,  // measure 34
1010
0011
0000
0000
0100
0000
0100
0000
,  // measure 35
0101
0000
0000
1000
0000
0000
0010
0000
1010
0000
0000
0000
0100
0001
0100
0001
,  // measure 36
0100
0001
1000
0100
0010
0000
0001
0100
,  // measure 37
1000
0010
1000
0100
0010
0000
0001
0100
,  // measure 38
1000
0100
0001
0100
0010
1000
0100
0001
,  // measure 39
0100
1010
1010
1001
,  // measure 40
0010
0000
0000
1000
0000
0000
0001
0000
0010
0000
0000
0001
0000
0000
1000
0000
,  // measure 41
0010
0000
0000
1000
0000
0000
0001
0000
0011
0000
0000
0000
0100
0000
1000
0000
,  // measure 42
0001
0000
0100
0001
1000
0100
0010
0001
,  // measure 43
1000
0000
0000
0100
0000
0000
1000
0000
0001
0000
0000
0000
0001
0000
1000
0000
,  // measure 44
0001
0000
0000
0011
0000
0000
1000
0000
0100
0000
0000
1100
0000
0000
0001
0000
,  // measure 45
1001
0000
0000
1000
0000
0000
0101
0000
0000
0101
0000
0000
0101
0000
0000
0000
,  // measure 46
0010
0000
0000
1000
0000
0000
0100
0000
0000
0010
0000
0000
0001
0000
0000
0000
,  // measure 47
2200
0000
0000
0300
,  // measure 48
0002
0000
0000
0000
0000
3003
0000
0200
,  // measure 49
0002
0000
0000
0300
,  // measure 50
2000
0000
0003
0000
3001
0000
0001
1000
,  // measure 51
0001
0100
1000
0100
0001
0100
0010
1000
,  // measure 52
0100
1000
0001
0100
0001
1000
0100
0000
,  // measure 53
1000
0100
0001
0100
1000
0100
0010
0001
,  // measure 54
0100
0000
0000
0001
0000
0000
0100
0000
0010
0000
0000
1000
0000
0000
0001
0000
,  // measure 55
1000
0100
0010
0001
0100
1000
0100
0010
,  // measure 56
1000
0001
1000
0010
1000
0001
0010
0000
,  // measure 57
0001
0010
0100
1000
0100
0001
0100
0010
,  // measure 58
0001
0000
1000
0000
0010
0000
1000
0000
0001
0000
0000
0000
1000
0001
1000
0001
,  // measure 59
1000
0100
0010
0001
0100
1000
0100
0010
,  // measure 60
1000
0010
0100
0010
1000
0100
0010
0000
,  // measure 61
0001
0010
0100
1000
0100
0001
0100
0010
,  // measure 62
0001
0100
0010
0100
0001
0010
0100
0000
,  // measure 63
1000
0010
0100
0001
0100
1000
0100
0001
,  // measure 64
1000
0100
0001
0100
1000
0001
0010
0100
,  // measure 65
0101
0000
1000
0100
0001
0010
0100
1000
,  // measure 66
1010
0000
0000
0000
0000
0000
0000
0000
0001
0000
0000
0000
0001
0100
0001
0000
,  // measure 67
1001
0000
0000
0000
;

//---------------dance-single - ----------------
#NOTES:
     dance-single:
     :
     Medium:
     6:
     0.428,0.441,0.300,0.133,0.054: // measure 1
0001
0000
0000
1000
0000
0000
0001
0000
0000
1000
0000
0000
0020
0000
0000
0000
,  // measure 2
0000
0000
0000
0030
,  // measure 3
1000
0000
0000
0001
0000
0000
1000
0000
0000
0001
0000
0000
0200
0000
0000
0000
,  // measure 4
0000
0000
0001
0301
,  // measure 5
1001
0000
0000
1000
0000
0000
0001
0000
0000
0000
0000
0000
0000
0000
0000
0000
,  // measure 6
1001
0000
1000
0000
1000
0100
0010
0000
,  // measure 7
1001
0000
0001
0000
0001
0010
0100
0000
,  // measure 8
1000
0000
1001
0000
0001
0100
0001
0000
,  // measure 9
1000
0100
1000
0000
0001
1000
0000
0000
,  // measure 10
0100
1100
1001
0000
,  // measure 11
0100
1100
1001
0000
,  // measure 12
0100
0101
1001
0000
,  // measure 13
0100
0101
1001
1000
,  // measure 14
1002
0000
0013
0000
0100
1000
0100
0000
,  // measure 15
0010
0100
0010
0000
1001
0000
0001
0000
,  // measure 16
2001
0000
3100
0000
0010
0001
0010
0000
,  // measure 17
0100
0010
0100
0000
1001
0000
1000
0000
,  // measure 18
1002
0000
0103
0000
0010
1000
0010
0000
,  // measure 19
0100
0010
0100
0000
0001
0000
1001
0000
,  // measure 20
2001
3010
1002
0013
,  // measure 21
1001
0000
0000
1000
0000
0000
0001
0000
0020
0000
0000
0000
0000
0000
0000
0000
,  // measure 22
0031
0000
0000
0001
0000
0000
1000
0000
0000
1000
0000
0000
1000
0000
0000
0000
,  // measure 23
0010
0000
0000
1000
0000
0000
0100
0000
0000
1000
0000
0000
0001
0000
0000
0000
,  // measure 24
1000
0010
0100
0000
0010
0100
0010
0000
,  // measure 25
1000
0100
0010
0001
1000
0000
1000
0000
,  // measure 26
0001
0100
0010
0000
0100
0010
0100
0000
,  // measure 27
0001
0010
0100
1000
0001
0000
0001
0000
,  // measure 28
1000
0100
0010
0001
1000
0000
0010
0100
,  // measure 29
0010
0000
0100
0010
1000
0000
1000
0000
,  // measure 30
0001
0010
0100
1000
0001
0000
0100
0010
,  // measure 31
0100
0000
0000
0000
0001
0000
1000
0100
,  // measure 32
0010
0010
0000
0000
0000
0000
0000
0000
,  // measure 33
0001
1000
0000
0000
0000
0000
0000
0000
,  // measure 34
1000
0001
0000
0000
0000
0000
0000
0000
,  // measure 35
1000
0000
0000
0001
0000
0000
1000
0000
0010
0000
0000
0000
0110
0000
0000
0000
,  // measure 36
1001
0000
0010
0100
1000
0000
0010
0100
,  // measure 37
0010
0000
1000
0100
0010
0000
0001
1000
,  // measure 38
0001
0000
0010
0100
1000
0000
0010
0100
,  // measure 39
0001
0011
1001
1100
,  // measure 40
1001
0000
0100
0010
0001
0000
0100
0010
,  // measure 41
0100
0000
0001
0010
0100
0000
1000
0001
,  // measure 42
2000
0000
3010
0100
,  // measure 43
0001
0010
0100
1000
0001
0000
0000
0000
,  // measure 44
0001
0000
0000
0100
0000
0000
0001
0000
1000
0000
0000
0100
0000
0000
1000
0000
,  // measure 45
0002
0000
0000
1000
0000
0000
1003
0000
,  // measure 46
0020
0000
0000
0230
0000
0000
0310
0000
,  // measure 47
0202
0000
0000
0000
,  // measure 48
0000
0000
0303
0000
,  // measure 49
2020
0000
0000
0030
,  // measure 50
0001
0000
3001
0001
,  // measure 51
1000
0100
0010
0001
1000
0000
1010
0000
,  // measure 52
0001
0100
0010
1000
0001
0000
1000
0000
,  // measure 53
0001
0010
0100
1000
0001
0000
0101
0000
,  // measure 54
1100
0001
1100
0001
,  // measure 55
1000
0010
0100
0001
1000
0000
0100
0000
,  // measure 56
1000
0100
1000
0000
0001
0100
0001
0000
,  // measure 57
1000
0010
0100
0001
1000
0000
0100
0000
,  // measure 58
1000
0001
0010
0100
1000
0000
1001
0000
,  // measure 59
0001
0010
0100
1000
0001
0000
0100
0000
,  // measure 60
0001
0100
0001
0000
1000
0100
1000
0000
,  // measure 61
0001
0010
0100
1000
0001
0000
0100
0000
,  // measure 62
0001
0100
0001
0000
1000
0100
1000
0000
,  // measure 63
0001
0100
0010
1000
0001
0000
0100
0000
,  // measure 64
0001
0100
0001
0000
1000
0100
0010
0000
,  // measure 65
1001
0000
1000
0100
0010
0001
1000
0000
,  // measure 66
1001
0000
0000
0000
1000
0010
0100
0001
,  // measure 67
1000
0000
0000
0000
;

//---------------dance-single - ----------------
#NOTES:
     dance-single:
     :
     Beginner:
     1:
     0.079,0.138,0.058,0.000,0.000: // measure 1
0000
0000
0000
0000
,  // measure 2
0000
0000
0000
0000
,  // measure 3
0000
0000
0000
0000
,  // measure 4
0000
0000
0000
0000
,  // measure 5
0000
0000
0000
0000
,  // measure 6
1000
0000
0000
0000
,  // measure 7
0001
0000
0000
0000
,  // measure 8
1000
0000
0000
0000
,  // measure 9
1000
0000
0000
0000
,  // measure 10
0001
0000
0000
0000
,  // measure 11
0000
0000
0000
0000
,  // measure 12
0001
0000
0000
0000
,  // measure 13
0000
0000
0000
0000
,  // measure 14
0100
0000
0100
0000
,  // measure 15
0100
0000
0000
0000
,  // measure 16
0010
0000
0010
0000
,  // measure 17
0010
0000
0000
0000
,  // measure 18
1000
0000
0001
0000
,  // measure 19
1000
0000
0000
0000
,  // measure 20
1001
0000
0000
0000
,  // measure 21
1000
0000
0000
0000
,  // measure 22
0001
0000
0000
0000
,  // measure 23
0000
0000
0000
0000
,  // measure 24
0001
0000
0000
0000
,  // measure 25
0000
0000
0000
0000
,  // measure 26
1000
0000
0000
0000
,  // measure 27
0000
0000
0000
0000
,  // measure 28
0001
0000
0000
0000
,  // measure 29
0000
0000
0000
0000
,  // measure 30
1000
0000
0000
0000
,  // measure 31
0001
0000
0000
0000
,  // measure 32
1001
0000
0000
0000
,  // measure 33
1001
0000
0000
0000
,  // measure 34
1001
0000
0000
0000
,  // measure 35
1000
0000
0000
0000
,  // measure 36
1000
0000
0000
0000
,  // measure 37
0001
0000
0000
0000
,  // measure 38
1000
0000
0000
0000
,  // measure 39
0010
0000
0010
0000
,  // measure 40
0010
0000
0000
0000
,  // measure 41
0100
0000
0000
0000
,  // measure 42
0010
0000
0000
0000
,  // measure 43
1000
0000
0000
0000
,  // measure 44
0001
0000
0001
0000
,  // measure 45
1001
0000
0000
0000
,  // measure 46
0000
0000
0000
0000
,  // measure 47
1001
0000
0000
0000
,  // measure 48
0000
0000
0000
0000
,  // measure 49
1000
0000
0000
0000
,  // measure 50
0001
0000
0000
0000
,  // measure 51
1000
0000
0000
0000
,  // measure 52
1000
0000
0000
0000
,  // measure 53
0001
0000
0000
0000
,  // measure 54
0001
0000
0000
0000
,  // measure 55
0100
0000
0000
0000
,  // measure 56
0010
0000
0000
0000
,  // measure 57
0100
0000
0000
0000
,  // measure 58
0010
0000
0000
0000
,  // measure 59
1000
0000
0000
0000
,  // measure 60
1000
0000
0000
0000
,  // measure 61
0001
0000
0000
0000
,  // measure 62
0001
0000
0000
0000
,  // measure 63
1000
0000
0000
0000
,  // measure 64
0001
0000
0000
0000
,  // measure 65
1000
0000
0000
0000
,  // measure 66
1001
0000
0000
0000
,  // measure 67
0010
0000
0000
0000
;
