#TITLE:UNBOUND MIND;
#SUBTITLE:;
#ARTIST:D-crew;
#TITLETRANSLIT:;
#SUBTITLETRANSLIT:;
#ARTISTTRANSLIT:;
#CREDIT:DMAxel;
#BANNER:UNBOUND MIND.png;
#BACKGROUND:UNBOUND MIND-bg.png;
#LYRICSPATH:UNBOUND MIND.lrc;
#CDTITLE:pop'n music.png;
#MUSIC:UNBOUND MIND.mp3;
#OFFSET:-0.480;
#SAMPLESTART:29.657;
#SAMPLELENGTH:12.000;
#SELECTABLE:YES;
#BPMS:0.000=162.000;
#STOPS:;
#BGCHANGES:;

//---------------dance-single - ----------------
#NOTES:
     dance-single:
     :
     Easy:
     3:
     0.204,0.324,0.198,0.129,0.000: // measure 1
0000
0000
0000
0000
,  // measure 2
0000
0000
0000
0000
,  // measure 3
0000
0000
0000
0000
,  // measure 4
0000
0000
0000
0000
,  // measure 5
0000
0000
0000
0000
,  // measure 6
0000
0000
0000
0000
,  // measure 7
0000
0000
0000
0000
,  // measure 8
0000
0000
0000
0000
,  // measure 9
0000
0000
0000
0000
,  // measure 10
0000
0000
0000
0000
,  // measure 11
0000
0000
0000
0000
,  // measure 12
0000
0000
0000
0000
,  // measure 13
0001
1000
0000
1000
,  // measure 14
0001
1000
0000
1000
,  // measure 15
2002
0000
0000
3003
,  // measure 16
0220
0000
0000
0330
,  // measure 17
1000
0001
0000
0001
,  // measure 18
1000
0001
0000
0001
,  // measure 19
2002
0000
0000
3003
,  // measure 20
0220
0000
0000
0330
,  // measure 21
1001
0000
0000
0000
,  // measure 22
0001
0000
0000
0000
,  // measure 23
1000
0000
0000
0000
,  // measure 24
0010
0000
0000
1000
,  // measure 25
0001
1000
0000
0001
,  // measure 26
1000
0001
0000
1000
,  // measure 27
0002
0000
0000
0000
,  // measure 28
1003
0000
0000
0000
,  // measure 29
1001
0000
0000
0000
,  // measure 30
0001
0000
0000
0000
,  // measure 31
0100
0000
0000
0000
,  // measure 32
0010
0000
0000
0000
,  // measure 33
1000
0000
0000
0000
,  // measure 34
1001
0000
0000
0000
,  // measure 35
0001
0000
0000
0000
,  // measure 36
2002
0000
0000
3003
,  // measure 37
0001
0000
0001
0000
,  // measure 38
1000
0000
1000
0000
,  // measure 39
0010
0000
0010
0000
,  // measure 40
0100
0000
0100
0000
,  // measure 41
0001
1000
0001
0000
,  // measure 42
0100
0010
0100
0000
,  // measure 43
0010
0100
0010
0000
,  // measure 44
1001
0000
0000
0000
,  // measure 45
1001
0000
1000
0000
,  // measure 46
1000
0000
0001
0000
,  // measure 47
0100
0000
0100
0000
,  // measure 48
1001
0000
0001
0000
,  // measure 49
1001
0000
1000
0000
,  // measure 50
0001
0000
0001
0000
,  // measure 51
0100
0000
0100
0000
,  // measure 52
0110
0000
0000
0000
,  // measure 53
1001
0000
0000
0001
,  // measure 54
1000
0001
0000
1000
,  // measure 55
0001
1000
0000
0010
,  // measure 56
0100
0010
0000
0000
,  // measure 57
1000
0100
0002
0000
,  // measure 58
1003
0000
0001
0010
,  // measure 59
2000
0000
3001
0000
,  // measure 60
1001
0000
0000
0000
,  // measure 61
1001
0000
0000
1000
,  // measure 62
0001
1000
0000
0001
,  // measure 63
1000
0001
0000
0100
,  // measure 64
0010
0100
0000
0000
,  // measure 65
0001
0010
2000
0000
,  // measure 66
3001
0000
1000
0100
,  // measure 67
0002
0000
1003
0000
,  // measure 68
1001
0000
0000
0000
,  // measure 69
1001
1000
0000
0000
,  // measure 70
1001
0001
0000
0000
,  // measure 71
0100
0010
0100
0000
,  // measure 72
0001
1000
0001
0000
,  // measure 73
1001
0001
0000
0000
,  // measure 74
1001
1000
0000
0000
,  // measure 75
0010
0100
0010
1000
,  // measure 76
1001
0000
0000
1001
0000
0000
0000
0000
;

//---------------dance-single - ----------------
#NOTES:
     dance-single:
     :
     Challenge:
     8:
     0.590,0.648,0.671,0.129,0.262: // measure 1
0000
0000
0000
0000
,  // measure 2
0000
0000
0000
0000
,  // measure 3
0000
0000
0000
0000
,  // measure 4
0000
0000
0000
0000
,  // measure 5
0000
0000
0000
0000
,  // measure 6
0000
0000
0000
0000
,  // measure 7
0000
0000
0000
0000
,  // measure 8
0000
0000
2200
0000
,  // measure 9
0000
0300
0002
0000
,  // measure 10
0000
3003
2002
0000
,  // measure 11
0000
0000
0000
0000
,  // measure 12
3003
0000
0000
0000
,  // measure 13
1001
0000
1001
0000
0000
1000
0001
0100
,  // measure 14
0101
0000
0101
0000
0000
0001
1000
0010
,  // measure 15
1010
0000
0000
0010
0000
0000
1010
0000
0000
0010
0000
0000
1001
0000
0000
0000
,  // measure 16
0101
0000
0000
0100
0000
0000
0101
0000
0000
0100
0000
0000
1001
0000
0000
0000
,  // measure 17
0110
0000
0110
0000
0000
0001
1000
0010
,  // measure 18
1010
0000
1010
0000
0000
1000
0001
0100
,  // measure 19
0101
0000
0000
0100
0000
0000
0101
0000
0000
0100
0000
0000
1001
0000
0000
0000
,  // measure 20
0110
0000
0000
0110
0000
0000
1001
0000
0000
0000
0000
0000
0000
0000
0000
0000
,  // measure 21
0101
0000
0000
1000
0001
0000
0000
0000
0010
0000
0001
0000
1000
0000
0000
0000
,  // measure 22
1010
0000
0000
0001
1000
0000
0000
0000
0100
0000
1000
0000
0001
0000
0000
0000
,  // measure 23
0101
0000
0000
1000
0001
0000
0010
0000
0000
0010
0000
0000
1001
0000
0000
0000
,  // measure 24
1010
0000
0000
0001
1000
0000
0100
0000
0000
0100
0000
0000
1001
0000
0000
0000
,  // measure 25
1100
0000
0000
0001
1000
0000
0000
0000
0100
0000
1000
0000
0001
0000
0000
0000
,  // measure 26
0011
0000
0000
1000
0001
0000
0000
0000
0010
0000
0001
0000
1000
0000
0000
0000
,  // measure 27
1100
0000
0000
0001
1000
0000
0010
0000
0000
0010
0000
0000
1001
0000
0000
0000
,  // measure 28
0110
0000
0000
0100
0000
0000
1001
0000
0000
0000
0000
0000
0010
0000
0000
0000
,  // measure 29
0011
0000
0000
0101
0000
0000
1001
0000
0000
0000
0000
0000
0100
0000
0000
0000
,  // measure 30
1100
0000
0000
1010
0000
0000
1001
0000
0000
0000
0000
0000
0010
0000
0000
0000
,  // measure 31
0011
0000
0000
1000
0001
0000
0020
0000
0000
0000
0000
0000
0031
0000
1000
0000
,  // measure 32
1100
0000
0000
0001
1000
0000
0200
0000
0000
0000
0000
0000
1300
0000
0001
0000
,  // measure 33
0011
0000
0000
0001
1000
0000
0020
0000
0000
0000
0000
0000
1030
0000
0001
0000
,  // measure 34
1100
0000
0000
1000
0001
0000
0200
0000
0000
0000
0000
0000
0301
0000
1000
0000
,  // measure 35
0010
0000
0000
1000
0010
0000
0100
0000
0000
0000
0101
0000
0000
0000
0000
0000
,  // measure 36
0110
0000
0000
0110
0000
0000
1001
0000
0000
0000
0000
0000
0000
0000
0000
0000
,  // measure 37
1001
0000
0000
0001
1000
0000
0100
0000
1000
0000
0001
0000
0010
0000
0100
0000
,  // measure 38
1000
0000
0010
0000
1000
0000
0100
0000
1000
0000
0001
0000
0010
0001
0010
0001
,  // measure 39
0010
0000
0000
0001
1000
0000
0100
0000
1000
0000
0001
0000
0010
0000
0100
0000
,  // measure 40
1000
0000
0000
0001
0100
0000
0000
0100
0010
0000
0000
0010
1000
0000
0000
0000
,  // measure 41
1001
0000
0000
1000
0001
0000
0010
0000
0001
0000
1000
0000
0100
0000
0010
0000
,  // measure 42
0001
0000
0000
0100
0001
0000
1000
0000
0001
0000
0010
0000
0100
0000
1000
0000
,  // measure 43
0001
0000
0000
1000
0010
0000
0000
0010
0100
0000
0000
0100
0001
0000
0000
0000
,  // measure 44
0110
0000
0000
0110
0000
0000
1001
0000
0000
0000
0000
0000
0000
0000
0000
0000
,  // measure 45
1001
0000
0000
1000
0001
0000
0010
0000
0001
0000
1000
0000
0100
0000
0010
0000
,  // measure 46
0001
0000
0000
0100
0001
0000
1000
0000
0100
0000
1000
0000
0001
0000
0010
0000
,  // measure 47
0100
0000
0000
1000
0001
0000
1000
0000
0100
0000
1000
0000
0001
0000
0010
0000
,  // measure 48
0100
0000
0000
1000
0100
0000
0000
0100
0010
0000
0000
0010
0001
0000
0000
0000
,  // measure 49
1001
0000
0000
0001
1000
0000
0100
0000
1000
0000
0001
0000
0010
0000
0100
0000
,  // measure 50
1000
0000
0000
0010
1000
0000
0001
0000
0010
0000
0001
0000
0100
0000
0010
0000
,  // measure 51
1000
0000
0000
0001
0010
0000
0000
0000
0001
0000
0000
1000
0100
0000
0000
0000
,  // measure 52
0110
0000
0000
0110
0000
0000
1001
0000
0000
0000
0000
0000
0000
0000
0000
0000
,  // measure 53
2000
0001
0000
0001
0000
3001
0010
0100
,  // measure 54
1000
0100
0001
0100
1000
0010
0100
0001
,  // measure 55
2000
0000
0000
0001
0000
3001
0010
0100
,  // measure 56
1000
0010
0001
0010
1000
0100
0010
0001
,  // measure 57
2000
0000
0000
0001
0000
3001
1000
0100
,  // measure 58
0010
0001
1000
0010
1000
0100
0010
0001
,  // measure 59
1000
1010
0001
0101
,  // measure 60
0001
0100
0010
1000
0001
0010
1000
0100
,  // measure 61
0002
0000
0000
1000
0000
1003
0001
0010
,  // measure 62
0100
1000
0001
0100
0001
1000
0100
0010
,  // measure 63
0002
0000
0000
1000
0000
1003
0001
0010
,  // measure 64
0100
1000
0001
0100
0001
1000
0010
0100
,  // measure 65
0002
0000
0000
1000
0000
1003
0010
0100
,  // measure 66
0001
0010
1000
0010
0001
1000
0100
0010
,  // measure 67
0001
0101
1000
1010
,  // measure 68
1000
0010
0100
0001
0010
1000
0100
0001
,  // measure 69
1001
0000
0000
0100
0001
0000
0000
0000
0000
0000
0100
0000
0001
0000
1000
0000
,  // measure 70
1001
0000
0000
0010
1000
0000
0000
0000
0000
0000
0010
0000
1000
0000
0001
0000
,  // measure 71
0101
0000
0000
0100
0000
0000
0110
0000
0000
0100
0000
0000
1001
0000
0000
0000
,  // measure 72
1010
0000
0000
0010
0000
0000
0110
0000
0000
0010
0000
0000
1001
0000
0000
0000
,  // measure 73
1001
0000
0000
0010
0001
0000
0000
0000
0000
0000
0010
0000
0001
0000
1000
0000
,  // measure 74
1001
0000
0000
0100
1000
0000
0000
0000
0000
0000
0100
0000
1000
0000
0001
0000
,  // measure 75
0011
0000
0000
0010
0000
0000
0101
0000
0000
0100
0000
0000
1001
0000
0000
0000
,  // measure 76
1010
0000
0000
0110
0000
0000
1001
0000
0000
0000
0000
0000
0000
0000
0000
0000
;

//---------------dance-single - ----------------
#NOTES:
     dance-single:
     :
     Hard:
     7:
     0.475,0.519,0.464,0.224,0.133: // measure 1
0000
0000
0000
0000
,  // measure 2
0000
0000
0000
0000
,  // measure 3
0000
0000
0000
0000
,  // measure 4
0000
0000
0000
0000
,  // measure 5
0000
0000
0000
0000
,  // measure 6
0000
0000
0000
0000
,  // measure 7
0000
0000
0000
0000
,  // measure 8
0000
0000
0000
0000
,  // measure 9
0000
0000
0000
0000
,  // measure 10
0000
0000
0000
0000
,  // measure 11
0000
0000
0000
0000
,  // measure 12
0000
0000
0000
0000
,  // measure 13
0110
2002
0000
3003
,  // measure 14
0101
2020
0000
3030
,  // measure 15
1000
0000
0000
0100
0000
0000
0010
0000
0000
0100
0000
0000
0110
0000
0000
0000
,  // measure 16
0001
0000
0000
0010
0000
0000
0100
0000
0000
0010
0000
0000
0110
0000
0000
0000
,  // measure 17
1001
0220
0000
0330
,  // measure 18
1010
0202
0000
0303
,  // measure 19
0001
0000
0000
0100
0000
0000
0010
0000
0000
0100
0000
0000
0110
0000
0000
0000
,  // measure 20
1000
0000
0000
1000
0000
0000
1001
0000
0000
0000
0000
0000
0000
0000
0000
0000
,  // measure 21
1001
1000
0010
1000
,  // measure 22
1001
0001
0100
0001
,  // measure 23
1000
0000
0000
1000
0000
0000
0010
0000
0000
0010
0000
0000
1010
0000
0000
0000
,  // measure 24
0001
0000
0000
0001
0000
0000
0100
0000
0000
0100
0000
0000
0101
0000
0000
0000
,  // measure 25
1001
0000
1001
0000
0001
0100
0001
0000
,  // measure 26
1001
0000
1001
0000
1000
0010
1000
0000
,  // measure 27
0001
0000
0000
0001
0000
0000
1000
0000
0000
1000
0000
0000
1001
0000
0000
0000
,  // measure 28
0010
0000
0000
0010
0000
0000
0110
0000
0000
0000
0000
0000
1000
0000
0000
0000
,  // measure 29
0010
0000
0000
0010
0000
0000
0020
0000
0000
0000
0000
0000
1030
0000
0000
0000
,  // measure 30
0100
0000
0000
0100
0000
0000
0200
0000
0000
0000
0000
0000
1300
0000
0000
0000
,  // measure 31
0001
0000
0000
0001
0000
0000
2000
0000
0000
0000
0000
0000
0000
0000
0000
0000
,  // measure 32
3001
0000
0000
0001
0000
0000
0200
0000
0000
0000
0000
0000
0000
0000
0000
0000
,  // measure 33
0301
0000
0000
1000
0000
0000
0020
0000
0000
0000
0000
0000
1000
0000
0000
0000
,  // measure 34
1030
0000
0000
0001
0000
0000
0200
0000
0000
0000
0000
0000
0001
0000
0000
0000
,  // measure 35
0301
0000
0000
1000
0000
0000
0010
0000
0000
0000
0110
0000
0000
0000
0000
0000
,  // measure 36
1000
0000
0000
0001
0000
0000
1001
0000
0000
0000
0000
0000
0000
0000
0000
0000
,  // measure 37
1001
0000
1000
0001
0100
0000
0100
0000
,  // measure 38
0100
0010
0100
0001
1000
0010
1000
0000
,  // measure 39
0001
1000
0010
0000
0010
1000
0010
1000
,  // measure 40
0010
1000
0001
0000
0010
1000
0001
0000
,  // measure 41
1000
0001
0100
0000
0100
0001
0100
0001
,  // measure 42
0100
0001
1000
0000
0100
1000
0100
1000
,  // measure 43
0100
1000
0001
0000
0100
1000
0001
0000
,  // measure 44
1000
0000
0000
0001
0000
0000
1001
0000
0000
0000
0000
0000
0000
0000
0000
0000
,  // measure 45
0001
1000
0100
0000
0100
1000
0100
1000
,  // measure 46
0100
1000
0001
0000
0010
0001
0010
0001
,  // measure 47
0010
0001
1000
0000
0010
1000
0010
1000
,  // measure 48
0010
1000
0001
0000
0010
1000
0001
0000
,  // measure 49
1000
0001
0100
0000
0100
0001
0100
0001
,  // measure 50
1000
0100
0010
0000
0010
0001
0010
0001
,  // measure 51
0010
0001
1000
0001
0010
0100
1000
0000
,  // measure 52
0010
0000
0000
0010
0000
0000
1001
0000
0000
0000
0000
0000
0000
0000
0000
0000
,  // measure 53
0200
0000
0000
0000
0000
0310
1000
0100
,  // measure 54
0010
0000
0001
0010
0001
0100
0010
1000
,  // measure 55
0200
0000
0000
1000
0000
1300
0100
0010
,  // measure 56
0001
0000
1000
0100
1000
0010
0100
0001
,  // measure 57
0010
0011
0100
1100
,  // measure 58
1001
0000
1000
0000
0001
0010
0100
1000
,  // measure 59
0001
0101
1000
1010
,  // measure 60
0001
0100
0010
1000
0010
0100
0001
1000
,  // measure 61
0002
0000
0000
0100
0000
0103
0010
1000
,  // measure 62
0100
0000
1000
0100
1000
0010
0100
0001
,  // measure 63
0020
0000
0000
0001
0000
0031
0010
0100
,  // measure 64
1000
0000
0001
0100
0010
1000
0100
0010
,  // measure 65
0001
0011
1000
1100
,  // measure 66
1001
0001
0101
1010
,  // measure 67
1000
0100
0010
0000
0001
0010
0100
0000
,  // measure 68
1000
0100
0010
0001
0100
0010
1000
0000
,  // measure 69
1001
0022
0000
0033
,  // measure 70
1001
2200
0000
3300
,  // measure 71
0001
0000
0000
0100
0000
0000
0010
0000
0000
0101
0000
0000
1001
0000
0000
0000
,  // measure 72
1000
0000
0000
0010
0000
0000
0100
0000
0000
1010
0000
0000
1001
0000
0000
0000
,  // measure 73
1010
2002
0000
3003
,  // measure 74
0101
2002
0000
3003
,  // measure 75
0001
0000
0000
1000
0000
0000
0100
0000
0000
0110
0000
0000
1001
0000
0000
0000
,  // measure 76
1100
0000
0000
0101
0000
0000
1001
0000
0000
0000
0000
0000
0000
0000
0000
0000
;

//---------------dance-single - ----------------
#NOTES:
     dance-single:
     :
     Medium:
     5:
     0.306,0.357,0.172,0.189,0.000: // measure 1
0000
0000
0000
0000
,  // measure 2
0000
0000
0000
0000
,  // measure 3
0000
0000
0000
0000
,  // measure 4
0000
0000
0000
0000
,  // measure 5
0000
0000
0000
0000
,  // measure 6
0000
0000
0000
0000
,  // measure 7
0000
0000
0000
0000
,  // measure 8
0000
0000
0000
0000
,  // measure 9
0000
0000
0000
0000
,  // measure 10
0000
0000
0000
0000
,  // measure 11
0000
0000
0000
0000
,  // measure 12
0000
0000
0000
0000
,  // measure 13
0001
0200
0000
0000
,  // measure 14
0301
2000
0000
0000
,  // measure 15
3010
0100
0010
1000
,  // measure 16
0001
1000
0001
0100
,  // measure 17
1000
0020
0000
0000
,  // measure 18
1030
0002
0000
0000
,  // measure 19
1003
0001
1000
0001
,  // measure 20
0100
0010
0100
0000
,  // measure 21
1001
0002
0000
1003
,  // measure 22
0010
0200
0000
0301
,  // measure 23
1000
1000
1000
1001
,  // measure 24
0001
0001
0001
1001
,  // measure 25
0001
2000
0000
3001
,  // measure 26
0100
0020
0000
1030
,  // measure 27
0001
0001
0001
1001
,  // measure 28
1000
1000
0010
0000
,  // measure 29
1000
0001
0100
0000
,  // measure 30
0001
1000
0010
0000
,  // measure 31
1000
0001
0200
0000
,  // measure 32
0310
1000
0002
0000
,  // measure 33
1003
0100
0020
0000
,  // measure 34
0031
0010
0200
0000
,  // measure 35
1300
0001
0100
0000
,  // measure 36
0101
0000
0000
1001
0000
0000
0000
0000
,  // measure 37
1000
0100
1000
0010
,  // measure 38
0100
0001
0010
0001
,  // measure 39
0010
0100
1000
0100
,  // measure 40
1000
0001
1000
0001
,  // measure 41
1000
0010
1000
0010
,  // measure 42
1000
0010
0100
0010
,  // measure 43
0100
0001
0100
0001
,  // measure 44
1001
0000
0000
1000
0000
0000
0000
0000
,  // measure 45
0001
0010
0001
0010
,  // measure 46
0001
0010
0100
0010
,  // measure 47
0100
1000
0100
1000
,  // measure 48
0100
0010
0001
0010
,  // measure 49
0100
1000
0100
1000
,  // measure 50
0100
0010
0100
0010
,  // measure 51
0001
0010
0100
1000
,  // measure 52
1001
0000
0000
0001
0000
0000
0000
0000
,  // measure 53
2000
0000
0000
3001
,  // measure 54
0010
0001
0010
0100
,  // measure 55
2000
0000
0000
3100
,  // measure 56
1000
0000
0010
0000
0100
0010
0100
0000
,  // measure 57
0001
0010
0100
2000
,  // measure 58
3001
0000
0100
0010
,  // measure 59
0002
0000
2003
0000
,  // measure 60
3001
0010
0100
1000
,  // measure 61
1002
0000
0000
1003
,  // measure 62
0010
0100
0001
1001
,  // measure 63
2000
0000
0000
3010
,  // measure 64
0100
0000
0001
0000
0100
0010
0100
0000
,  // measure 65
0001
0010
0100
1000
,  // measure 66
0200
0000
1300
0010
,  // measure 67
0200
0000
0302
0000
,  // measure 68
1003
0100
0010
0001
,  // measure 69
1001
1001
0000
0000
,  // measure 70
1100
1100
0000
0000
,  // measure 71
1000
0010
0100
0001
,  // measure 72
0010
1000
0010
0001
,  // measure 73
1001
1001
0000
0000
,  // measure 74
0011
0011
0000
0000
,  // measure 75
0001
0100
0010
1000
,  // measure 76
1001
0000
0000
1001
0000
0000
0000
0000
;

//---------------dance-single - ----------------
#NOTES:
     dance-single:
     :
     Beginner:
     1:
     0.075,0.129,0.034,0.000,0.000: // measure 1
0000
0000
0000
0000
,  // measure 2
0000
0000
0000
0000
,  // measure 3
0000
0000
0000
0000
,  // measure 4
0000
0000
0000
0000
,  // measure 5
0000
0000
0000
0000
,  // measure 6
0000
0000
0000
0000
,  // measure 7
0000
0000
0000
0000
,  // measure 8
0000
0000
0000
0000
,  // measure 9
0000
0000
0000
0000
,  // measure 10
0000
0000
0000
0000
,  // measure 11
0000
0000
0000
0000
,  // measure 12
0000
0000
0000
0000
,  // measure 13
0001
0000
0000
0000
,  // measure 14
0001
0000
0000
0000
,  // measure 15
1000
0000
0000
0000
,  // measure 16
1000
0000
0000
0000
,  // measure 17
0001
0000
0000
0000
,  // measure 18
0001
0000
0000
0000
,  // measure 19
1000
0000
0000
0000
,  // measure 20
1000
0000
0000
0000
,  // measure 21
0001
0000
0000
0000
,  // measure 22
0010
0000
0000
0000
,  // measure 23
0001
0000
0000
0000
,  // measure 24
0001
0000
0000
0000
,  // measure 25
1000
0000
0000
0000
,  // measure 26
0100
0000
0000
0000
,  // measure 27
1000
0000
0000
0000
,  // measure 28
1000
0000
0000
0000
,  // measure 29
0001
0000
0000
0000
,  // measure 30
0100
0000
0000
0000
,  // measure 31
0001
0000
0000
0000
,  // measure 32
0001
0000
0000
0000
,  // measure 33
1000
0000
0000
0000
,  // measure 34
0010
0000
0000
0000
,  // measure 35
1000
0000
0000
0000
,  // measure 36
1001
0000
0000
0000
,  // measure 37
0001
0000
0000
0000
,  // measure 38
0001
0000
0000
0000
,  // measure 39
1000
0000
0000
0000
,  // measure 40
1000
0000
0000
0000
,  // measure 41
0001
0000
0000
0000
,  // measure 42
0001
0000
0000
0000
,  // measure 43
1000
0000
0000
0000
,  // measure 44
0001
0000
0000
0000
,  // measure 45
1001
0000
0000
0000
,  // measure 46
1000
0000
0000
0000
,  // measure 47
0001
0000
0000
0000
,  // measure 48
1000
0000
0000
0000
,  // measure 49
0001
0000
0000
0000
,  // measure 50
0001
0000
0000
0000
,  // measure 51
1000
0000
1000
0000
,  // measure 52
1000
0000
0000
0000
,  // measure 53
0001
0000
0000
0000
,  // measure 54
0000
0000
0000
0000
,  // measure 55
0010
0000
0000
0000
,  // measure 56
0000
0000
0000
0000
,  // measure 57
0100
0000
0000
0000
,  // measure 58
0000
0000
0000
0000
,  // measure 59
1000
0000
0000
0000
,  // measure 60
0000
0000
0000
0000
,  // measure 61
1000
0000
0000
0000
,  // measure 62
0000
0000
0000
0000
,  // measure 63
0100
0000
0000
0000
,  // measure 64
0000
0000
0000
0000
,  // measure 65
0010
0000
0000
0000
,  // measure 66
0000
0000
0000
0000
,  // measure 67
0001
0000
0000
0000
,  // measure 68
0000
0000
0000
0000
,  // measure 69
1001
0000
0000
0000
,  // measure 70
0001
0000
0000
0000
,  // measure 71
1000
0000
0000
0000
,  // measure 72
0001
0000
0000
0000
,  // measure 73
1001
0000
0000
0000
,  // measure 74
1000
0000
0000
0000
,  // measure 75
0001
0000
0000
0000
,  // measure 76
1000
0000
0000
0000
;
