#TITLE:Turning the motor over;
#SUBTITLE:;
#ARTIST:Delaware feat. Jeff Coote;
#TITLETRANSLIT:;
#SUBTITLETRANSLIT:;
#ARTISTTRANSLIT:;
#CREDIT:DMAxel;
#BANNER:Turning the motor over.png;
#BACKGROUND:Turning the motor over-bg.png;
#LYRICSPATH:Turning the motor over.lrc;
#CDTITLE:beatmania.png;
#MUSIC:Turning the motor over.mp3;
#OFFSET:-2.640;
#SAMPLESTART:37.200;
#SAMPLELENGTH:12.000;
#SELECTABLE:YES;
#BPMS:0.000=178.040;
#STOPS:;
#BGCHANGES:;

//---------------dance-single - ----------------
#NOTES:
     dance-single:
     :
     Easy:
     3:
     0.223,0.303,0.075,0.050,0.000:
0000
0000
0000
0000
,
0000
0000
0000
0000
,
0000
0000
0000
0000
,
0000
0000
0000
0000
,
0100
0000
0010
0000
,
0100
0000
0010
0000
,
1000
0000
0001
2000
,
0000
0000
0000
0000
,
3001
0000
0100
0000
,
0010
0000
0100
0000
,
0010
0000
1000
0000
,
0010
0000
1000
0000
,
0100
0000
1000
0000
,
0100
0000
1000
0000
,
0001
0000
1000
0000
,
0001
0000
0010
0001
,
0000
0000
0000
0000
,
0000
0000
0000
1000
,
0100
1000
0010
0100
,
0001
0010
0001
1000
,
0000
0000
0000
0000
,
0000
0000
0000
0001
,
0010
0001
0100
0010
,
1000
0100
1000
0001
,
0000
0000
0000
0000
,
0000
0000
1001
0000
,
0100
0010
1000
0010
,
1000
0001
0100
0001
,
0010
0001
0000
1000
,
0100
1000
0001
0000
,
1000
0001
0000
0100
,
0010
1000
0001
0100
,
0010
1000
0000
0001
,
0010
0100
1000
1001
,
0000
0000
0010
0000
,
0100
0000
0001
0000
,
1000
0000
0001
1000
,
0100
0010
0001
0000
,
0010
0000
0001
0000
,
1000
0000
0100
0000
,
1000
0000
0010
1000
,
0100
0010
1001
0001
,
0000
0100
0000
0010
,
0000
0100
0000
1001
,
0000
0010
0000
0100
,
0000
0001
0000
1001
,
0000
0100
0000
0010
,
0000
1000
0000
0001
,
0000
0100
0000
0002
,
0000
0000
0000
2003
,
0000
0001
0000
0001
,
0000
0001
0000
3020
,
0000
0100
0000
0100
,
0000
0000
0130
0000
0000
1001
0000
0000
;

//---------------dance-single - ----------------
#NOTES:
     dance-single:
     :
     Hard:
     7:
     0.497,0.539,0.264,0.201,0.000:
0000
0000
0000
0000
,
0000
0000
0000
0000
,
0000
0000
0000
0000
,
0000
0000
0000
0000
0000
0000
0010
0100
,
0001
0000
0100
0010
1000
0000
0001
0100
,
0010
0000
1000
0010
0100
0000
0001
0100
,
0010
0000
0100
0010
1000
0000
0001
1000
,
0000
0001
0000
1000
0000
0001
0000
0000
,
0100
0010
0100
0000
0000
0001
0010
0100
,
1000
0100
0010
0001
1000
0000
0000
0000
,
0010
0100
0010
0000
0000
1000
0100
0010
,
0001
0010
0100
1000
0001
0000
0000
0000
,
0100
0010
0100
0000
0000
0001
1000
0100
,
0010
0001
0010
0100
1000
0000
0001
0000
,
0100
0000
0010
0100
0000
0100
0010
0000
,
1000
0000
0001
0000
0100
0010
0100
0000
,
0010
0101
0100
1010
,
0000
0001
0000
0000
0000
0100
0000
0000
,
0010
0100
0001
1000
0100
0010
0001
0000
,
1000
0000
0010
0000
1000
0010
0100
0000
,
1010
0000
0010
0000
0101
0000
0100
0010
,
1000
0001
0010
0100
1000
0000
0011
0000
,
0011
1100
1100
1001
,
0000
1010
0000
0000
0101
0000
0000
1001
,
0000
1001
0000
1001
0000
1001
0000
1001
,
0000
1001
0000
0100
0010
0000
0000
0000
,
1000
0000
0001
0000
0100
0010
1000
0001
,
1000
0001
0010
0100
1000
0000
0001
0000
,
1000
0000
0010
0100
0001
1000
0001
0100
,
0001
1000
0010
1000
0100
0010
0001
0000
,
1000
0000
0001
0000
0100
0000
0010
0100
,
0010
1000
0001
1000
0100
0010
0001
0000
,
1000
0000
0001
0000
0100
0010
0100
0001
,
1000
0001
0100
0001
0010
0100
1000
0000
,
0100
0010
0001
0010
,
0100
0000
1000
0000
0010
0000
0100
0001
,
0000
1000
0100
0010
0001
0000
1000
0100
,
1000
0100
0010
0001
0010
0001
1000
0000
,
0001
1000
0010
0100
,
0010
0000
0100
0000
0001
0100
0010
0000
,
1000
0000
0001
0000
1000
0100
0010
0001
,
0100
0001
1000
0010
1000
0010
2000
0000
,
0000
3002
0000
0203
,
0000
0320
0000
0130
,
1001
0000
1000
0010
0100
0000
0010
0100
,
0001
1100
0000
0011
0000
0000
0200
0000
,
0000
0320
0000
2030
,
0000
3002
0000
0103
,
1001
0000
0100
0000
0010
0000
0100
0001
,
0000
1000
0000
0001
0000
1000
0002
0000
,
0000
2003
0000
3020
,
0000
0230
0000
0302
,
0000
0023
0000
0230
,
0000
0000
2300
0000
0000
3001
0000
0000
;

//---------------dance-single - ----------------
#NOTES:
     dance-single:
     :
     Medium:
     6:
     0.404,0.539,0.289,0.126,0.000:
0000
0000
0000
0000
,
0000
0000
0000
0000
,
0000
0000
0000
0000
,
0000
0000
0000
0010
,
0100
0010
0100
0010
,
1000
0001
0000
1000
,
0001
0000
1000
0000
0001
0000
0100
0010
,
0000
0101
0000
1010
0000
1001
0000
0000
,
1000
0001
1000
0000
0010
0000
0100
0001
,
0100
0010
1000
0001
,
1000
0010
1000
0000
0010
0000
0100
0000
,
0001
0010
0100
1001
,
0001
0010
0001
0000
1000
0000
0100
1000
,
0100
1000
0010
0100
,
0010
0000
1000
0010
1000
0000
0001
0100
,
0001
0000
0000
1000
0100
0010
0001
0000
,
0000
0010
0000
0100
,
0000
1000
0000
0100
,
1000
0001
0010
0001
,
0010
0100
1000
1001
,
0000
0100
0000
0010
,
0000
0001
0000
1001
,
0010
0100
0001
0011
,
0000
1100
0000
0000
1001
0000
0000
2002
,
0000
0000
0000
0000
,
0000
0000
3003
0010
0100
0000
0000
0000
,
1001
0000
1001
0000
0001
0100
0001
1000
,
0010
1000
0001
0100
0001
0000
1000
0000
,
1001
0000
1001
0000
0010
0000
1000
0100
,
1000
0001
0010
0001
1000
0100
1000
0000
,
1001
0000
1001
0000
0010
0100
0001
0100
,
0001
1000
0010
1000
0001
0000
1000
0000
,
1001
0000
1001
0000
0100
0010
1000
0100
,
1000
0001
0010
0001
1000
0100
1000
0000
,
0100
0000
0010
0000
,
0001
0000
0010
0000
,
0100
0000
0000
0000
1000
0000
0001
0010
,
0100
1000
0010
0100
0001
0000
1001
0000
,
0001
0000
1000
0000
,
0001
0000
0000
0000
0100
0010
0100
0000
,
0010
0000
0000
0000
1000
0000
0001
0010
,
0100
1000
0010
0100
0001
0000
0200
0000
,
0000
0320
0000
2030
,
0000
3002
0000
0103
,
0010
1000
0001
0010
,
0001
1000
0000
1000
0000
0000
0020
0000
,
0000
0230
0000
0302
,
0000
2003
0000
3010
,
0100
0000
0001
0000
1000
0000
0001
1000
,
0000
0101
0000
1010
0000
1001
0000
0000
,
0000
0100
0000
0001
,
0000
1000
0000
0001
,
0000
0100
0000
0010
,
0000
0000
1000
0000
0000
1001
0000
0000
;

//---------------dance-single - ----------------
#NOTES:
     dance-single:
     :
     Challenge:
     8:
     0.625,0.573,0.390,0.000,0.000: // measure 1
0000
0000
0000
0000
,  // measure 2
0000
0000
0000
0000
,  // measure 3
0000
0000
0000
0000
,  // measure 4
0000
0000
0000
0000
0000
0000
0100
0010
,  // measure 5
1000
0000
0001
0010
0100
1000
0001
0100
,  // measure 6
0010
1000
0001
1000
0001
0000
0010
0001
,  // measure 7
0100
0000
0010
0100
0001
0010
0100
1000
,  // measure 8
0000
0101
0000
1010
0000
1001
0000
0000
,  // measure 9
0100
0010
0100
0000
0001
1000
0100
0010
,  // measure 10
0001
0010
0100
1000
0001
0000
0100
0000
,  // measure 11
0010
0100
0010
0000
1000
0001
0010
0100
,  // measure 12
1000
0100
0010
0001
1000
0000
0010
0000
,  // measure 13
0100
0010
0100
0000
0001
1000
0100
0010
,  // measure 14
0001
0010
0100
1000
0001
0000
0100
0010
,  // measure 15
1000
0100
0010
0001
0010
0100
1000
0100
,  // measure 16
0001
0000
0100
0010
1000
0100
1000
0000
,  // measure 17
0010
0101
0100
1010
,  // measure 18
0100
0010
1000
0000
0010
0100
0001
0100
,  // measure 19
0010
1000
0001
1000
0100
0010
0001
0000
,  // measure 20
1000
0010
0001
0000
0010
0100
1000
0000
,  // measure 21
1010
0000
0010
0000
0101
0000
0100
0010
,  // measure 22
1000
0001
0010
0100
1000
0000
0001
0100
,  // measure 23
0001
0100
0010
1000
0010
1000
0001
0010
,  // measure 24
0001
0010
0100
1000
0100
0000
0000
1001
,  // measure 25
0000
1001
0000
1001
0000
1001
0000
1001
,  // measure 26
0000
1001
0000
0010
0100
0000
0000
0000
,  // measure 27
1001
0000
1001
0000
0100
0010
1000
0001
,  // measure 28
1000
0001
0010
0100
1000
0000
0001
0000
,  // measure 29
1100
0000
0011
0000
0001
1000
0001
0100
,  // measure 30
0001
1000
0010
1000
0100
0010
0001
0000
,  // measure 31
1100
0000
0011
0000
0100
0010
0100
0010
,  // measure 32
1000
0001
1000
0001
0010
0100
1000
0000
,  // measure 33
0101
0000
1010
0000
0100
0010
0100
0001
,  // measure 34
1000
0001
0100
0001
0010
0100
1000
0000
,  // measure 35
0001
0100
0010
0100
0001
0000
1000
0010
,  // measure 36
0100
0010
1000
0000
0010
0100
0001
1000
,  // measure 37
0001
1000
0100
0010
0001
0000
1000
0010
,  // measure 38
1000
0010
0100
0001
0100
0001
1000
0000
,  // measure 39
0001
0100
0010
0100
0001
0000
1000
0010
,  // measure 40
0100
0010
1000
0000
0001
0100
0010
0100
,  // measure 41
0001
1000
0001
0000
1000
0100
0010
0001
,  // measure 42
0100
1000
0100
0001
0010
0100
1000
0000
,  // measure 43
0010
0100
0001
0000
1000
0100
0010
0001
,  // measure 44
0010
0100
1000
0100
0001
0000
1100
0000
,  // measure 45
0011
0000
1000
0010
0100
0000
0010
0100
,  // measure 46
0001
1100
0000
0011
0000
0000
1001
0000
,  // measure 47
0001
0100
0010
0000
1000
0100
0010
0001
,  // measure 48
0010
0100
1000
0010
0001
0000
1100
0000
,  // measure 49
0011
0000
1000
0010
0100
0010
1000
0001
,  // measure 50
0000
1100
0000
0011
0000
1000
0001
0010
,  // measure 51
0001
0000
1000
0100
1000
0000
0001
0100
,  // measure 52
0010
1000
0010
0100
0001
0000
1000
0010
,  // measure 53
1000
0000
0001
0100
0001
0000
1000
0100
,  // measure 54
0010
0001
0010
0100
1000
1001
0000
0000
;

//---------------dance-single - ----------------
#NOTES:
     dance-single:
     :
     Beginner:
     2:
     0.095,0.168,0.050,0.000,0.000:
0000
0000
0000
0000
,
0000
0000
0000
0000
,
0000
0000
0000
0000
,
0000
0000
0000
0000
,
0100
0000
0000
0000
,
0000
0000
0000
0000
,
0010
0000
0000
0000
,
0000
0000
0000
0000
,
1000
0000
0000
0000
,
0000
0000
0000
0000
,
0001
0000
0000
0000
,
0000
0000
0000
0000
,
0010
0000
0000
0000
,
0000
0000
0000
0000
,
0001
0000
0000
0000
,
1000
0000
0000
0000
,
0001
0000
0000
0000
,
0000
0000
0000
1000
,
0000
0000
0000
0000
,
0000
0000
0000
0010
,
0000
0100
0000
0010
,
0000
0000
0000
1000
,
0000
0000
0000
0001
,
0000
0000
0000
0000
,
0000
0000
0000
0000
,
0000
0000
0000
0000
,
1000
0000
1000
0000
,
0001
0000
1000
0000
,
0001
0000
0010
0000
,
0001
0000
0001
0000
,
1000
0000
0001
0000
,
1000
0000
0100
0000
,
0010
0000
0001
0000
,
1000
0000
0001
0000
,
0000
0000
0000
0000
,
0000
0000
0000
1000
,
0000
0000
0000
0000
,
0000
0000
0000
1001
,
0000
0000
0000
0000
,
0000
0000
0000
0010
,
0000
0000
0000
0100
,
0000
0000
0000
0110
,
0000
0000
0000
0000
,
0000
0000
0000
0001
,
0000
1000
0000
0001
,
0000
1000
0000
0010
,
0000
0100
0000
0010
,
0000
1000
0000
0001
,
0000
1000
0000
0010
,
0000
0000
0000
1001
,
0000
0000
0000
0000
,
0000
0000
0000
0010
,
0000
0000
0000
0000
,
0000
0000
0000
0000
0000
1001
0000
0000
;
