#TITLE:Treasure Hoard;
#SUBTITLE:;
#ARTIST:ジョルカエフ多鬼島;
#TITLETRANSLIT:;
#SUBTITLETRANSLIT:;
#ARTISTTRANSLIT:DJORKAEFF TAKIJIMA;
#CREDIT:DMAxel;
#BANNER:Treasure Hoard.png;
#BACKGROUND:Treasure Hoard-bg.png;
#LYRICSPATH:Treasure Hoard.lrc;
#CDTITLE:pop'n music.png;
#MUSIC:Treasure Hoard.mp3;
#OFFSET:-0.100;
#SAMPLESTART:6.040;
#SAMPLELENGTH:12.000;
#SELECTABLE:YES;
#BPMS:0.000=120.000,164.000=240.000;
#STOPS:;
#BGCHANGES:;

//---------------dance-single - ----------------
#NOTES:
     dance-single:
     :
     Easy:
     3:
     0.262,0.312,0.034,0.137,0.000: // measure 1
0000
0000
0000
0000
,  // measure 2
0000
0000
0000
0000
,  // measure 3
0000
0000
0000
0000
,  // measure 4
0001
0010
0100
1000
,  // measure 5
0001
0010
0100
1000
,  // measure 6
0001
0010
0100
1000
,  // measure 7
0001
0010
0100
1000
,  // measure 8
0001
1000
0010
0100
,  // measure 9
0001
1000
0010
0100
,  // measure 10
0001
1000
0010
0100
,  // measure 11
0001
1000
0010
0100
,  // measure 12
0000
0000
0001
0001
,  // measure 13
1000
0000
1000
1000
,  // measure 14
0010
0100
0001
0001
,  // measure 15
1000
0000
1000
1000
,  // measure 16
0010
0100
0001
0001
,  // measure 17
1000
0000
1000
1000
,  // measure 18
0001
0010
0100
0100
,  // measure 19
1000
0001
0010
0010
,  // measure 20
0001
1000
0200
0000
,  // measure 21
1300
0100
0002
0000
,  // measure 22
0013
0100
2000
0000
,  // measure 23
3001
0010
2000
0000
,  // measure 24
3100
0010
0002
0000
,  // measure 25
1003
0010
0002
0000
,  // measure 26
0103
0010
2000
0000
,  // measure 27
3001
0100
2000
0000
,  // measure 28
3010
0100
0202
0000
,  // measure 29
0303
0000
2020
0000
,  // measure 30
3030
0000
0220
0000
,  // measure 31
0330
0000
2002
0000
,  // measure 32
0000
0000
0000
3003
,  // measure 33
0000
0000
0100
0010
,  // measure 34
0001
1000
0001
0010
,  // measure 35
0100
1000
0001
1000
,  // measure 36
0100
0010
0001
0100
,  // measure 37
0010
0100
0010
1000
,  // measure 38
0010
1000
0001
0010
,  // measure 39
0001
0010
0001
1000
,  // measure 40
0001
1000
0100
1000
,  // measure 41
0100
0010
0000
0000
,  // measure 42
0001
0000
1000
0001
,  // measure 43
1000
0000
1000
0000
,  // measure 44
0001
0000
0100
0010
,  // measure 45
0100
0000
0001
0000
,  // measure 46
1000
0000
0001
1000
,  // measure 47
0001
0000
0100
0000
,  // measure 48
0001
0000
0100
0010
,  // measure 49
0100
0000
0001
0000
,  // measure 50
1000
0000
0100
0000
,  // measure 51
0001
0000
0100
0000
,  // measure 52
1000
0000
0001
0000
,  // measure 53
1000
0000
0001
0000
,  // measure 54
1000
0000
0010
0000
,  // measure 55
0001
0000
0010
0000
,  // measure 56
1000
0000
0001
0000
,  // measure 57
1000
0000
0001
0000
,  // measure 58
1000
0000
0001
1000
,  // measure 59
0001
0000
0100
0000
,  // measure 60
0100
0000
0010
0100
,  // measure 61
0010
0000
1000
0000
,  // measure 62
0001
0000
1000
0001
,  // measure 63
1000
0000
0010
0000
,  // measure 64
0010
0000
0100
0010
,  // measure 65
0100
0000
0001
0000
,  // measure 66
1000
0000
0010
0000
,  // measure 67
0001
0000
0010
0000
,  // measure 68
1000
0000
0001
0000
,  // measure 69
1000
0000
0001
0000
,  // measure 70
1000
0000
0100
0000
,  // measure 71
0001
0000
0100
0000
,  // measure 72
1000
0000
0001
0000
,  // measure 73
1000
0000
0001
0000
,  // measure 74
0010
0000
0000
0000
;

//---------------dance-single - ----------------
#NOTES:
     dance-single:
     :
     Medium:
     6:
     0.402,0.406,0.086,0.017,0.000: // measure 1
0000
0000
0000
0000
,  // measure 2
0000
0000
0000
0000
,  // measure 3
0000
0000
0000
0000
,  // measure 4
1000
1000
0001
0000
0010
0000
0001
1000
,  // measure 5
0001
0001
1000
0000
0100
0000
1000
0001
,  // measure 6
1000
1000
0001
0000
0010
0000
0001
1000
,  // measure 7
0001
0001
1000
0000
0100
0000
1000
0001
,  // measure 8
1000
1000
0001
0000
0100
0000
0001
1000
,  // measure 9
0001
0001
1000
0000
0010
0000
1000
0001
,  // measure 10
1000
1000
0001
0000
0100
0000
0001
1000
,  // measure 11
0001
0001
1000
0000
0010
0000
0100
0000
,  // measure 12
0000
0000
0000
0000
0001
1000
0001
1000
,  // measure 13
0001
0000
0001
0000
0100
0010
0100
0000
,  // measure 14
0010
0100
0010
0000
1000
0001
1000
0001
,  // measure 15
1000
0000
1000
0000
0010
0100
0010
0000
,  // measure 16
0100
0010
0100
0000
0001
1000
0001
1000
,  // measure 17
0001
0000
0001
0000
0100
0010
0100
0000
,  // measure 18
0010
0100
0010
0000
1000
0001
1000
0001
,  // measure 19
1000
0000
1000
0000
0010
0100
0010
0000
,  // measure 20
0100
0010
0100
0000
0001
0001
0001
0000
,  // measure 21
0100
0000
0001
0000
1000
1000
1000
0000
,  // measure 22
0100
0000
0010
0000
0001
0001
0001
0000
,  // measure 23
0010
0000
0001
0000
1000
1000
1000
0000
,  // measure 24
0010
0000
0100
0000
0001
0001
0001
0000
,  // measure 25
1000
0000
0001
0000
1000
1000
1000
0000
,  // measure 26
0100
0000
0010
0000
0001
0001
0001
0000
,  // measure 27
0100
0000
0001
0000
1000
1000
1000
0000
,  // measure 28
0100
0010
0011
0000
,  // measure 29
1001
0000
1100
0000
,  // measure 30
1001
0000
0101
0000
,  // measure 31
1001
0000
2020
0000
,  // measure 32
0000
0000
0000
0000
,  // measure 33
3030
0000
0000
0000
0010
0100
0010
0000
,  // measure 34
0010
0000
0010
0000
1000
0001
1000
0000
,  // measure 35
1000
0000
1000
0000
0010
0100
0010
0000
,  // measure 36
0010
0000
0010
0000
1000
0001
1000
0000
,  // measure 37
1000
0000
0010
0000
0100
0010
0100
0000
,  // measure 38
0100
0000
0100
0000
0001
1000
0001
0000
,  // measure 39
0001
0000
0001
0000
0100
0010
0100
0000
,  // measure 40
0100
0000
0100
0000
0001
1000
0001
0000
,  // measure 41
0001
0000
0100
0000
0010
0010
0010
0010
,  // measure 42
0010
0100
0010
0000
1000
0000
0010
0000
,  // measure 43
1000
0010
1000
0001
,  // measure 44
0100
0000
0010
0100
0010
0000
0100
0000
,  // measure 45
0001
0100
0001
1000
,  // measure 46
0010
0100
0010
0000
1000
0000
0100
0000
,  // measure 47
1000
0100
1000
0001
,  // measure 48
0010
0000
0100
0010
0100
0000
0010
0000
,  // measure 49
0001
0010
0001
1000
,  // measure 50
0100
0010
0001
1000
,  // measure 51
0100
0000
1001
0000
,  // measure 52
0100
0001
1000
0001
,  // measure 53
0010
1000
0010
0001
,  // measure 54
0010
0100
1000
0001
,  // measure 55
0010
0000
1001
0000
,  // measure 56
0010
1000
0001
1000
,  // measure 57
0100
0001
0100
1000
,  // measure 58
0010
0100
0010
0000
1000
0000
0010
0000
,  // measure 59
1000
0010
1000
0001
,  // measure 60
0100
0000
0010
0100
0010
0000
0100
0000
,  // measure 61
0001
0100
0001
1000
,  // measure 62
0010
0100
0010
0000
1000
0000
0100
0000
,  // measure 63
1000
0100
1000
0001
,  // measure 64
0010
0000
0100
0010
0100
0000
0010
0000
,  // measure 65
0001
0010
0001
1000
,  // measure 66
0100
0010
0001
1000
,  // measure 67
0100
0000
1001
0000
,  // measure 68
0010
0100
0001
1000
,  // measure 69
0100
0001
0100
1000
,  // measure 70
0100
0010
0001
1000
,  // measure 71
0001
0010
1000
0010
,  // measure 72
0001
0010
0100
1000
,  // measure 73
0001
0010
0001
1000
,  // measure 74
0100
0000
0000
0000
;

//---------------dance-single - ----------------
#NOTES:
     dance-single:
     :
     Hard:
     8:
     0.559,0.655,0.137,0.009,0.133: // measure 1
0000
0000
0000
0000
,  // measure 2
0000
0000
0000
0000
,  // measure 3
0000
0000
0000
0000
,  // measure 4
0001
0001
0010
0100
1000
0100
0010
0100
,  // measure 5
1000
1000
0100
0010
0001
0010
0100
0010
,  // measure 6
0001
0001
1000
0100
0001
0010
0100
1000
,  // measure 7
0010
0010
1000
0100
0001
0010
0100
1000
,  // measure 8
0100
0100
0001
0010
1000
0100
0010
0001
,  // measure 9
0010
0000
0010
0000
0100
0000
0010
0000
0001
0000
1000
0000
0010
0100
0010
0000
,  // measure 10
1000
0000
1000
0000
0010
0000
0100
0000
0010
0000
1000
0000
0001
0010
0001
0000
,  // measure 11
1000
0000
1000
0000
0001
0000
0100
0000
0010
0000
0100
0000
0001
1000
0001
1000
,  // measure 12
0000
0000
0000
0000
0100
0010
0001
0010
,  // measure 13
1000
0000
0000
0000
1001
0000
0000
0000
1000
0000
0000
0010
0000
0100
0000
0000
,  // measure 14
0010
1000
0100
0001
0010
0100
1000
0100
,  // measure 15
0001
0000
0000
0000
1001
0000
0000
0000
0001
0000
0000
0100
0000
0010
0000
0000
,  // measure 16
0100
0001
0010
1000
0100
0010
0001
0010
,  // measure 17
1000
0000
0000
0000
1001
0000
0000
0000
1000
0000
0010
0100
0000
0010
0000
0000
,  // measure 18
1000
0100
0001
0010
0100
1000
0100
0001
,  // measure 19
0100
0000
0000
0000
1001
0000
0000
0000
0001
0000
0100
0010
0000
0100
0000
0000
,  // measure 20
0001
0010
1000
0100
0110
0000
1001
0000
,  // measure 21
0001
0100
1000
0000
0010
0100
0010
1000
,  // measure 22
0001
0010
0001
0010
0110
0000
1001
0000
,  // measure 23
1000
0100
0001
0000
0100
0010
0100
0001
,  // measure 24
1000
0100
1000
0100
0110
0000
1001
0000
,  // measure 25
0001
0010
1000
0000
0010
0100
0010
1000
,  // measure 26
0001
0100
0001
0100
0110
0000
1001
0000
,  // measure 27
0100
0010
0100
0001
1000
0010
1000
0010
,  // measure 28
0110
0000
0000
0000
1001
0000
0000
0000
0100
0000
0000
0100
0000
0000
0100
0000
,  // measure 29
0010
0000
0000
0010
0000
0000
0010
0000
1000
0000
0000
1000
0000
0000
1000
0000
,  // measure 30
0001
0000
0000
0001
0000
0000
0001
0000
0010
0000
0000
0010
0000
0000
0010
0000
,  // measure 31
0100
0000
0000
0100
0000
0000
0100
0000
1000
0000
0000
0001
0000
0000
1000
0000
,  // measure 32
0020
0000
0000
0000
,  // measure 33
0000
0000
0000
0000
0130
0000
0000
0000
0001
0010
0001
0000
1000
0000
0100
0000
,  // measure 34
0010
0000
0100
0000
1000
0000
0001
0000
1000
0100
1000
0000
0001
0000
0010
0000
,  // measure 35
0100
0000
0010
0000
0001
0000
1000
0000
0001
0100
0001
0000
1000
0000
0100
0000
,  // measure 36
0010
0000
0100
0000
1000
0000
0001
0000
1000
0010
1000
0000
0001
0000
0010
0000
,  // measure 37
0100
0000
0010
0000
0001
0000
1000
0000
0010
0100
0010
0000
1000
0000
0001
0000
,  // measure 38
0010
0000
0100
0000
1000
0010
1000
0000
1000
0001
1000
0000
0001
0000
1000
0000
,  // measure 39
0100
0000
0010
0000
0001
0100
0001
0000
0001
1000
0001
0000
1000
0000
0001
0000
,  // measure 40
0100
0000
0010
0000
1000
0100
1000
0000
1000
0001
1000
0000
0001
0000
1000
0000
,  // measure 41
0010
0000
0100
0000
0001
1000
0001
0000
1000
0000
1000
0000
1000
0000
1000
0000
,  // measure 42
0010
0100
0010
0000
1000
0000
0100
0010
,  // measure 43
0000
0001
0000
0010
0100
0010
0100
0000
,  // measure 44
1000
0001
1000
0001
1000
0000
0100
0010
,  // measure 45
0000
0001
0000
0010
0100
0010
0100
0000
,  // measure 46
1000
0001
1000
0000
0001
0000
0010
0100
,  // measure 47
0000
1000
0000
0100
0010
0100
0010
0000
,  // measure 48
0001
1000
0001
1000
0001
0000
0010
0100
,  // measure 49
0000
1000
0000
0100
0010
0100
0010
0000
,  // measure 50
0001
0010
1000
0010
,  // measure 51
0001
0001
1001
0000
,  // measure 52
1000
0000
0001
0010
0000
0010
0001
0000
,  // measure 53
0100
0010
1000
0001
,  // measure 54
1000
0100
0001
0100
,  // measure 55
1000
1000
1001
0000
,  // measure 56
0001
0000
1000
0100
0000
0100
1000
0000
,  // measure 57
0010
0100
0001
1000
,  // measure 58
0001
1000
0001
0000
1000
0000
0100
0010
,  // measure 59
0000
0001
0000
0010
0100
0010
0100
0000
,  // measure 60
1000
0001
1000
0001
1000
0000
0100
0010
,  // measure 61
0000
0001
0000
0010
0100
0010
0100
0000
,  // measure 62
1000
0001
1000
0000
0001
0000
0010
0100
,  // measure 63
0000
1000
0000
0100
0010
0100
0010
0000
,  // measure 64
0001
1000
0001
1000
0001
0000
0010
0100
,  // measure 65
0000
1000
0000
0100
0010
0100
0010
0000
,  // measure 66
0001
0010
1000
0010
,  // measure 67
0001
0001
1000
0010
,  // measure 68
1000
0001
1000
0001
0000
1000
0001
0000
,  // measure 69
0010
0100
1000
0100
,  // measure 70
0001
1000
0001
1000
0000
0001
1000
0000
,  // measure 71
0100
0010
0001
0010
,  // measure 72
1000
0001
1000
0001
0000
1000
0001
0000
,  // measure 73
0010
0000
0100
0000
1000
0010
1000
0001
;

//---------------dance-single - ----------------
#NOTES:
     dance-single:
     :
     Challenge:
     9:
     0.683,0.748,0.043,0.009,0.321:
0000
0000
0000
0000
,
0000
0000
0000
0000
,
0000
0000
0000
0000
,
0010
1000
0010
0000
1000
0000
0100
0000
0001
0000
0100
0000
1000
0001
1000
0000
,
0100
1000
0100
0000
1000
0000
0010
0000
0001
0000
0010
0000
1000
0001
1000
0000
,
0100
1000
0100
0000
1000
0000
0001
0000
0010
0000
1000
0000
0010
0100
0010
0000
,
1000
0001
1000
0000
0001
0000
1000
0000
0100
0000
0001
0000
0100
0010
0100
0000
,
0001
1000
0001
0000
1000
0000
0100
0000
0010
0000
0100
0000
1000
0001
1000
0000
,
0001
0010
0001
0000
0010
0000
0100
0000
1000
0000
0001
0000
0100
0010
1000
0000
,
0001
1000
0001
0000
1000
0000
0100
0000
0010
0000
0001
0000
0100
0010
1000
0000
,
0001
1000
0001
0000
1000
0000
0010
0000
0100
0000
0010
0000
1000
0010
1000
0001
,
0000
0000
0000
0000
1000
0100
0010
0100
,
1000
0000
1000
0000
1000
0000
0000
0000
0001
0000
0100
0010
0000
0010
0000
0000
,
1000
0100
0010
0001
1000
0100
0010
0100
,
1000
0000
1000
0000
1000
0000
0000
0000
0001
0000
0100
0010
0000
0010
0000
0000
,
1000
0001
1000
1000
0001
0010
0100
0010
,
0001
0000
0001
0000
0001
0000
0000
0000
1000
0000
0010
0100
0000
0010
0100
0000
,
0001
0010
0100
1000
0001
0010
0100
0010
,
0001
0000
0001
0000
0001
0000
0000
0000
1000
0000
0100
0010
0000
0100
0010
0000
,
0001
0000
0010
0000
0100
0000
1000
0000
0001
0010
0001
0000
1001
0000
0000
0000
,
1000
0010
0100
0001
0010
0100
0010
0001
,
1000
0000
0100
0000
0001
0000
0100
0000
1000
0100
1000
0000
1001
0000
0000
0000
,
0001
0100
0010
1000
0100
0010
0100
1000
,
0001
0000
0100
0000
1000
0000
0100
0000
0001
0100
0001
0000
1001
0000
0000
0000
,
1000
0010
0100
0001
1000
0100
0010
0100
,
1000
0000
0010
0000
0001
0000
0010
0000
1000
0010
1000
0000
1001
0000
0000
0000
,
0001
0010
0100
1000
0001
0100
0010
0100
,
0001
0000
0100
0000
1000
0000
0001
0000
1000
0000
0000
0100
0000
0000
1000
0000
,
0010
0100
0010
0100
0000
0001
0100
0000
0001
0000
0000
0010
0000
0000
0001
0000
,
0100
0010
0100
0010
0000
1000
0010
0000
1000
0000
0000
0010
0000
0000
1000
0000
,
0010
0100
0010
0100
0000
0001
0010
0000
0001
0000
0000
0100
0000
0000
0001
0000
,
2000
0000
0000
0000
,
3010
0000
0000
0000
1001
0000
0000
0000
0010
0001
0010
0000
0001
0000
0001
0000
,
1000
0010
1000
0000
0001
0100
0001
0000
0010
0001
0010
0000
0001
0000
0001
0000
,
1000
0100
1000
0100
0010
0001
1000
0000
0100
1000
0100
0000
1000
0000
1000
0000
,
0001
0100
0001
0000
1000
0001
1000
0000
0100
1000
0100
0000
1000
0000
1000
0000
,
0001
0010
0001
0010
0100
1000
0001
0000
0100
0010
0100
0000
0001
0000
1000
0000
,
0010
1000
0010
0000
1000
0100
1000
0000
0010
0100
0010
0000
1000
0000
0001
0000
,
1000
0010
1000
0010
0100
0001
1000
0000
0100
0010
0100
0000
1000
0000
0001
0000
,
0100
0001
0100
0000
0001
0010
0001
0000
0100
0010
0100
0000
0001
0000
1000
0000
,
0001
0100
0001
0100
0010
1000
0010
1000
0001
1000
0001
1000
0001
1000
0001
1000
,
0100
0010
0100
0000
1000
0000
0001
0010
,
0100
1000
0001
0100
0010
0100
0010
0100
,
0001
1000
0001
1000
0001
0000
1000
0100
,
0010
0001
1000
0010
0100
0010
0100
0000
,
0001
1000
0001
0000
1000
0000
0001
0010
,
0100
1000
0001
0010
0100
0010
0100
0010
,
0001
1000
0001
1000
0001
0000
1000
0100
,
0010
0001
1000
0010
0100
0010
0100
0010
,
1000
0001
1000
0100
0000
0010
0000
0001
,
0100
0010
0100
0000
0001
1000
0001
0000
,
0010
0000
0100
1000
0000
1000
0010
0000
,
0100
0010
0100
0000
0001
0100
0001
0000
,
1000
0001
1000
0100
0000
0010
0000
0001
,
0100
0010
0100
0000
0001
1000
0001
0000
,
0010
0000
0100
1000
0000
1000
0010
0000
,
0100
0001
0010
0100
1000
0001
1000
0001
,
0010
0100
0010
0000
0001
0000
0001
0010
,
0100
1000
0010
0100
0010
1000
0010
1000
,
0000
0100
0010
0001
0100
0000
0010
0100
,
0010
1000
0100
0010
0001
1000
0001
1000
,
0010
0100
0010
0000
1000
0000
0001
0010
,
0100
1000
0001
0010
0100
0010
0100
0010
,
0000
0001
0010
0100
1000
0010
1000
0010
,
0100
0001
0010
0100
0010
0100
0010
0000
,
0001
0010
0001
1000
0000
0010
0000
0100
,
0010
0100
0001
0000
1000
0001
1000
0000
,
0001
0010
0001
1000
0000
0010
0000
0100
,
0010
0100
0001
0000
0100
0010
0100
0010
,
1000
0100
1000
0001
0000
0010
0000
0100
,
0010
0100
1000
0000
0001
1000
0001
0000
,
1000
0100
1000
0001
0000
0010
0000
0100
,
0010
0100
1000
0100
0010
0001
0010
0100
;

//---------------dance-single - ----------------
#NOTES:
     dance-single:
     :
     Beginner:
     2:
     0.099,0.156,0.000,0.000,0.000: // measure 1
0000
0000
0000
0000
,  // measure 2
0000
0000
0000
0000
,  // measure 3
0000
0000
0000
0000
,  // measure 4
1000
0000
0000
0000
,  // measure 5
1000
0000
0000
0000
,  // measure 6
1000
0000
0000
0000
,  // measure 7
1000
0000
0000
0000
,  // measure 8
0001
0000
0000
0000
,  // measure 9
0001
0000
0000
0000
,  // measure 10
0001
0000
0000
0000
,  // measure 11
0001
0000
0000
0000
,  // measure 12
0000
0000
1000
0000
,  // measure 13
0000
0000
0001
0000
,  // measure 14
0000
0000
1000
0000
,  // measure 15
0000
0000
0010
0000
,  // measure 16
0000
0000
0100
0000
,  // measure 17
0000
0000
0010
0000
,  // measure 18
0000
0000
1000
0000
,  // measure 19
0000
0000
0001
0000
,  // measure 20
0000
0000
1000
0000
,  // measure 21
0000
0000
0000
0000
,  // measure 22
0000
0000
0100
0000
,  // measure 23
0000
0000
0000
0000
,  // measure 24
0000
0000
0010
0000
,  // measure 25
0000
0000
0000
0000
,  // measure 26
0000
0000
0001
0000
,  // measure 27
0000
0000
0000
0000
,  // measure 28
0000
0000
0001
0000
,  // measure 29
0000
0000
0001
0000
,  // measure 30
0000
0000
1000
0000
,  // measure 31
0000
0000
1000
0000
,  // measure 32
0000
0000
0000
0000
,  // measure 33
0000
0000
1000
0000
,  // measure 34
1000
0000
0001
0000
,  // measure 35
0001
0000
1000
0000
,  // measure 36
1000
0000
0001
0000
,  // measure 37
0001
0000
1000
0000
,  // measure 38
1000
0000
0010
0000
,  // measure 39
0010
0000
0100
0000
,  // measure 40
0100
0000
0001
0000
,  // measure 41
0001
0000
0000
0000
,  // measure 42
1000
0000
1000
0000
,  // measure 43
1000
0000
0000
0000
,  // measure 44
0001
0000
0001
0000
,  // measure 45
0001
0000
0000
0000
,  // measure 46
1000
0000
1000
0000
,  // measure 47
1000
0000
0000
0000
,  // measure 48
0001
0000
0001
0000
,  // measure 49
0001
0000
0000
0000
,  // measure 50
0100
0000
0000
0000
,  // measure 51
0010
0000
0000
0000
,  // measure 52
0100
0000
0000
0000
,  // measure 53
0100
0000
0000
0000
,  // measure 54
0010
0000
0000
0000
,  // measure 55
0100
0000
0000
0000
,  // measure 56
0010
0000
0000
0000
,  // measure 57
0010
0000
0000
0000
,  // measure 58
1000
0000
1000
0000
,  // measure 59
1000
0000
0000
0000
,  // measure 60
0001
0000
0001
0000
,  // measure 61
0001
0000
0000
0000
,  // measure 62
1000
0000
1000
0000
,  // measure 63
1000
0000
0000
0000
,  // measure 64
0001
0000
0001
0000
,  // measure 65
0001
0000
0000
0000
,  // measure 66
0100
0000
0000
0000
,  // measure 67
0010
0000
0000
0000
,  // measure 68
0100
0000
0000
0000
,  // measure 69
0100
0000
0000
0000
,  // measure 70
0010
0000
0000
0000
,  // measure 71
0010
0000
0000
0000
,  // measure 72
1000
0000
0000
0000
,  // measure 73
0001
0000
0000
0000
,  // measure 74
0001
0000
0000
0000
;
