#TITLE:Toxic;
#SUBTITLE:;
#ARTIST:WaveGroup/Shoichiro Hirata;
#TITLETRANSLIT:;
#SUBTITLETRANSLIT:;
#ARTISTTRANSLIT:;
#CREDIT:DMAxel;
#BANNER:Toxic.png;
#BACKGROUND:Toxic-bg.png;
#LYRICSPATH:Toxic.lrc;
#CDTITLE:beatmaniaIIDX.png;
#MUSIC:Toxic.mp3;
#OFFSET:-8.420;
#SAMPLESTART:68.414;
#SAMPLELENGTH:12.000;
#SELECTABLE:YES;
#BPMS:0.000=143.010;
#STOPS:;
#BGCHANGES:-26.000=Toxic.avi=1.000=1=1=0,
99999=-nosongbg-=1.000=0=0=0 // don't automatically add -songbackground-
;

//---------------dance-single - ----------------
#NOTES:
     dance-single:
     :
     Easy:
     2:
     0.185,0.239,0.148,0.166,0.000: // measure 1
1000
0000
0001
0000
,  // measure 2
1000
0000
1000
0000
,  // measure 3
0001
0000
1000
0000
,  // measure 4
0002
0000
1003
0000
,  // measure 5
1001
0000
0010
0000
,  // measure 6
0200
0000
0310
0000
,  // measure 7
1000
0000
0100
0000
,  // measure 8
0020
0000
0130
0000
,  // measure 9
1001
0000
0001
0000
,  // measure 10
0110
0000
2000
0000
,  // measure 11
3001
0000
0000
0000
,  // measure 12
0001
0000
0000
0000
,  // measure 13
1000
0000
0000
0000
,  // measure 14
1000
0000
0000
0000
,  // measure 15
0010
0000
0000
0000
,  // measure 16
0100
0000
0000
0000
,  // measure 17
1001
0000
0001
0000
,  // measure 18
1000
0000
0110
0000
,  // measure 19
0110
0000
0001
0000
,  // measure 20
1000
0000
0001
0000
,  // measure 21
0010
0000
0100
0000
,  // measure 22
1000
0000
0001
0000
,  // measure 23
1000
0000
0100
0000
,  // measure 24
0010
0000
0001
0000
,  // measure 25
1001
0000
0001
0000
,  // measure 26
0110
0000
0000
0000
,  // measure 27
2000
0000
0000
0000
,  // measure 28
0000
0000
0000
0000
,  // measure 29
3002
0000
0000
0000
,  // measure 30
0000
0000
0000
0000
,  // measure 31
1003
0000
0000
0000
,  // measure 32
0100
0000
0000
0000
,  // measure 33
1000
0000
0001
0000
,  // measure 34
0200
0000
0301
0000
,  // measure 35
0101
0000
1000
0000
,  // measure 36
1010
0000
1001
0000
,  // measure 37
0001
0000
1000
0000
,  // measure 38
0020
0000
1030
0000
,  // measure 39
0001
0000
1000
0000
,  // measure 40
0020
0000
1030
0000
,  // measure 41
0100
0000
0010
0000
,  // measure 42
0002
0000
1003
0000
,  // measure 43
1001
0000
1000
0000
,  // measure 44
0001
0000
0010
0000
,  // measure 45
0002
0000
1003
0000
,  // measure 46
2000
0000
3001
0000
,  // measure 47
0110
0000
0110
0000
,  // measure 48
1001
0000
0001
1000
,  // measure 49
0010
0010
0010
0000
,  // measure 50
0200
0000
0310
0000
,  // measure 51
0100
0100
0100
0000
,  // measure 52
0020
0000
0130
0000
,  // measure 53
0001
1000
0001
0000
,  // measure 54
0200
0000
0301
0000
,  // measure 55
1000
0001
1000
0000
,  // measure 56
0020
0000
1030
0000
,  // measure 57
2002
0000
0000
3003
,  // measure 58
0010
0100
0010
0000
;

//---------------dance-single - ----------------
#NOTES:
     dance-single:
     :
     Hard:
     7:
     0.458,0.480,0.157,0.305,0.115:
0100
0001
0100
0001
1000
0000
0100
0010
,
0002
1000
0100
1003
,
0010
1000
0010
1000
0001
0000
0010
0100
,
2000
0001
0100
3001
,
0100
0100
0001
0010
0100
0000
1000
0100
,
0002
1000
0100
1003
,
0010
0010
1000
0100
0010
0000
0001
0100
,
2000
0001
0100
3001
,
0101
0000
1010
0000
,
0100
0000
0000
0001
0000
0000
0100
0000
0000
0001
0000
0000
1000
0000
0001
0000
1000
0000
0001
0000
1000
0000
0001
0000
,
1000
0000
0000
0020
0000
0000
0000
0000
1030
0000
0000
0000
0000
0000
0000
0000
,
0010
0000
0000
0200
0000
0000
0000
0000
0301
0000
0000
0000
0000
0000
0000
0000
,
0001
0000
0000
2000
0000
0000
0000
0000
3100
0000
0000
0000
0000
0000
0000
0000
,
1000
0000
0000
0002
0000
0000
0000
0000
0013
0000
0000
0000
0000
0000
0000
0000
,
0002
0000
0000
1000
0000
0000
1003
0000
0100
0000
0000
0000
0000
0000
0000
0000
,
2000
0000
0000
0001
0000
0000
3001
0000
0100
0000
0000
0000
0000
0000
0001
0000
,
1000
1000
0010
0100
0010
0000
1000
0100
,
0002
0000
0000
2003
0000
0000
3010
0000
0010
0000
0010
0000
,
1001
0000
1000
0010
0100
0000
0001
0100
,
1000
0000
0001
0100
0010
0000
1000
0100
,
0001
0000
1000
0010
0100
0000
0001
0100
,
1000
0000
0001
0100
0010
0000
1000
0100
,
0002
0000
1000
0000
1003
0000
0001
0010
,
2000
0000
0001
0000
3001
0000
1000
0001
,
1001
0000
1000
0100
0010
0000
0001
0100
,
2000
0001
0001
3001
,
1020
0000
1000
0000
,
0001
0000
1030
0000
,
0200
0000
0001
0000
,
1000
0000
0301
0100
,
1001
0000
0000
0001
0000
0000
0100
0000
0000
0000
0000
0000
0001
0000
0100
0000
,
1000
0000
0000
0001
0000
0000
0000
0000
1000
0000
0100
0000
0010
0000
0001
0000
,
1000
1000
0001
0010
0100
0000
1000
0100
,
0002
0000
2003
0000
3001
0010
0100
0000
,
1100
0000
0101
0000
,
0010
0000
0000
1000
0000
0000
0010
0000
0000
1000
0000
0000
0001
0000
1000
0000
0001
0000
1000
0000
0001
0000
1000
0000
,
0001
0000
0010
0100
1000
0001
1000
0001
,
1000
0000
0000
0100
0000
0000
0010
0000
0000
0000
0000
0000
0101
0000
0000
0000
,
0010
1000
0100
0000
1000
0100
0010
0000
,
0001
0000
0000
1000
0000
0000
0100
0000
0000
0000
1000
0000
0100
0000
0010
0000
,
0001
0000
0100
0001
0010
0000
0001
0010
,
0100
0000
0000
1000
0000
0000
0001
0000
0000
0000
0000
0000
1010
0000
0000
0000
,
0100
0001
0010
0000
0001
0010
0100
0000
,
1000
0010
0100
0001
1000
0000
0100
0000
,
0012
0000
1000
1000
0000
1003
0001
0100
,
2000
0000
0001
0001
0000
3001
1000
0010
,
0110
0000
0110
0000
,
1001
0000
1001
1001
,
0001
0001
1000
0100
0010
0000
0001
0100
,
2000
0000
3002
0000
1003
0100
0001
0000
,
1000
1000
0001
0010
0100
0000
1000
0100
,
0002
0000
2003
0000
3001
0100
1000
0000
,
0001
0000
0100
0000
0001
0100
0001
0000
1000
0000
0000
0010
0100
0000
0010
0000
,
2000
0000
3200
0000
0301
0010
0100
0000
,
1000
0000
0010
0000
1000
0010
1000
0000
0001
0000
0000
0100
0010
0000
0100
0000
,
0002
0000
0203
0000
1300
0100
0010
0000
,
2002
0000
0000
3003
,
2000
0000
3002
0000
0013
0100
1000
0000
;

//---------------dance-single - ----------------
#NOTES:
     dance-single:
     :
     Challenge:
     8:
     0.538,0.533,0.305,0.212,0.309:
1000
0000
0100
0000
0010
0000
0010
0000
0010
0000
0000
1000
0001
0000
0010
0000
,
0200
1000
1300
1001
,
0001
0000
0010
0000
0100
0000
0100
0000
0100
0000
0000
0001
1000
0000
0100
0000
,
0020
0001
0031
1001
,
0110
0000
0000
0000
0001
0000
0100
0000
1000
0000
0000
0001
1000
0000
0100
0000
,
0020
0000
0000
0001
0000
0000
0031
0000
0000
0000
0000
0001
1000
0000
1000
0000
,
0010
0000
0010
0000
1000
0000
0100
0000
0001
0000
0000
1000
0001
0000
0010
0000
,
0200
0000
0000
1000
0000
0000
1300
0000
0000
0000
0000
1000
0001
0000
0001
0000
,
0110
0000
0000
0100
0000
0000
0000
0000
1001
0000
0000
0001
0000
0000
0000
0000
,
0100
0000
0000
0001
0000
0000
0100
0000
0000
0001
0000
0000
1000
0000
0100
0000
1000
0000
0100
0000
0010
0000
0001
0000
,
1000
0000
0000
0010
0000
0000
0100
0000
0101
0000
0000
0000
0000
0000
0000
0000
,
0001
0000
0000
0100
0000
0000
0010
0000
1010
0000
0000
0000
0000
0000
0000
0000
,
1000
0000
0000
0100
0000
0000
0010
0000
0011
0000
0000
0000
0000
0000
0000
0000
,
0001
0000
0000
0010
0000
0000
0100
0000
1100
0000
0000
0000
0000
0000
0000
0000
,
1000
0000
0000
0010
0000
0000
0100
0000
0110
0000
0000
0000
0000
0000
0000
0000
,
0001
0000
0000
0100
0000
0000
0010
0000
0110
0000
0000
0000
0000
0000
1000
0000
,
1000
0000
0010
0000
0100
0010
0100
0000
0100
0000
0000
0001
1000
0000
1000
0000
,
0001
0000
0000
0100
0000
0000
1000
0000
0000
0100
0000
0000
0001
0000
0000
0000
0101
0000
0000
0000
1100
0000
0000
0000
,
1001
0000
0000
0000
1000
0000
0010
0000
1000
0000
0000
0001
0100
0000
0010
0000
,
0100
0000
0000
0001
0000
0000
1000
0000
0001
0000
0000
1000
0010
0000
0100
0000
,
0010
0000
0000
1000
0000
0000
0001
0000
1000
0000
0000
0001
0100
0000
0010
0000
,
0100
0000
0000
0000
0001
0000
0010
0000
0100
0000
0000
1000
0010
0000
0100
0000
,
0010
0000
0000
1000
0000
0000
0001
0000
1000
0000
0000
0001
0100
0000
0010
0000
,
0100
0000
0000
0001
0000
0000
1000
0000
0100
0000
0010
0000
0001
0000
1000
0000
,
0001
0000
0100
0000
0001
0100
0001
0000
1000
0000
0000
0100
1000
0000
0010
0000
,
0200
0001
0001
0301
,
2001
0100
3002
0000
,
1000
0100
2003
0000
,
3002
0100
1000
0100
,
2003
3200
0302
1003
,
1001
0000
0000
1000
0000
0000
0010
0000
0000
0000
0000
0100
0001
0000
1000
0000
,
0100
0000
0000
1000
0000
0000
0000
0000
0001
0000
0010
0000
0100
0000
1000
0000
,
0001
0000
1000
0000
0010
1000
0010
0000
1000
0000
0000
0001
0100
0000
0010
0000
,
0200
0000
0302
0000
1003
0100
0010
0000
,
1001
0000
0000
0001
0000
0000
0000
0000
1100
0000
0000
1000
0000
0000
0000
0000
,
0010
0000
0000
0001
0000
0000
0010
0000
0000
0001
0000
0000
0100
0000
0010
0000
0100
0000
0010
0000
1000
0000
0100
0000
,
1000
0000
0100
0010
0001
1000
0001
0000
,
0100
0000
0000
0001
0000
0000
2000
0000
0000
0000
0000
0000
3001
0000
0010
0000
,
0100
1020
0031
1020
,
0031
0000
0000
0010
0000
0000
1000
0000
0001
0000
0000
0000
0010
0000
0001
0000
,
0100
0000
0001
0100
1000
0001
1000
0000
,
0010
0000
0000
1000
0000
0000
0002
0000
0000
0000
0000
0000
1003
0000
0000
0000
,
0021
1030
0021
1030
,
1000
0010
0100
0001
0010
0100
1000
0001
,
0012
0000
1000
1000
0003
1000
0001
0000
,
2100
0000
0001
0001
3000
0001
1000
0010
,
0110
0000
0110
0000
,
1001
0000
1001
1001
,
0010
0000
0100
0000
0010
1000
0010
0000
1000
0000
0000
0001
0100
0000
0010
0000
,
0100
0000
0000
0001
0000
0000
1000
0000
0100
0000
0010
0000
0011
0000
0000
0000
,
0100
0000
0010
0000
0100
0001
0100
0000
0001
0000
0000
1000
0010
0000
0100
0000
,
0010
0000
0000
1000
0000
0000
0001
0000
0010
0000
0100
0000
1100
0000
0000
0000
,
0010
0000
0100
0000
0001
0010
0001
0010
0001
0000
0000
1000
0010
0000
1000
0000
,
0001
0000
0000
0010
0000
0000
0100
0000
1000
0000
0010
0000
0110
0000
0000
0000
,
0100
0000
0010
0000
1000
0100
1000
0100
1000
0000
0000
0001
0100
0000
0001
0000
,
1000
0000
0000
0100
0000
0000
0010
0000
0001
0000
0100
0000
0110
0000
0000
0000
,
1000
0000
0001
0000
0100
0001
0100
0001
0100
0000
0000
0001
1000
0100
1000
0000
,
0002
0000
0100
0000
1003
0100
0010
0000
;

//---------------dance-single - ----------------
#NOTES:
     dance-single:
     :
     Medium:
     5:
     0.396,0.373,0.295,0.277,0.009:
1100
0000
0010
0000
0001
0000
0100
0010
,
0200
0001
0001
0301
,
0011
0000
0100
0000
1000
0000
0010
0100
,
0020
0100
0100
0130
,
1100
0000
0010
0000
0001
0000
0100
0010
,
0200
0010
0010
0310
,
0011
0000
0100
0000
1000
0000
0010
0100
,
0020
0100
0100
0130
,
0101
0000
1100
0000
,
1000
0001
1000
0001
1000
0000
0110
0000
,
1002
0000
0013
0000
,
2001
0000
3100
0000
,
1002
0000
0103
0000
,
2001
0000
3010
0000
,
0120
0000
1030
0000
,
0210
0000
0000
0000
0301
0000
0000
1000
,
0001
0000
0010
0001
0010
0000
0100
1000
,
0020
0100
0130
0000
,
0110
0000
1000
0010
1000
0000
0001
0001
,
0010
0000
0001
0010
0001
0000
1000
1000
,
0100
0000
1000
0100
1000
0000
0001
0001
,
0100
0000
0001
0100
0001
0000
1000
1000
,
0010
0000
0200
0000
0001
0000
0301
0010
,
0200
0000
1000
0000
1300
0100
0010
0000
,
0011
0000
0100
1000
0010
0000
0010
0000
,
2002
0000
0000
3003
,
0200
0000
0000
0000
,
0302
0000
2003
0000
,
3020
0000
0000
0000
,
2030
0000
3002
0000
,
1003
0000
0000
0001
0000
0000
0200
0000
0000
0000
0000
0000
0301
0000
0000
0000
,
0001
0000
0000
1000
0000
0000
0000
0000
0010
0000
0000
0000
1000
0000
0000
0000
,
1010
0000
0100
0001
0100
0000
0001
0010
,
0200
0010
0010
0310
,
1010
0000
0011
0000
,
0001
1000
0001
1000
0001
0000
1000
0000
,
1001
0000
0001
0100
0001
0000
1000
0000
,
0100
1100
0010
1001
,
1000
0000
1000
0010
1000
0000
0001
0010
,
0100
0000
1000
0001
1000
0000
1000
0010
,
1000
0001
0010
0011
,
0100
1000
0001
1001
,
1000
0010
0100
0000
0010
0100
0010
0000
,
2000
0001
0001
3001
,
0102
0000
1003
0010
,
2010
0000
3001
0100
,
0101
0000
1100
0000
,
1001
0000
1001
1001
,
1000
0010
1000
0010
1000
0000
0100
0010
,
0002
1000
1000
1003
,
0001
0100
0001
0100
0001
0000
0010
0100
,
2000
0001
0001
3001
,
1000
0100
1000
0100
1000
0000
0010
0100
,
0002
1000
1000
1003
,
0001
0010
0001
0010
0001
0000
0100
0010
,
2000
0001
0001
3001
,
0011
0000
0000
0000
,
0100
0000
1000
0000
0100
0010
0001
0000
;

//---------------dance-single - ----------------
#NOTES:
     dance-single:
     :
     Beginner:
     1:
     0.098,0.158,0.102,0.000,0.000: // measure 1
1000
0000
0000
0000
,  // measure 2
0001
0000
0000
0000
,  // measure 3
1000
0000
0000
0000
,  // measure 4
0001
0000
0000
0000
,  // measure 5
1000
0000
0000
0000
,  // measure 6
1000
0000
0000
0000
,  // measure 7
0001
0000
0000
0000
,  // measure 8
0001
0000
0000
0000
,  // measure 9
0110
0000
0000
0000
,  // measure 10
0100
0000
0000
0000
,  // measure 11
0110
0000
0000
0000
,  // measure 12
0001
0000
0000
0000
,  // measure 13
0001
0000
0000
0000
,  // measure 14
1000
0000
0000
0000
,  // measure 15
1000
0000
0000
0000
,  // measure 16
0001
0000
0000
0000
,  // measure 17
1001
0000
0000
0000
,  // measure 18
0001
0000
0000
0000
,  // measure 19
1000
0000
0000
0000
,  // measure 20
0001
0000
0000
0000
,  // measure 21
1000
0000
0000
0000
,  // measure 22
0001
0000
0000
0000
,  // measure 23
0100
0000
0000
0000
,  // measure 24
0010
0000
0000
0000
,  // measure 25
0100
0000
0000
0000
,  // measure 26
0100
0000
0000
0000
,  // measure 27
0110
0000
0000
0000
,  // measure 28
0000
0000
0000
0000
,  // measure 29
0001
0000
0000
0000
,  // measure 30
0000
0000
0000
0000
,  // measure 31
1001
0000
0000
0000
,  // measure 32
1000
0000
0000
0000
,  // measure 33
0001
0000
0001
0000
,  // measure 34
1000
0000
0000
0000
,  // measure 35
1001
0000
0000
0000
,  // measure 36
0001
0000
0000
0000
,  // measure 37
1001
0000
0000
0000
,  // measure 38
0001
0000
0000
0000
,  // measure 39
1000
0000
0000
0000
,  // measure 40
0001
0000
0000
0000
,  // measure 41
0100
0000
0000
0000
,  // measure 42
0010
0000
0000
0000
,  // measure 43
0100
0000
0000
0000
,  // measure 44
0110
0000
0000
0000
,  // measure 45
0110
0000
0000
0000
,  // measure 46
0001
0000
0000
0000
,  // measure 47
1001
0000
1000
0000
,  // measure 48
1001
0000
0000
0000
,  // measure 49
1000
0000
0000
0000
,  // measure 50
0010
0000
0010
0000
,  // measure 51
1000
0000
0000
0000
,  // measure 52
0100
0000
0100
0000
,  // measure 53
1000
0000
0001
0000
,  // measure 54
0010
0000
0010
0000
,  // measure 55
0001
0000
0000
0000
,  // measure 56
0100
0000
0100
0000
,  // measure 57
0001
0000
0000
0000
,  // measure 58
1000
0000
0000
0000
;
