#TITLE:止マレ!;
#SUBTITLE:;
#ARTIST:平野綾, 茅原実里 & 後藤邑子;
#TITLETRANSLIT:Tomare!;
#SUBTITLETRANSLIT:;
#ARTISTTRANSLIT:Aya Hirano, Minori Chihara & Yuuko Goto;
#CREDIT:DMAxel;
#BANNER:Tomare!.png;
#BACKGROUND:Tomare!-bg.png;
#LYRICSPATH:Tomare!.lrc;
#CDTITLE:DMAxel Original Simfile.png;
#MUSIC:Tomare!.mp3;
#OFFSET:0.000;
#SAMPLESTART:39.367;
#SAMPLELENGTH:12.000;
#SELECTABLE:YES;
#BPMS:0.000=183.000;
#STOPS:;
#BGCHANGES:0.000=Tomare!.AVI=1.000=1=1=0,
99999=-nosongbg-=1.000=0=0=0 // don't automatically add -songbackground-
;

//---------------dance-single - ----------------
#NOTES:
     dance-single:
     :
     Easy:
     3:
     0.242,0.331,0.139,0.246,0.000: // measure 1
0000
0000
0000
0000
,  // measure 2
0000
0000
0000
0000
,  // measure 3
0000
0000
0000
0000
,  // measure 4
0000
0000
0000
0000
,  // measure 5
0000
0000
0000
0000
,  // measure 6
0000
0000
0000
0000
,  // measure 7
0000
0010
0000
0001
,  // measure 8
0000
0010
0000
0001
,  // measure 9
0000
1000
0000
0001
,  // measure 10
0000
1000
0000
0001
,  // measure 11
0000
1000
0000
0100
,  // measure 12
0000
1000
0000
0001
,  // measure 13
2002
0000
0000
0000
,  // measure 14
0000
0000
3003
0000
,  // measure 15
0010
0000
1000
0000
,  // measure 16
0010
0000
0100
0000
,  // measure 17
0010
0000
1000
0000
,  // measure 18
0100
0000
0022
0000
,  // measure 19
0033
1000
0000
0010
,  // measure 20
0000
0100
0000
0010
,  // measure 21
2002
0000
0000
0000
,  // measure 22
0000
3003
0000
0000
,  // measure 23
0010
0000
0001
0000
,  // measure 24
0010
0000
0100
0000
,  // measure 25
1000
0000
0001
0000
,  // measure 26
1000
0000
0001
0000
,  // measure 27
0220
0000
0000
0000
,  // measure 28
0000
0000
0000
0000
0330
0000
0000
2002
,  // measure 29
0000
0000
0000
0000
,  // measure 30
3003
0000
0000
0000
,  // measure 31
0010
0001
0010
0001
,  // measure 32
0010
0000
0001
0000
,  // measure 33
1000
0100
1000
0100
,  // measure 34
1000
0000
0010
0000
,  // measure 35
0100
0010
0100
0010
,  // measure 36
0100
0000
0001
0000
,  // measure 37
1000
0001
1000
0001
,  // measure 38
2002
0000
3003
0000
,  // measure 39
0010
0001
0100
0001
,  // measure 40
0010
0000
0001
0000
,  // measure 41
1000
0000
0001
0000
,  // measure 42
1000
0000
0010
0000
,  // measure 43
0100
0010
0100
0001
,  // measure 44
1000
0001
1000
0001
,  // measure 45
1000
0000
0010
0000
,  // measure 46
2200
0000
0000
3300
,  // measure 47
0010
0010
1001
0100
,  // measure 48
0022
0000
0000
0033
;

//---------------dance-single - ----------------
#NOTES:
     dance-single:
     :
     Hard:
     8:
     0.546,0.515,0.570,0.046,0.015: // measure 1
0000
0000
0000
0000
,  // measure 2
0000
0000
0000
0000
,  // measure 3
0000
0000
0000
0000
,  // measure 4
0000
0000
0000
0000
,  // measure 5
0000
0000
0000
0000
0000
0000
0000
2002
,  // measure 6
0000
0000
0000
3003
,  // measure 7
1100
0100
1000
0100
,  // measure 8
0010
0001
1000
1001
,  // measure 9
0000
0011
0010
0001
,  // measure 10
0010
0100
1000
1001
,  // measure 11
0000
0000
0010
0100
0010
0000
1000
0000
,  // measure 12
0100
0010
0001
1000
,  // measure 13
0011
0000
0100
1000
0000
0010
0100
0010
,  // measure 14
0000
0000
1001
0000
0010
0100
0010
0000
,  // measure 15
1001
0000
0100
1000
0100
1000
0010
0000
,  // measure 16
0100
0001
0010
1001
,  // measure 17
0000
0000
0010
0001
0010
0001
0100
0000
,  // measure 18
0010
0000
0000
0000
1000
0000
0000
0000
1100
0000
0000
1000
0000
0000
1001
0000
,  // measure 19
0000
0000
0001
0100
0010
0100
0000
0010
,  // measure 20
0000
1000
0010
0100
0010
0000
1001
0000
,  // measure 21
0101
0000
0000
0011
0000
0101
0000
2001
,  // measure 22
0000
0000
0100
0100
,  // measure 23
3100
0000
0010
0000
0001
0100
0010
0100
,  // measure 24
0010
0000
1000
0010
0000
0010
0100
0000
,  // measure 25
0001
1001
1000
1001
,  // measure 26
0001
0000
0110
0000
1000
0001
1000
0000
,  // measure 27
0101
0000
0000
0011
0000
0000
1001
0000
,  // measure 28
0000
1100
0000
0000
1001
0000
0010
0100
,  // measure 29
0000
0010
0010
0000
1000
0000
0100
0000
,  // measure 30
0011
0000
0000
0001
0000
0000
1000
0000
1001
0000
0000
0000
0000
0000
0000
0000
,  // measure 31
1100
0000
0010
0001
0100
0001
0010
0000
,  // measure 32
0001
0000
0100
0000
0010
1000
0100
0010
,  // measure 33
0001
0000
0100
0010
1000
0100
1000
0000
,  // measure 34
0010
0000
0100
0000
0010
1000
0100
0010
,  // measure 35
0001
0000
0100
0010
0100
0001
0000
0100
,  // measure 36
0000
0001
0010
0100
1000
0100
0010
0000
,  // measure 37
1001
0000
0010
1000
0100
0010
0001
0100
,  // measure 38
0001
1000
0001
1000
0000
0000
0000
0000
,  // measure 39
0011
0000
0100
1000
0000
0010
1000
0010
,  // measure 40
0100
0000
0001
0000
0010
0001
0010
0100
,  // measure 41
1000
0000
0010
0100
0010
1000
0000
0001
,  // measure 42
0100
0000
0010
0000
1000
0100
0010
0001
,  // measure 43
1000
0010
0100
0010
0000
1000
0010
0001
,  // measure 44
0000
0010
0001
0010
0000
0001
0010
1000
,  // measure 45
0010
0100
0010
1001
,  // measure 46
0011
0000
0010
0110
0000
1000
1001
0000
,  // measure 47
0010
0100
0010
0000
1001
0000
0010
0000
,  // measure 48
1100
0000
0010
0110
0000
0001
1001
0000
;

//---------------dance-single - ----------------
#NOTES:
     dance-single:
     :
     Challenge:
     8:
     0.660,0.588,0.631,0.308,0.015:
0000
0000
0000
0000
,
0000
0000
0000
0000
,
0000
0000
0000
0000
,
0000
0000
0000
0000
,
0000
0000
0000
0000
0000
0000
0000
2002
,
0000
0000
0000
3003
,
0101
0000
0010
0001
0010
0000
0001
0100
,
0001
0000
0100
0010
0100
0000
1001
0000
,
0010
0000
1000
0100
1000
0000
0010
1000
,
0100
0010
0001
0000
0110
0000
1001
0000
,
0100
0000
0001
0100
0001
0000
0010
0001
,
0010
0100
1000
0000
0110
0000
1001
0000
,
1100
0000
0010
0110
0000
0001
0010
0100
,
1000
0000
1001
0000
0100
0010
0100
0000
,
1001
0000
0010
0001
0010
0002
0000
0203
,
0000
0310
1000
0100
0010
0000
1001
0000
,
0010
0000
0100
1000
0100
2000
0000
3020
,
0000
0000
0130
0000
0001
0000
0000
0000
0011
0000
0000
0011
0000
0000
1001
0000
,
0000
0000
1000
0010
0100
0020
0000
0230
,
0000
0301
0100
0010
0100
0000
1001
0000
,
1010
0000
0100
0110
0000
0101
0000
1001
,
0000
0100
0011
1010
,
1001
0000
0100
0000
1000
0010
0100
0010
,
0200
0000
0301
0100
0000
0100
0020
0000
,
2030
0100
3002
0010
,
2003
0000
0100
0000
3001
1000
0001
0000
,
1010
0000
0100
0101
0000
0010
0011
0000
,
0100
1100
0000
0010
0001
0100
0010
2000
,
0000
0100
3100
0000
0001
0100
0010
0000
,
1100
0000
0000
1100
0000
0000
0011
0000
1001
0000
0000
0000
0110
0000
0000
0000
,
0001
0010
0100
1000
0010
1000
0100
2000
,
0000
0000
0001
0000
3001
0010
0100
1000
,
0001
0100
0010
0100
0001
0020
0000
0032
,
0000
0000
1000
0000
1003
0100
0010
0001
,
1000
0010
0100
0010
1000
0100
0000
1001
,
0000
0010
0001
0100
1000
0010
0001
0000
,
0100
0010
0100
0001
0010
0100
1000
0010
,
1000
0001
1000
0001
0000
0100
0010
0000
,
1100
0000
0010
0001
0100
0001
0010
0002
,
0000
0000
1000
0000
1003
0100
0010
0001
,
1000
0010
0100
0010
1000
0002
0000
2003
,
0000
0000
0001
0000
3001
0010
0100
1000
,
0001
0100
0010
0100
0000
0001
0100
1000
,
0000
0100
1000
0100
1000
0010
0100
0001
,
0100
0010
0100
0000
0001
1000
0001
0000
,
1100
0000
0100
0110
0000
0001
1001
0000
,
0100
0010
0100
0000
0011
0000
0100
1000
,
0011
0000
0100
0110
0000
1000
1001
0000
;

//---------------dance-single - ----------------
#NOTES:
     dance-single:
     :
     Beginner:
     2:
     0.141,0.217,0.108,0.000,0.000: // measure 1
0000
0000
0000
0000
,  // measure 2
0000
0000
0000
0000
,  // measure 3
0000
0000
0000
0000
,  // measure 4
0000
0000
0000
0000
,  // measure 5
0000
0000
0000
0000
,  // measure 6
0000
0000
0000
0000
,  // measure 7
0000
0001
0000
1000
,  // measure 8
0000
0000
0000
0000
,  // measure 9
0000
0001
0000
1000
,  // measure 10
0000
0000
0000
0000
,  // measure 11
0000
1000
0000
0001
,  // measure 12
0000
0000
0000
0000
,  // measure 13
1001
0000
0000
0000
,  // measure 14
0000
0000
0000
0000
,  // measure 15
0000
1000
0000
0010
,  // measure 16
0000
1000
0000
0000
,  // measure 17
0000
0001
0000
0100
,  // measure 18
0000
0001
0000
0000
,  // measure 19
0000
0100
0000
0010
,  // measure 20
0000
0100
0000
0000
,  // measure 21
1001
0000
0000
0000
,  // measure 22
0000
0000
0000
0000
,  // measure 23
0001
0000
1000
0000
,  // measure 24
0100
0000
1000
0000
,  // measure 25
0001
0000
0010
0000
,  // measure 26
0001
0000
1000
0000
,  // measure 27
1001
0000
0000
0000
,  // measure 28
0000
0000
0000
0000
,  // measure 29
0001
0000
1000
0000
,  // measure 30
1001
0000
0000
0000
,  // measure 31
0000
0010
0000
1000
,  // measure 32
0000
0001
0000
0100
,  // measure 33
0000
0001
0000
0100
,  // measure 34
0000
0010
0000
0100
,  // measure 35
0000
0010
0000
1000
,  // measure 36
0000
0010
0000
1000
,  // measure 37
0000
0001
0000
0000
,  // measure 38
1001
0000
0000
0000
,  // measure 39
1000
0000
0001
0000
,  // measure 40
1000
0000
0000
0000
,  // measure 41
0001
0000
1000
0000
,  // measure 42
0001
0000
0000
0000
,  // measure 43
0000
0100
0000
0010
,  // measure 44
0000
0100
0000
0001
,  // measure 45
0000
1000
0000
0000
,  // measure 46
1001
0000
0000
0000
,  // measure 47
0010
0000
0000
0000
,  // measure 48
1001
0000
0000
0000
;

//---------------dance-single - ----------------
#NOTES:
     dance-single:
     :
     Medium:
     6:
     0.429,0.478,0.447,0.185,0.000: // measure 1
0000
0000
0000
0000
,  // measure 2
0000
0000
0000
0000
,  // measure 3
0000
0000
0000
0000
,  // measure 4
0000
0000
0000
0000
,  // measure 5
0000
0000
0000
0000
,  // measure 6
0000
0000
0000
0000
,  // measure 7
1001
0010
0001
0010
,  // measure 8
0100
1000
0001
1001
,  // measure 9
0000
1001
0100
1000
,  // measure 10
0100
0010
0001
1001
,  // measure 11
0000
0010
0100
0001
,  // measure 12
0010
0100
1000
0001
,  // measure 13
1100
0000
0000
0011
0000
0010
0000
1002
,  // measure 14
0000
0100
0100
0103
,  // measure 15
1001
0010
0001
0100
,  // measure 16
0010
1000
0100
1001
,  // measure 17
0000
0100
1000
0010
,  // measure 18
0100
0000
0001
0000
1001
0000
0000
1001
,  // measure 19
0000
0000
1000
0000
0010
0100
0000
0010
,  // measure 20
0000
0100
0001
0000
0010
0000
1001
0000
,  // measure 21
1100
0000
0000
0011
0000
0010
0000
1001
,  // measure 22
0000
0000
0100
0100
,  // measure 23
1001
0100
1000
0010
,  // measure 24
1000
0000
0002
0000
0000
2003
0000
0000
,  // measure 25
3001
0100
0010
0100
,  // measure 26
0001
1000
0001
1000
,  // measure 27
0002
0000
0000
2003
0000
0000
3020
0000
,  // measure 28
0000
0230
0000
0000
0302
0000
0000
2000
,  // measure 29
0000
0000
0000
3003
,  // measure 30
0220
0000
0330
0000
,  // measure 31
0011
0000
0100
1000
0100
0000
1000
0000
,  // measure 32
0001
0100
0010
0100
,  // measure 33
1001
0000
0010
0001
0010
0000
0100
0000
,  // measure 34
1000
0010
0100
0010
,  // measure 35
1000
0000
0000
0001
0000
0100
0000
0010
,  // measure 36
0000
0100
0001
0000
0010
0000
0100
0000
,  // measure 37
1001
0000
0010
1000
0010
0000
0100
0000
,  // measure 38
0010
0100
0010
0100
0000
0000
0000
0000
,  // measure 39
1100
0010
0001
0100
,  // measure 40
0001
0100
0010
1000
,  // measure 41
0100
0000
0000
1000
0000
0010
0000
0200
,  // measure 42
0000
0000
0000
0001
0000
0301
0000
0000
,  // measure 43
0100
0000
0001
0100
0000
0010
0100
0010
,  // measure 44
0000
0100
0010
0100
0000
0010
1000
0000
,  // measure 45
0010
0100
0010
1001
,  // measure 46
1100
0000
0000
0101
0000
0000
1001
0000
,  // measure 47
0010
0010
1001
0100
,  // measure 48
0011
0000
0000
1010
0000
0000
1001
0000
;
