#TITLE:Tokyo European Espresso;
#SUBTITLE:;
#ARTIST:FinalOffset;
#TITLETRANSLIT:;
#SUBTITLETRANSLIT:;
#ARTISTTRANSLIT:;
#CREDIT:DMAxel;
#BANNER:Tokyo European Espresso.png;
#BACKGROUND:Tokyo European Espresso-bg.png;
#LYRICSPATH:Tokyo European Espresso.lrc;
#CDTITLE:beatmania.png;
#MUSIC:Tokyo European Espresso.mp3;
#OFFSET:-8.140;
#SAMPLESTART:15.672;
#SAMPLELENGTH:12.000;
#SELECTABLE:YES;
#BPMS:0.000=127.140;
#STOPS:;
#BGCHANGES:;

//---------------dance-single - ----------------
#NOTES:
     dance-single:
     :
     Easy:
     2:
     0.152,0.195,0.025,0.285,0.000: // measure 1
2000
0000
3002
0000
,  // measure 2
2003
0000
3002
0000
,  // measure 3
0203
0000
0320
0000
,  // measure 4
0000
0000
0030
0000
,  // measure 5
0200
0000
0320
0000
,  // measure 6
0230
0000
0320
0000
,  // measure 7
2030
0000
3002
0000
,  // measure 8
0000
0000
0003
0000
,  // measure 9
1000
0000
0000
0000
,  // measure 10
0001
0000
0000
0000
,  // measure 11
1000
0000
0000
0000
,  // measure 12
0001
0000
0000
0000
,  // measure 13
1000
0000
1000
0000
,  // measure 14
0001
0000
0001
0000
,  // measure 15
1000
0000
1000
0000
,  // measure 16
0001
0000
0001
0000
,  // measure 17
1001
0000
1000
0000
,  // measure 18
0001
0000
1000
0000
,  // measure 19
0001
0000
0010
0000
,  // measure 20
0100
0010
0100
0000
,  // measure 21
1001
0000
0001
0000
,  // measure 22
1000
0000
0001
0000
,  // measure 23
1000
0000
0010
0000
,  // measure 24
0100
0010
0100
0000
,  // measure 25
0002
0000
0000
0000
,  // measure 26
2003
0000
0000
0000
,  // measure 27
3020
0000
0000
0000
,  // measure 28
0230
0000
0000
0000
,  // measure 29
0301
0000
0000
1000
0000
0000
0000
0000
,  // measure 30
0001
0000
0000
1000
0000
0000
0000
0000
,  // measure 31
1000
0000
0000
0001
0000
0000
0000
0000
,  // measure 32
2000
0000
0000
3001
,  // measure 33
0002
0000
0203
0000
,  // measure 34
0320
0000
2030
0000
,  // measure 35
3002
0000
2003
0000
,  // measure 36
3001
0000
0000
0000
;

//---------------dance-single - ----------------
#NOTES:
     dance-single:
     :
     Hard:
     7:
     0.455,0.456,0.236,0.273,0.149: // measure 1
2000
3010
0020
0130
,  // measure 2
0002
1003
0002
0103
,  // measure 3
0200
0000
0310
0000
2000
0000
3001
1000
,  // measure 4
0100
0000
0010
0000
0000
0000
1001
0000
0000
0000
0000
0000
1000
0000
0001
0100
,  // measure 5
0002
1003
2000
3100
,  // measure 6
0020
0130
2000
3001
,  // measure 7
0002
0000
0013
0000
0200
0000
0310
0001
,  // measure 8
0010
0000
0100
0000
0000
0000
1001
0000
0000
0000
0000
0000
0001
0000
1000
0010
,  // measure 9
1000
0100
0010
0001
1000
0100
1000
0001
,  // measure 10
0001
0100
0000
0001
0000
1000
0001
0000
,  // measure 11
0001
0010
0100
1000
0001
0100
0001
0001
,  // measure 12
1000
0100
0000
1000
0000
0001
1000
0000
,  // measure 13
0010
0000
0010
0100
0010
0000
0000
1000
0010
0000
1000
0000
1001
0000
0000
0000
,  // measure 14
0100
0000
0100
0010
0100
0000
0000
0001
0100
0000
0001
0000
1001
0000
0000
0000
,  // measure 15
0010
0000
0010
0100
0010
0000
0000
1000
0100
0000
1000
0000
1001
0000
0000
0000
,  // measure 16
0100
0000
0100
0010
0100
0000
0000
0001
0010
0000
0001
0000
1001
0000
0000
0000
,  // measure 17
1100
0000
1000
0000
0101
0001
0001
0000
,  // measure 18
0011
0000
0001
0000
1010
1000
1000
0000
,  // measure 19
1100
0000
1000
0000
0101
0001
0001
0000
,  // measure 20
0011
1010
1001
1000
,  // measure 21
0002
0000
0103
0000
0200
0010
0310
0000
,  // measure 22
2000
0000
3010
0000
0020
0100
0130
0000
,  // measure 23
0002
0000
1003
0000
2000
0001
3001
0000
,  // measure 24
1100
0000
0000
0000
0101
0000
0000
0000
1001
0000
0000
0000
0001
0000
0001
1000
,  // measure 25
0001
0010
0100
1000
0010
0000
0100
0001
,  // measure 26
1000
0100
0010
0001
0100
1000
0100
0010
,  // measure 27
0100
0000
1000
0100
0010
0001
0100
0010
,  // measure 28
0200
0000
0000
0000
0001
0000
0000
0000
0301
0000
0000
0000
0001
0000
1000
0001
,  // measure 29
1000
0100
0010
0001
0100
0000
0010
1000
,  // measure 30
0001
0010
0100
1000
0100
0001
0100
0010
,  // measure 31
0100
0000
0001
0010
0100
1000
0010
0100
,  // measure 32
0020
0000
0000
0000
1000
0000
0000
0000
1030
0000
0000
0000
1000
0000
0001
1000
,  // measure 33
0001
0000
0000
0001
0100
0000
0000
0100
1000
0000
0000
1000
0100
0000
0000
0100
,  // measure 34
0001
0000
0000
0001
0100
0000
0000
0100
0010
0000
0000
0010
1000
0000
0000
1000
,  // measure 35
0100
0000
0000
0100
0001
0000
0000
0001
0100
0000
0000
0100
1000
0000
0000
0000
,  // measure 36
2002
0000
0000
0000
,  // measure 37
0000
0000
0000
3003
;

//---------------dance-single - ----------------
#NOTES:
     dance-single:
     :
     Medium:
     4:
     0.257,0.282,0.062,0.335,0.000: // measure 1
1000
0100
1000
0000
1000
0100
1000
0000
,  // measure 2
0001
0010
0001
0000
0001
0010
0001
0000
,  // measure 3
0100
0010
0100
0000
0020
0000
1000
0000
,  // measure 4
0000
1000
0000
1030
,  // measure 5
1000
0010
1000
0000
1000
0010
1000
0000
,  // measure 6
0001
1000
0001
0000
1000
0001
1000
0000
,  // measure 7
0010
0100
0010
0000
0200
0000
0001
0000
,  // measure 8
0000
0001
0000
0301
,  // measure 9
0002
0000
0000
2003
0000
0000
0010
0000
,  // measure 10
0000
0000
0000
3010
0000
0100
0000
0001
,  // measure 11
0020
0000
0000
0032
0000
0000
1000
0000
,  // measure 12
0000
0000
0000
1003
0000
0100
0000
1000
,  // measure 13
0010
0010
0010
0100
,  // measure 14
0001
0001
0001
1000
,  // measure 15
0100
0100
0100
0010
,  // measure 16
0001
0001
0001
1000
,  // measure 17
1001
0000
1000
0000
,  // measure 18
0001
0000
1000
0000
,  // measure 19
0010
0000
0100
0000
,  // measure 20
0010
0100
0110
0000
,  // measure 21
1001
0000
1000
0000
,  // measure 22
0001
0000
1000
0000
,  // measure 23
0010
0000
0100
0000
,  // measure 24
0010
0100
0110
0000
,  // measure 25
2000
0000
0000
3020
0000
0000
0000
0130
,  // measure 26
0002
0000
0000
0023
0000
0032
0000
0000
,  // measure 27
2003
0000
0000
3200
0000
0000
0000
1300
,  // measure 28
0020
0000
0000
0130
,  // measure 29
0200
0000
0000
0302
0000
0000
0000
0013
,  // measure 30
0002
0000
0000
2003
0000
0000
0000
3100
,  // measure 31
2000
0000
0000
3020
0000
0000
0000
0130
,  // measure 32
0002
0000
0000
1003
,  // measure 33
2010
0000
3002
0000
,  // measure 34
0203
0000
0320
0000
,  // measure 35
0230
0000
0302
0000
,  // measure 36
1003
0000
0000
0000
;

//---------------dance-single - ----------------
#NOTES:
     dance-single:
     :
     Beginner:
     1:
     0.050,0.065,0.000,0.000,0.000: // measure 1
0001
0000
0000
0000
,  // measure 2
1000
0000
0000
0000
,  // measure 3
0001
0000
0000
0000
,  // measure 4
0000
0000
0000
0000
,  // measure 5
1000
0000
0000
0000
,  // measure 6
0001
0000
0000
0000
,  // measure 7
1000
0000
0000
0000
,  // measure 8
0000
0000
0000
0000
,  // measure 9
0010
0000
0000
0000
,  // measure 10
0000
0000
0000
0000
,  // measure 11
0010
0000
0000
0000
,  // measure 12
0000
0000
0000
0000
,  // measure 13
0100
0000
0000
0000
,  // measure 14
0010
0000
0000
0000
,  // measure 15
0100
0000
0000
0000
,  // measure 16
0010
0000
0000
0000
,  // measure 17
0100
0000
0000
0000
,  // measure 18
0001
0000
0000
0000
,  // measure 19
1000
0000
0000
0000
,  // measure 20
1000
0000
0000
0000
,  // measure 21
0001
0000
0000
0000
,  // measure 22
1000
0000
0000
0000
,  // measure 23
0010
0000
0000
0000
,  // measure 24
0010
0000
0000
0000
,  // measure 25
1000
0000
0000
0000
,  // measure 26
0000
0000
0000
0000
,  // measure 27
0001
0000
0000
0000
,  // measure 28
0000
0000
0000
0000
,  // measure 29
1000
0000
0000
0000
,  // measure 30
0000
0000
0000
0000
,  // measure 31
0001
0000
0000
0000
,  // measure 32
0000
0000
0000
0000
,  // measure 33
1000
0000
0000
0000
,  // measure 34
0010
0000
0000
0000
,  // measure 35
0100
0000
0000
0000
,  // measure 36
0001
0000
0000
0000
;
