#TITLE:Tir na n'Og;
#SUBTITLE:(Europa GT Remix);
#ARTIST:inOak;
#TITLETRANSLIT:;
#SUBTITLETRANSLIT:;
#ARTISTTRANSLIT:;
#CREDIT:DMAxel;
#BANNER:Tir na n'Og (Europa GT Remix).png;
#BACKGROUND:Tir na n'Og (Europa GT Remix)-bg.png;
#LYRICSPATH:;
#CDTITLE:pop'n music.png;
#MUSIC:Tir na n'Og (Europa GT Remix).mp3;
#OFFSET:0.120;
#SAMPLESTART:8.053;
#SAMPLELENGTH:12.000;
#SELECTABLE:YES;
#BPMS:0.000=220.000,198.000=110.000,222.000=220.000;
#STOPS:;
#BGCHANGES:;

//---------------dance-single - ----------------
#NOTES:
     dance-single:
     :
     Easy:
     3:
     0.233,0.375,0.045,0.223,0.000:
0000
0000
0000
0000
,
0000
0000
0000
0000
,
0000
0000
0000
0000
,
0000
0000
0000
0000
,
0000
0000
0000
0000
,
0000
0000
0000
0000
,
0000
0000
0000
0000
,
0000
0000
0001
0000
,
0000
0000
0000
0000
,
1000
0000
0000
0000
,
0000
0000
0001
0000
,
0000
0000
0000
0000
,
1000
0000
0000
0000
,
0000
0000
0020
0000
,
0000
0000
0130
0010
,
0100
0000
0000
0000
,
0001
1000
0002
0000
,
0000
2003
0000
0000
,
3020
0000
0000
0000
,
0000
0030
0200
0000
,
0000
0000
0301
0010
,
0002
0000
0000
0103
,
0010
1000
0200
0000
,
0000
2300
0000
3001
,
0020
0000
0031
0100
,
0100
0100
0002
0000
,
0000
0000
1003
0010
,
0200
0000
0000
0000
,
0310
0100
0002
0000
,
0000
2003
0000
0000
,
3020
0000
0000
0000
,
0000
0030
0200
0000
,
0000
0000
0301
0010
,
0002
0000
0000
0103
,
0010
1000
2000
0000
,
0000
3200
0000
1300
,
0002
0000
0000
0000
,
0000
0000
0103
0000
,
0000
0000
0000
0000
,
0001
0000
0000
0000
,
0000
0000
0000
1000
,
0000
0000
0100
0000
,
0000
1000
0000
0000
,
0001
0000
0020
0000
,
0000
0000
0000
0000
,
0032
0000
0000
0000
,
0000
0000
0000
1003
,
0000
0000
0010
0000
,
0010
0000
0000
0000
,
0000
0000
1001
0000
,
0000
0000
0000
0000
,
1001
0000
0000
0000
,
0000
0000
1001
0000
,
0000
0000
0000
0000
,
0020
0000
0000
0230
0000
0000
0302
0000
,
0000
2003
0000
0000
3001
0000
0000
0000
,
0000
1001
0000
1000
,
0000
0000
0001
0000
,
0000
0010
0000
0000
,
0001
0000
0000
0100
,
0000
0000
0010
0000
,
0000
1000
0100
0100
,
0100
1000
0000
0001
,
0000
0000
0010
0000
,
0000
0001
0000
0000
,
0100
0000
0000
0010
,
0000
0000
1000
0000
,
0000
0100
1000
1000
,
1000
0001
0000
0010
,
0000
0000
0001
0000
,
0000
0100
0000
0000
,
0010
0000
0000
0100
,
0000
0000
0010
0000
,
0000
0100
0001
0001
,
0001
0100
0000
0010
,
0000
0000
0100
0000
,
0000
0001
0000
0000
,
1000
0000
0000
0100
,
0000
0000
1000
0000
,
0000
0010
0100
0100
,
0100
0001
0010
0001
,
0100
0010
0000
0100
,
0000
0010
1000
0100
,
1000
0010
0100
0001
,
0010
0000
0001
0000
,
0100
0010
1000
0100
,
1000
0001
0100
0010
,
0100
0001
0100
0010
,
0000
0100
0000
0001
,
0010
0001
0100
0010
,
1000
0000
0100
0000
,
1000
0001
0010
0001
,
0100
0001
0000
0000
,
0000
0000
0000
1001
0000
0000
0000
0000
;

//---------------dance-single - ----------------
#NOTES:
     dance-single:
     :
     Challenge:
     9:
     0.791,1.000,0.697,0.143,0.112: // measure 1
0000
0000
0000
0000
,  // measure 2
0000
0000
0000
0000
,  // measure 3
0000
0000
0000
0000
,  // measure 4
0000
0000
0000
0000
,  // measure 5
0000
0000
0000
0000
,  // measure 6
0000
0000
0000
0000
,  // measure 7
0000
0000
0000
0000
,  // measure 8
0000
0000
0000
0000
1001
0000
0100
1000
,  // measure 9
0000
1000
0100
0010
0001
0010
0001
0100
,  // measure 10
0010
0000
0010
0100
0000
0100
0001
0100
,  // measure 11
0010
1000
0100
1000
0001
0100
1000
0100
,  // measure 12
0001
0000
0110
0000
0000
1100
0000
0000
,  // measure 13
0011
0000
1000
0100
0010
0001
0010
0001
,  // measure 14
0100
0010
1000
0100
1001
0000
0010
0100
,  // measure 15
0000
0100
0001
0000
0001
0100
0010
1000
,  // measure 16
0100
0000
0100
1000
0000
1000
0010
0000
,  // measure 17
0010
0100
0001
0100
0020
0000
1000
1000
,  // measure 18
0030
0000
0200
0000
0001
0001
0300
0000
,  // measure 19
0020
0000
1000
1000
0030
0000
1100
0000
,  // measure 20
0101
0000
1001
0000
1001
0000
0010
0100
,  // measure 21
0000
0100
0001
0000
0001
0100
0010
1000
,  // measure 22
0100
0000
0100
1000
0000
1000
0010
0000
,  // measure 23
1000
0010
0100
0001
0020
0000
0001
0001
,  // measure 24
0030
0000
0002
0000
1000
1000
0003
0000
,  // measure 25
0020
0000
0000
0000
1030
0100
0001
1000
,  // measure 26
0001
1000
0001
1000
0001
0000
0010
0100
,  // measure 27
1000
0100
0001
0000
1100
0000
0101
0000
,  // measure 28
1001
0000
0100
0010
0001
0100
1000
0000
,  // measure 29
0011
0000
1010
0000
1001
0000
0001
0010
,  // measure 30
1000
0000
1001
0000
1000
0100
0001
0000
,  // measure 31
1001
0000
0001
0010
1000
0010
0001
0000
,  // measure 32
1100
0000
0101
0000
1001
0000
1000
0100
,  // measure 33
1000
0010
0100
0000
0011
0000
1010
0000
,  // measure 34
1001
0000
0001
0100
1000
0000
0011
0000
,  // measure 35
1010
0000
1001
0000
1001
0000
1000
0100
,  // measure 36
0001
0000
1001
0000
0001
0010
1000
0000
,  // measure 37
0011
0000
0100
1000
0000
1000
0010
0000
,  // measure 38
0011
0000
1010
0000
1001
0000
1000
0001
,  // measure 39
0000
0001
0010
0001
0010
0100
1000
0100
,  // measure 40
1000
0000
0001
1000
0000
1000
0100
1000
,  // measure 41
0100
0010
0001
0100
0020
0000
1030
0100
,  // measure 42
0001
0000
0200
0000
0301
0010
1000
0000
,  // measure 43
0020
0000
1030
0100
0001
0000
0200
0000
,  // measure 44
0301
0010
1000
0000
0001
1000
0000
1000
,  // measure 45
0010
1000
0010
0100
0001
0100
0001
0000
,  // measure 46
1000
0001
0000
0001
0100
0001
0100
0010
,  // measure 47
1000
0010
1000
0010
0200
0000
0301
0010
,  // measure 48
1000
0000
0020
0000
1030
0100
0001
0000
,  // measure 49
0200
0000
0000
0310
0000
1000
0002
0000
,  // measure 50
1000
0000
0000
0000
1003
0000
0000
0000
1001
0000
1000
0100
0001
0000
0100
0010
,  // measure 51
1000
0000
0001
0010
1000
0000
0100
1000
0100
0010
0001
0010
0001
0000
1000
0000
,  // measure 52
1001
0000
0001
0010
1000
0000
0010
0100
0001
0000
1000
0100
0001
0000
0010
0001
,  // measure 53
0010
0100
1000
0100
1000
0000
0001
0000
1001
0000
1000
0100
0001
0000
0100
0010
,  // measure 54
1000
0000
0001
0010
1000
0000
0010
0100
0010
0100
0010
0000
1000
0000
0001
0000
,  // measure 55
1000
0010
0100
0010
1000
0000
0001
0100
0010
0100
0001
0000
1000
0100
0010
0100
,  // measure 56
1000
0000
0001
0010
0100
0010
0001
0000
2200
0000
0000
0000
0000
0000
0000
0000
,  // measure 57
3300
0000
1001
0000
0001
0010
1000
0010
,  // measure 58
0001
0100
0010
0000
1001
0000
1000
0100
,  // measure 59
0001
0100
1000
0010
0100
0000
0011
0000
,  // measure 60
1010
0000
1001
0000
0001
0010
1000
0000
,  // measure 61
0011
0000
1000
0100
0001
0000
1100
0000
,  // measure 62
0001
0010
1000
0010
0001
0000
1100
0000
,  // measure 63
0101
0000
1001
0000
0001
0010
0100
1000
,  // measure 64
0100
1000
0010
0000
1100
0000
0101
0000
,  // measure 65
1000
0100
0010
0001
0010
0001
0100
0000
,  // measure 66
0011
0000
1010
0000
0001
0010
1000
0010
,  // measure 67
0001
0000
1000
0010
0001
0010
1000
0000
,  // measure 68
0001
0100
1000
0000
0011
0000
1010
0000
,  // measure 69
1001
0000
1000
0100
0010
0001
0010
0001
,  // measure 70
0100
0000
0011
0000
1010
0000
0001
0010
,  // measure 71
0100
1000
0100
1000
0010
0000
1100
0000
,  // measure 72
0101
0000
1000
0100
0001
0100
1000
0000
,  // measure 73
0100
0010
0001
0010
0001
0010
1000
0000
,  // measure 74
0010
0100
0001
0000
0011
0000
1100
0000
,  // measure 75
1001
0000
1001
0000
0001
0010
0100
1000
,  // measure 76
0010
1000
0100
0000
0011
0000
0011
0000
,  // measure 77
1000
0100
0010
0001
0100
0000
1001
0000
,  // measure 78
1100
0000
0001
0010
1000
0000
0011
0000
,  // measure 79
1000
0100
0001
0000
1100
0000
0001
0010
,  // measure 80
1000
0010
0001
0000
1010
0000
0101
0000
,  // measure 81
1001
0000
1000
0100
0010
0001
0010
0100
,  // measure 82
1000
0001
0010
0100
1000
0010
0100
0000
,  // measure 83
0100
0010
0000
0010
1000
0010
0100
0001
,  // measure 84
0010
0000
0001
0010
0100
1000
0100
0000
,  // measure 85
0011
0000
0000
1010
0000
0000
0101
0000
,  // measure 86
1000
0100
0010
0001
0100
0010
0100
0010
,  // measure 87
1000
0000
1000
0100
0010
0001
0010
0100
,  // measure 88
1000
0010
0100
0010
0100
0010
1000
0000
,  // measure 89
1000
0010
0000
0010
0100
0010
1000
0100
,  // measure 90
0010
0001
0100
0010
0100
0010
1000
0000
,  // measure 91
0011
0000
0000
0110
0000
0000
1100
0000
,  // measure 92
0001
0010
0100
1000
0010
0100
0001
0100
,  // measure 93
0010
0100
0000
0000
0000
0000
0000
0000
,  // measure 94
0000
0000
0000
1001
1001
0000
0000
0000
;

//---------------dance-single - ----------------
#NOTES:
     dance-single:
     :
     Hard:
     9:
     0.698,0.752,0.697,0.196,0.040: // measure 1
0000
0000
0000
0000
,  // measure 2
0000
0000
0000
0000
,  // measure 3
0000
0000
0000
0000
,  // measure 4
0000
0000
0000
0000
,  // measure 5
0000
0000
0000
0000
,  // measure 6
0000
0000
0000
0000
,  // measure 7
0000
0000
0000
0000
,  // measure 8
0000
0000
0000
0000
1001
0000
0010
0001
,  // measure 9
0000
0001
0100
0000
0100
0010
0100
0010
,  // measure 10
0100
0000
0100
0001
0000
0001
1000
0000
,  // measure 11
1000
0001
1000
0001
1000
0000
0100
0000
,  // measure 12
0010
0000
0101
0000
0000
0110
0000
0000
,  // measure 13
1010
0000
0001
0010
0100
0000
0010
0000
,  // measure 14
0001
0000
1000
0000
2001
0000
0000
0100
,  // measure 15
0000
3100
1000
0010
,  // measure 16
0200
0000
0000
0001
0000
0000
0301
0000
,  // measure 17
0010
0000
0001
0000
0200
0000
0000
0001
,  // measure 18
0000
0320
0000
1000
,  // measure 19
0230
0000
0000
0001
0000
0000
0301
0000
,  // measure 20
1010
0000
1001
0000
1001
0000
0100
0010
,  // measure 21
0000
0010
1000
0000
0100
0000
1000
0000
,  // measure 22
0010
0000
0010
0100
0000
0100
0001
0000
,  // measure 23
0100
0000
0010
0000
0200
0000
0000
0010
,  // measure 24
0000
0302
0000
1000
,  // measure 25
0203
0000
0000
0001
0000
0000
0310
0100
,  // measure 26
0010
0100
0001
1000
0001
0000
1000
0010
,  // measure 27
0001
0010
1000
0000
0011
0000
1010
0000
,  // measure 28
1001
0000
0001
0010
1000
0010
0001
0000
,  // measure 29
1100
0000
0101
0000
1001
0000
1000
0100
,  // measure 30
0001
0000
1001
0000
0001
0010
1000
0000
,  // measure 31
1001
0000
1000
0100
0001
0100
1000
0000
,  // measure 32
0011
0000
1010
0000
1001
0000
0001
0010
,  // measure 33
0001
0100
0010
0000
1100
0000
0101
0000
,  // measure 34
1001
0000
1000
0010
0001
0000
1100
0000
,  // measure 35
0101
0000
1001
0000
1001
0000
0001
0010
,  // measure 36
1000
0000
1001
0000
1000
0100
0001
0000
,  // measure 37
1100
0000
0010
0000
0001
0000
1000
0100
,  // measure 38
1000
0000
1001
0000
0002
0000
0000
1000
,  // measure 39
0000
0000
0103
0010
0100
0010
1000
0001
,  // measure 40
2000
0000
0000
0001
0000
0000
3010
0100
,  // measure 41
0010
0100
0001
1000
0002
0000
0100
0000
,  // measure 42
0103
0020
1000
1030
,  // measure 43
0200
0001
0301
2000
,  // measure 44
0010
3010
0200
0000
,  // measure 45
0310
0100
0010
0100
0001
1000
0001
0000
,  // measure 46
2000
0000
0000
0001
0000
0000
3001
1000
,  // measure 47
0001
1000
0010
0100
0020
0000
1000
0000
,  // measure 48
1030
0200
0001
0301
,  // measure 49
0020
0000
0000
0130
0000
0001
2000
0000
,  // measure 50
0000
0000
0000
0000
3000
0000
0000
0000
1001
0000
0000
0010
0001
0000
0000
0100
,  // measure 51
0010
0000
0000
1000
0100
0000
0001
0000
0010
0000
1000
0000
0010
0000
0001
0000
,  // measure 52
1001
0000
0000
0100
1000
0000
0000
0010
0100
0000
0000
0001
0010
0000
1000
0000
,  // measure 53
0100
0000
0001
0000
0100
0000
1000
0000
1001
0000
0000
0100
0001
0000
0000
0100
,  // measure 54
0010
0000
0000
1000
0010
0000
1000
0000
0100
0000
0010
0000
0001
0000
0010
0000
,  // measure 55
0001
0001
0100
0010
0010
1000
0100
0100
,  // measure 56
1000
0001
0001
0010
2002
0000
0000
0000
,  // measure 57
3003
0000
1001
0000
1000
0100
0001
0100
,  // measure 58
1000
0010
0100
0000
1001
0000
0001
0010
,  // measure 59
1000
0010
0001
0100
0010
0000
1000
0000
,  // measure 60
1001
0000
1001
0000
1000
0100
0001
0000
,  // measure 61
1100
0000
0001
0010
1000
0000
0011
0000
,  // measure 62
1000
0100
0001
0100
1000
0000
0011
0000
,  // measure 63
1010
0000
1001
0000
1000
0100
0010
0001
,  // measure 64
0010
0001
0100
0000
0011
0000
1010
0000
,  // measure 65
0001
0010
0100
1000
0100
1000
0010
0000
,  // measure 66
1100
0000
0101
0000
1000
0100
0001
0000
,  // measure 67
1010
0000
0001
0100
1000
0000
0101
0000
,  // measure 68
1000
0010
0001
0000
0100
0010
0100
0010
,  // measure 69
0100
0000
0001
0010
0100
1000
0100
1000
,  // measure 70
0010
0000
1100
0000
0101
0000
1000
0100
,  // measure 71
0010
0001
0010
0001
0100
0000
0011
0000
,  // measure 72
1010
0000
0001
0010
1000
0000
0011
0000
,  // measure 73
1000
0010
0001
0000
1100
0000
0001
0100
,  // measure 74
1000
0000
0101
0000
0010
0100
0010
0000
,  // measure 75
1100
0000
1001
0000
1000
0100
0010
0001
,  // measure 76
0100
0001
0010
0000
1100
0000
1100
0000
,  // measure 77
0001
0010
0100
1000
0010
1000
0100
0000
,  // measure 78
0011
0000
0011
0000
1000
0100
0001
0000
,  // measure 79
1100
0000
0001
0010
1000
0000
0011
0000
,  // measure 80
1000
0100
0001
0100
1000
0000
0011
0000
,  // measure 81
1001
0000
0001
0000
0100
0010
0000
0010
,  // measure 82
1000
0100
0010
0001
0010
0001
0100
0000
,  // measure 83
0010
0100
0000
0100
0001
0000
1001
0000
,  // measure 84
1001
0000
1000
0100
0010
0001
0010
0000
,  // measure 85
1100
0000
0000
0101
0000
0000
1010
0000
,  // measure 86
0001
0010
0100
1000
0010
0000
1100
0000
,  // measure 87
0011
0000
0001
0010
0100
1000
0100
0010
,  // measure 88
0001
0000
0001
0100
0010
0100
0001
0000
,  // measure 89
0001
1000
0000
1000
0010
0000
1001
0000
,  // measure 90
1001
0000
0010
0100
0010
0100
0001
0000
,  // measure 91
1100
0000
0000
0110
0000
0000
0011
0000
,  // measure 92
1000
0100
0010
0001
0100
0010
1000
0010
,  // measure 93
0100
0010
0000
0000
0000
0000
0000
0000
,  // measure 94
0000
0000
0000
1000
1001
0000
0000
0000
;

//---------------dance-single - ----------------
#NOTES:
     dance-single:
     :
     Medium:
     6:
     0.526,0.585,0.455,0.259,0.000:
0000
0000
0000
0000
,
0000
0000
0000
0000
,
0000
0000
0000
0000
,
0000
0000
0000
0000
,
0000
0000
0000
0000
,
0000
0000
0000
0000
,
0000
0000
0000
0000
,
0000
0000
0000
0000
1001
0000
0010
1000
,
0000
1000
0010
0000
0100
0000
0010
0000
,
0100
0000
0000
0001
0000
0000
1000
0000
,
0001
1000
0001
0010
,
0100
0000
0010
0000
0000
0100
0000
0000
,
0001
1000
0010
0100
,
0001
0000
0100
0000
1002
0000
0000
0010
,
0000
0013
0001
0100
,
0020
0000
0000
1000
0000
0000
1030
0000
,
0100
0000
1000
0000
0020
0000
0000
1000
,
0000
0000
0230
0000
0000
0001
0000
0000
,
0320
0000
0000
1000
0000
0000
1030
0000
,
0101
0000
1001
0000
1001
0000
0010
0100
,
0000
0100
0001
0000
0010
0000
0001
0000
,
0100
0000
0100
0010
0000
0010
1000
0000
,
0010
0000
0100
0000
0020
0000
0000
0100
,
0000
0000
2030
0000
0000
0001
0000
0000
,
3020
0000
0000
1000
0000
0000
0130
0000
,
0010
1000
0001
1000
,
0010
0100
0002
1000
,
1003
0010
0100
0001
,
2000
0000
0001
0000
3001
0000
0010
0001
,
0010
0000
1001
0000
0100
1000
0100
0000
,
1001
0010
0100
0001
,
1100
0000
0101
0000
1001
0000
1000
0100
,
1000
0010
0200
0010
,
0310
0001
1000
0020
,
0100
0000
0130
0000
1001
0000
0010
1000
,
0010
0000
1001
0000
0100
0001
0100
0000
,
0001
0010
0100
1000
,
0010
0000
1001
0000
2000
0000
0000
0001
,
0000
3010
0100
0001
,
0002
0000
0000
1000
0000
0000
0103
0000
,
0010
1000
0020
0000
,
0000
0230
0000
0000
,
0320
0000
0000
2030
,
0000
0000
3002
0000
,
0103
0010
0100
0001
,
2000
0000
0000
3001
,
0100
0010
0200
0000
,
0000
0320
0000
0000
,
0230
0000
0000
0302
,
0000
0003
1001
1001
,
1100
1100
0000
0000
,
1001
1001
0011
0011
,
0000
0000
0101
1010
,
0101
1010
1100
0011
,
0200
0000
0000
0320
0000
0000
2030
0000
,
0000
3002
0000
0000
2000
0000
0000
0000
,
3003
0000
1001
0000
0000
0010
0000
0000
,
0001
0010
0100
1001
,
0000
0100
0000
0000
1000
0000
0100
0000
,
0010
0000
1001
0000
0001
0010
0001
0000
,
0100
0000
0010
1000
0010
0000
1000
0000
,
0100
1000
0100
0000
1000
0000
0100
0000
,
0010
0000
1001
0000
0010
0001
0010
0000
,
0100
1000
0010
1001
,
0100
1000
0100
0000
0010
0000
0001
0000
,
0100
0000
1001
0000
0010
0001
0010
0000
,
0001
0000
0100
1000
0100
0000
1000
0000
,
0100
0001
0100
0000
0010
0000
0100
0000
,
1001
0000
0010
1000
0010
0000
0100
0000
,
0001
0100
1001
0010
,
0100
0000
0010
0100
0010
0000
0100
0000
,
1001
0000
0010
1000
0010
0000
1001
0000
,
0100
0001
0100
0000
1001
0000
0010
0100
,
0010
1001
0100
0010
,
0100
0000
1001
0000
0001
0010
0100
1000
,
0100
1000
0001
0011
,
1000
0100
0010
0001
0010
0000
0001
0000
,
0010
1100
0001
1000
,
0011
1000
0001
1100
,
0001
1000
0001
0110
,
1001
0000
1000
0000
0000
0100
0000
0000
,
1000
0000
0010
0000
1000
0001
1000
0000
,
0010
0000
0000
0100
0000
0000
0010
0000
,
0100
0000
0001
1000
0001
0000
0100
0000
,
0010
0000
0000
1000
0000
0000
0001
0000
,
1000
0100
0010
0001
0100
0000
0011
0000
,
1100
0000
0010
0000
0100
0010
0000
0010
,
1000
0010
0100
0001
,
1000
0001
0000
0001
0100
0000
1001
0000
,
1001
0000
0100
0010
0100
0010
1000
0000
,
0010
0000
0000
0100
0000
0000
0001
0000
,
1000
0010
0100
0010
0100
0000
0001
0000
,
0100
0010
0000
0000
0000
0000
0000
0000
,
0000
0000
0000
1000
1001
0000
0000
0000
;

//---------------dance-single - ----------------
#NOTES:
     dance-single:
     :
     Beginner:
     2:
     0.126,0.251,0.179,0.000,0.000:
0000
0000
0000
0000
,
0000
0000
0000
0000
,
0000
0000
0000
0000
,
0000
0000
0000
0000
,
0000
0000
0000
0000
,
0000
0000
0000
0000
,
0000
0000
0000
0000
,
0000
0000
1000
0000
,
0000
0000
0000
0000
,
0010
0000
0000
0000
,
0000
0000
1000
0000
,
0000
0000
0000
0000
,
0001
0000
0000
0000
,
0000
0000
1001
0000
,
0000
0000
0000
0000
,
0001
0000
0000
0000
,
1000
0000
0100
0000
,
0000
0100
0000
0000
,
0100
0000
0000
0000
,
0000
0000
1001
0000
,
0000
0000
0001
0000
,
0010
0000
0000
0001
,
0000
0000
0010
0000
,
0000
0010
0000
0000
,
0010
0000
0000
0000
,
0000
0000
1001
0000
,
0000
0000
0100
0000
,
1000
0000
0000
0000
,
0001
0000
0010
0000
,
0000
0001
0000
0000
,
1000
0000
0000
0000
,
0000
0000
1001
0000
,
0000
0000
0100
0000
,
0100
0000
0000
1000
,
0000
0000
0001
0000
,
0000
0010
0000
0000
,
0001
0000
0000
0000
,
0000
0000
1001
0000
,
0000
0000
0000
0000
,
1001
0000
0000
0000
,
0000
0000
0000
0010
,
0000
0000
0100
0000
,
0000
0010
0000
0000
,
0100
0000
1001
0000
,
0000
0000
0000
0000
,
1001
0000
0000
0000
,
0000
0000
0000
0010
,
0000
0000
0100
0000
,
0010
0000
0000
0000
,
0000
0000
1001
0000
,
0000
0000
0000
0000
,
1000
0000
0000
0000
,
0000
0000
0001
0000
,
0000
0000
0000
0000
,
1001
0000
0000
1001
,
0000
0000
1001
0000
,
0000
1001
0000
0000
,
0000
0000
0000
1000
,
0000
0000
0000
0000
,
0000
0001
0000
0000
,
0001
0000
0000
0001
,
0000
0000
0010
0000
,
0000
0011
0000
0000
,
0000
0000
0000
1000
,
0000
0000
0000
0000
,
0000
1000
0000
0000
,
1000
0000
0000
1000
,
0000
0000
0100
0000
,
0000
1100
0000
0000
,
0000
0000
0000
1000
,
0000
0000
0000
0000
,
0000
0001
0000
0000
,
1000
0000
0000
0001
,
0000
0000
0000
0000
,
0000
1001
0000
0000
,
0000
0000
0000
1000
,
0000
0000
0000
0000
,
0000
0010
0000
0000
,
0100
0000
0000
0010
,
0000
0000
0000
0000
,
0000
1001
0000
0000
,
0000
0000
0000
1000
,
0000
0000
0000
0000
,
0000
0001
0000
0000
,
0000
0000
0000
0000
,
1000
0000
0000
0000
,
0000
1001
0000
0000
,
0000
0000
0000
0001
,
0000
0000
0000
0000
,
0000
1001
0000
0000
,
0000
0000
0000
0000
,
1000
0000
0000
0000
,
0000
0000
0000
0000
,
0000
0000
1001
0000
;

//---------------dance-double - ----------------
#NOTES:
     dance-double:
     :
     Easy:
     5:
     0.403,0.500,0.322,0.411,0.000:
00000000
00000000
00000000
00000000
,
00000000
00000000
00000000
00000000
,
00000000
00000000
00000000
00000000
,
00000000
00000000
00000000
00000000
,
00000000
00000000
00000000
00000000
,
00000000
00000000
00000000
00000000
,
00000000
00000000
00000000
00000000
,
00000000
00000000
00000000
00000000
10000000
00000000
00000000
10000000
,
00000000
10000000
00000000
00000000
,
00010000
00000000
00000000
00010000
00000000
00000000
00010000
00000000
,
00100000
00001000
00010000
00000100
,
00001000
00000000
00000001
00000000
00000000
00000001
00000000
00000000
,
00000001
00001000
00000010
00001000
,
00010000
00100000
22000000
00000000
,
00000000
33000000
10000000
00100000
,
20020000
00000000
00000000
30030000
,
00010000
01000000
20020000
00000000
,
30030000
22000000
00000000
33000000
,
00220000
00000000
00330000
00001000
,
00010000
00001000
00002200
00000000
,
00000000
00003300
00000001
00000100
,
00002002
00000000
00003003
00000010
,
00000100
00000010
00002002
00000000
,
00003003
00000022
00000000
00000033
,
00002200
00000000
00003300
00010000
,
00001000
00010000
02200000
00000000
,
00000000
03300000
10000000
00100000
,
20020000
00000000
00000000
30030000
,
00010000
01000000
20020000
00000000
,
30030000
20200000
00000000
30300000
,
02020000
00000000
03030000
00001000
,
00010000
00001000
00000220
00000000
,
00000000
00000330
00000001
00000010
,
00002002
00000000
00003003
00000100
,
00000010
00000100
00002002
00000000
,
00003003
00000022
00000000
00000033
,
00002200
00000000
00003300
00010000
,
00001000
00010000
01100000
00000000
,
10000000
01000000
10000000
01000000
,
10000000
00000000
00000000
00010000
,
00100000
00010000
01100000
20000000
,
00000000
00000000
32000000
00000000
,
00000000
03200000
00000000
00000000
,
00310000
00001000
00000110
00000000
,
00000001
00000100
00000001
00000100
,
00000001
00000000
00001000
00000010
,
00001000
00000010
00002000
00000000
,
00000000
00003002
00000000
00000000
,
00000023
00000000
00000000
00000130
,
00001000
00010000
10010000
10000000
,
10000000
00000000
00000000
00000000
,
10010000
00010000
00010000
00000000
,
00000000
00000000
00011000
00010000
,
00010000
00000000
00000000
00000000
,
00011000
00000000
00000000
00001000
00000000
00000000
00000100
00000000
,
00000000
00000010
00000000
00000000
00000001
00000000
00000000
00000000
,
00000000
00001001
00000010
00000001
,
00000010
00000000
00000001
00000100
,
00000001
00000100
00000001
00000000
,
00001000
00000100
00001000
00000100
,
00010000
00001000
00010000
00001000
,
00010000
00100000
01000000
01000000
,
01000000
10010000
00000000
00000000
,
00100000
10000000
00100000
10000000
,
00000000
00010000
00100000
00010000
,
00100000
00001000
00010000
00001000
,
00010000
00000100
00001000
00000100
,
00000000
00001000
00000010
00000010
,
00000010
00001001
00000000
00000000
,
00000100
00000001
00000100
00000000
,
00000010
00001000
00000100
00001000
,
00000100
00000000
00010000
00001000
,
00010000
00001000
00100000
00010000
,
00100000
00010000
01000000
01000000
,
01000000
10010000
00000000
00000000
,
00000000
00100000
10000000
00100000
,
00000000
01000000
00010000
01000000
,
00010000
00100000
00010000
00100000
,
00001000
00010000
00001000
00010000
,
00001000
00000100
00000010
00000010
,
00000010
00000000
00001001
00000000
00000000
00000001
00000000
00000000
,
00000001
00000010
00000100
00001000
,
00000000
00001000
00000000
00000000
00001000
00000000
00000001
00000000
,
00001000
00001001
00000000
00000000
,
00010000
00000000
00000000
00010000
00000000
00000000
00010000
00000000
,
00100000
01000000
10000000
00010000
,
10000000
10010000
00000000
00000000
,
00001000
00000000
00000000
00001000
00000000
00000000
00001000
00000000
,
00000100
00000010
00000001
00001000
,
00000001
00001001
00000000
00000000
,
00010000
00000000
00000000
00010000
00000000
00000000
00010000
00000000
,
00100000
01000000
10000000
01000000
,
00100000
00000000
00000000
00000000
,
00000000
00000000
00000000
00011000
00000000
00000000
00000000
00000000
;
