#TITLE:The Theme from GTO;
#SUBTITLE:(ぐれえと ぶらすバージョン);
#ARTIST:本間勇輔;
#TITLETRANSLIT:;
#SUBTITLETRANSLIT:(GREAT BRASS VERSION);
#ARTISTTRANSLIT:YUSUKE HONMA;
#CREDIT:DMAxel;
#BANNER:The Theme from GTO (GREAT BRASS VERSION).png;
#BACKGROUND:The Theme from GTO (GREAT BRASS VERSION)-bg.png;
#LYRICSPATH:;
#CDTITLE:DMAxel original simfile.png;
#MUSIC:The Theme from GTO (GREAT BRASS VERSION).mp3;
#OFFSET:-8.360;
#SAMPLESTART:23.720;
#SAMPLELENGTH:12.000;
#SELECTABLE:YES;
#BPMS:0.000=125.250;
#STOPS:;
#BGCHANGES:;

//---------------dance-single - ----------------
#NOTES:
     dance-single:
     :
     Easy:
     2:
     0.172,0.188,0.113,0.069,0.000: // measure 1
0001
0000
0001
0000
,  // measure 2
1000
0000
1000
0000
,  // measure 3
0001
0000
0001
0000
,  // measure 4
1000
0000
1000
0000
,  // measure 5
1001
0000
0010
0000
,  // measure 6
0100
0000
0010
0000
,  // measure 7
1000
0000
0001
0000
,  // measure 8
1000
0000
1000
0000
,  // measure 9
1001
0000
0000
0000
,  // measure 10
0001
1000
0001
0000
,  // measure 11
0200
0000
0001
0000
,  // measure 12
0001
0000
0301
0000
,  // measure 13
1001
0000
0000
0000
,  // measure 14
1000
0001
1000
0000
,  // measure 15
0020
0000
1000
0000
,  // measure 16
1000
0000
1030
0000
,  // measure 17
1001
0000
0000
0000
,  // measure 18
0001
1000
0001
0000
,  // measure 19
0020
0000
0001
0000
,  // measure 20
0001
0000
0031
0000
,  // measure 21
1001
0000
0000
0000
,  // measure 22
1000
0001
1000
0000
,  // measure 23
0200
0000
1000
0000
,  // measure 24
1000
0000
1300
0000
,  // measure 25
1001
0000
0000
0000
,  // measure 26
0001
1000
0001
0000
,  // measure 27
1000
0001
1000
0000
,  // measure 28
1001
0000
0000
0000
,  // measure 29
1001
0000
0000
0100
,  // measure 30
0010
0100
0000
0000
,  // measure 31
0001
1000
0001
0000
,  // measure 32
0100
0100
0200
0000
,  // measure 33
0310
0100
0010
0000
,  // measure 34
0100
0001
0010
0000
,  // measure 35
0100
1000
0010
0000
,  // measure 36
0100
0010
0100
0000
,  // measure 37
1001
0001
1000
0000
,  // measure 38
0100
0010
0100
0000
,  // measure 39
1000
0010
0100
0000
,  // measure 40
0010
0100
0001
0000
,  // measure 41
1001
1000
0001
0000
,  // measure 42
0010
0100
0010
0000
,  // measure 43
0001
0100
0020
0000
,  // measure 44
1000
0000
1030
0000
,  // measure 45
1001
0000
0000
0000
,  // measure 46
1000
0010
0100
0000
,  // measure 47
0010
0100
0010
0000
,  // measure 48
0110
0000
0000
0000
,  // measure 49
1001
0000
0000
0000
,  // measure 50
0001
0100
0010
0000
,  // measure 51
0100
0010
0100
0000
,  // measure 52
0002
0000
0000
0000
0000
0000
0000
2000
,  // measure 53
0000
0000
0000
0000
,  // measure 54
0000
0000
0000
0000
,  // measure 55
0000
3003
0000
0000
;

//---------------dance-single - ----------------
#NOTES:
     dance-single:
     :
     Hard:
     7:
     0.430,0.376,0.286,0.190,0.039: // measure 1
0001
1000
0100
0000
1000
0100
0010
0000
,  // measure 2
0001
1000
0100
0000
1000
0100
0010
0000
,  // measure 3
0001
1000
0010
0000
1000
0010
0100
0000
,  // measure 4
0001
1000
0010
0000
1000
0010
0100
0000
,  // measure 5
1001
0000
0011
0000
0100
1000
0001
0000
,  // measure 6
1001
0000
0011
0000
0100
1000
0001
0000
,  // measure 7
1001
0000
1100
0000
0010
0001
1000
0000
,  // measure 8
1001
0000
1100
0000
0010
0001
1000
0000
,  // measure 9
0100
0010
0100
0000
1000
0010
0000
0100
,  // measure 10
0001
0010
0100
0010
0000
0001
0010
0100
,  // measure 11
2000
0100
0100
0001
,  // measure 12
3001
0010
0100
1000
0001
0100
0010
0000
,  // measure 13
0100
0010
0100
0000
0001
0100
0000
0010
,  // measure 14
1000
0100
0010
0100
0000
1000
0100
0010
,  // measure 15
0002
0100
0100
1000
,  // measure 16
1003
0010
0100
0001
0010
0100
1000
0000
,  // measure 17
0100
1000
0010
0000
0100
0002
0000
0013
,  // measure 18
0100
1000
0001
0010
0000
0001
1000
0100
,  // measure 19
0010
0002
0100
0000
0100
0000
1000
0000
,  // measure 20
1003
1000
0001
0010
0100
1000
0001
0000
,  // measure 21
0010
0001
0100
0000
0010
2000
0000
3100
,  // measure 22
0010
0001
1000
0100
0000
1000
0001
0010
,  // measure 23
0100
2000
0100
0000
0100
0000
0001
0000
,  // measure 24
3001
0101
1000
1100
,  // measure 25
2002
0000
0000
0000
3003
0100
0001
1000
,  // measure 26
1000
0000
0000
0000
0010
0000
0000
0110
0000
0000
0100
0000
0010
0000
0001
0000
,  // measure 27
1001
0000
0000
0000
0010
0000
0000
0110
0000
0000
0010
0000
0100
0000
1000
0000
,  // measure 28
0220
0000
0000
0330
,  // measure 29
2002
0000
0000
0000
3003
0010
1000
0001
,  // measure 30
0001
0000
0000
0000
0100
0000
0000
0110
0000
0000
0010
0000
0100
0000
1000
0000
,  // measure 31
1001
0000
0000
0000
0010
0000
0000
0110
0000
0000
0100
0000
0010
0000
0001
0000
,  // measure 32
0110
0100
0100
0100
,  // measure 33
0001
0010
0100
1000
1000
0001
0001
0000
,  // measure 34
1000
0100
0010
0001
0001
1000
1000
0000
,  // measure 35
0100
0010
0100
1000
0001
0100
0001
0000
,  // measure 36
0010
0100
0010
0001
1000
0010
1000
0000
,  // measure 37
1001
1000
0010
0100
0001
0100
1000
0000
,  // measure 38
0100
0001
0010
0100
1000
0001
0100
0000
,  // measure 39
0010
1000
0100
0010
0001
1000
0010
0000
,  // measure 40
0100
0001
1000
0100
0001
0100
1000
0000
,  // measure 41
0100
0010
0100
0000
1000
0020
0000
0130
,  // measure 42
0001
0010
0100
0010
0000
0001
0100
1000
,  // measure 43
0200
0000
0001
0000
0301
0100
0001
0000
,  // measure 44
1000
1100
0001
0101
,  // measure 45
2002
0000
0000
0000
3003
0100
0001
0001
,  // measure 46
1000
0000
0000
0000
0100
0000
0000
1100
0000
0000
0001
0000
0010
0000
0100
0000
,  // measure 47
1001
0000
0000
0000
0010
0000
0000
0011
0000
0000
1000
0000
0100
0000
0010
0000
,  // measure 48
0220
0000
0000
0330
,  // measure 49
2002
0000
0000
0000
3003
0010
1000
1000
,  // measure 50
0001
0000
0000
0000
0010
0000
0000
0011
0000
0000
1000
0000
0100
0000
0010
0000
,  // measure 51
1001
0000
0000
0000
0100
0000
0000
1100
0000
0000
0001
0000
0010
0000
0100
0000
,  // measure 52
1000
0000
0010
0000
0100
0000
0000
0000
0010
0000
0000
1000
0000
0000
2002
0000
,  // measure 53
0000
0000
0000
0000
,  // measure 54
0000
0000
0000
0000
,  // measure 55
0000
3003
0000
0000
;

//---------------dance-single - ----------------
#NOTES:
     dance-single:
     :
     Challenge:
     8:
     0.536,0.519,0.338,0.234,0.281: // measure 1
0001
0000
0100
0000
0001
1000
0000
0000
0100
0000
1000
0000
0001
0000
0000
0000
,  // measure 2
0001
0000
0100
0000
0001
1000
0000
0000
0100
0000
1000
0000
0001
0000
0000
0000
,  // measure 3
1000
0000
0100
0000
1000
0001
0000
0000
0100
0000
0001
0000
1000
0000
0000
0000
,  // measure 4
1000
0000
0100
0000
1000
0001
0000
0000
0100
0000
0001
0000
1000
0000
0000
0000
,  // measure 5
1100
0000
0001
0000
0100
0010
0000
0010
0100
0000
0001
0000
1000
0100
0000
0000
,  // measure 6
1000
0000
0001
0000
0100
0010
0000
0010
0100
0000
0001
0000
1000
0100
0000
0000
,  // measure 7
1000
0000
0001
0000
0010
0100
0000
0100
0010
0100
0010
0000
0001
1000
0000
0000
,  // measure 8
0001
0000
1000
0000
0100
0010
0000
0010
0100
0010
0100
0000
1000
0001
0000
0000
,  // measure 9
0101
1000
0100
0010
0100
2000
0000
0001
,  // measure 10
3001
0000
0010
0000
0100
0000
0010
0000
0000
0001
0100
0000
0010
0000
1000
0000
,  // measure 11
0100
0020
0100
0000
0100
0000
0001
0000
,  // measure 12
0031
0000
0100
0000
0001
1000
0000
0000
0100
0000
1000
0000
0001
0100
0000
0000
,  // measure 13
1100
0001
0010
0100
0010
0002
0000
1000
,  // measure 14
1003
0000
0100
0000
0010
0000
0100
0000
0000
1000
0010
0000
0100
0000
0001
0000
,  // measure 15
0010
0200
0010
0000
0010
0000
1000
0000
,  // measure 16
1300
0001
0010
0100
1000
0001
0100
0000
,  // measure 17
0101
1000
0100
0010
0100
2000
0000
0001
,  // measure 18
3001
0000
0100
0000
1000
0000
0100
0000
0000
0010
0100
0000
1000
0000
0001
0000
,  // measure 19
0010
0002
0010
0000
0010
0000
1000
0000
,  // measure 20
1003
0000
0010
0000
0100
0001
0000
0001
0100
0000
0010
0000
1000
0000
0000
0000
,  // measure 21
1100
0001
0100
0010
0100
0002
0000
1000
,  // measure 22
1003
0000
0100
0000
0001
0000
0100
0000
0000
0010
1000
0000
0100
0000
0010
0000
,  // measure 23
0001
0000
0010
0000
0100
0000
0000
0010
0001
0000
2000
0000
0000
0000
0000
0000
,  // measure 24
3010
1010
0011
1100
,  // measure 25
2002
0000
0000
3003
0000
0100
0001
0010
,  // measure 26
0100
0000
0000
0000
1010
0000
0000
1010
0000
0000
0100
0000
0001
0000
0010
0000
,  // measure 27
0100
0000
0000
0000
1010
0000
0000
1010
0000
0000
0010
0000
1000
0000
0001
0000
,  // measure 28
2002
0000
0000
0000
0000
3003
0000
0000
0100
0010
0100
0000
0010
0100
0010
0000
,  // measure 29
2002
0000
0000
3003
0000
0010
1000
0100
,  // measure 30
0010
0000
0000
0000
0101
0000
0000
0101
0000
0000
0010
0000
1000
0000
0100
0000
,  // measure 31
0010
0000
0000
0000
0101
0000
0000
0101
0000
0000
0100
0000
0001
0000
0010
0000
,  // measure 32
0200
0000
1000
0000
1300
0000
0000
0000
1000
0100
0010
0002
0000
0000
1003
0000
,  // measure 33
1001
0000
0011
0000
0100
1000
0001
0000
,  // measure 34
0100
0000
1100
0000
0010
0001
1000
0000
,  // measure 35
0001
0000
0010
0000
0100
0000
0010
0000
0001
0000
1000
0000
0010
1000
0000
0000
,  // measure 36
1000
0000
0100
0000
0010
0000
0100
0000
1000
0000
0001
0000
0100
0001
0000
0000
,  // measure 37
1002
0000
0000
0000
1003
0000
0010
0000
0100
0000
0010
0000
1000
0001
0000
0000
,  // measure 38
0010
0000
0100
0000
0010
0001
0000
0001
1000
0000
0100
0000
0010
0100
0000
0000
,  // measure 39
1000
0000
0010
0000
0100
0001
0000
0001
1000
0000
0100
0000
0010
0100
0000
0000
,  // measure 40
1000
0000
0010
0000
0100
0001
0000
0001
1000
0100
1000
0000
0001
0100
0001
0000
,  // measure 41
1001
1000
0010
0100
0001
0200
0000
1000
,  // measure 42
1300
0010
0100
0002
0000
0103
0010
0100
,  // measure 43
0001
0000
0010
0000
0100
0000
0000
0010
0001
0000
1000
0000
0010
0000
0000
0000
,  // measure 44
1000
0000
0100
0000
0010
0000
0001
0000
0100
0010
0100
0000
0010
0100
0010
0000
,  // measure 45
2002
0000
0000
0000
0000
0000
3003
0000
0000
0010
0001
0000
1000
0000
0100
0000
,  // measure 46
0010
0000
0000
0000
1001
0000
0000
1001
0000
0100
1000
0000
0001
0000
0010
0000
,  // measure 47
0110
0000
0000
0000
1001
0000
0000
1001
0000
0010
0001
0000
1000
0000
0100
0000
,  // measure 48
0220
0000
0000
0000
0000
0000
0330
0000
0001
1000
0001
0000
1000
0001
1000
0000
,  // measure 49
2002
0000
0000
0000
0000
0000
3003
0000
0000
0100
0001
0000
1000
0000
0100
0000
,  // measure 50
0010
0000
0000
0000
1001
0000
0000
1001
0000
0010
1000
0000
0001
0000
0010
0000
,  // measure 51
0110
0000
0000
0000
1001
0000
0000
1001
0000
0100
0001
0000
1000
0000
0100
0000
,  // measure 52
0110
0000
0001
0000
1000
0000
0000
0000
0001
0010
0100
1000
0000
0000
2002
0000
,  // measure 53
0000
0000
0000
0000
,  // measure 54
0000
0000
0000
0000
,  // measure 55
0000
0000
3003
0000
;

//---------------dance-single - ----------------
#NOTES:
     dance-single:
     :
     Medium:
     5:
     0.371,0.376,0.234,0.225,0.004: // measure 1
1000
0100
1000
0000
0001
0100
0001
0000
,  // measure 2
1000
0100
1000
0000
0001
0100
0001
0000
,  // measure 3
1000
0100
1000
0000
0001
0100
0001
0000
,  // measure 4
0100
0010
0100
0000
0001
1000
0001
0000
,  // measure 5
1000
0001
1000
0000
0010
0100
0010
0000
,  // measure 6
0100
0001
0100
0000
0010
0100
0010
0000
,  // measure 7
1000
0010
1000
0000
0010
0100
0010
0000
,  // measure 8
1000
0100
1000
0000
0001
0010
0001
0010
,  // measure 9
0001
1000
0010
0000
1000
0010
0000
1000
,  // measure 10
0100
0010
0001
1000
0000
0010
1000
0010
,  // measure 11
1000
0002
0000
0000
2003
0000
0000
3020
,  // measure 12
0000
0000
0000
0200
0000
0000
0330
0000
,  // measure 13
1000
0001
0100
0000
0001
0100
0000
0001
,  // measure 14
0010
0100
1000
0010
0000
0100
0001
0100
,  // measure 15
0001
2000
0000
0000
3002
0000
0000
0000
,  // measure 16
0103
0101
1000
1100
,  // measure 17
0001
0100
0001
0000
1000
0100
0000
1000
,  // measure 18
0001
0100
0001
0100
0000
0010
1000
0100
,  // measure 19
0010
0002
0000
0000
0203
0000
0000
0320
,  // measure 20
0000
0000
0000
0200
0000
0000
0330
0000
,  // measure 21
1000
0010
1000
0000
0001
0010
0000
0001
,  // measure 22
1000
0010
1000
0010
0000
0100
0001
0010
,  // measure 23
0100
2000
0000
0000
3020
0000
0000
0000
,  // measure 24
1030
1010
0001
0011
,  // measure 25
1001
0000
0000
0000
0000
0001
0100
0010
,  // measure 26
2000
0000
0000
0000
0000
3100
0010
0001
,  // measure 27
0200
0000
0000
0000
0000
0301
0100
0010
,  // measure 28
2000
0000
0001
3001
,  // measure 29
1001
0000
0000
0000
0000
1000
0010
0100
,  // measure 30
0002
0000
0000
0000
0000
0013
0100
1000
,  // measure 31
0020
0000
0000
0000
0000
1030
0010
0100
,  // measure 32
0002
0000
1000
1003
,  // measure 33
1001
0000
0101
0000
1000
0100
1000
0000
,  // measure 34
1001
0000
0101
0000
1000
0100
1000
0000
,  // measure 35
1001
0000
1010
0000
0001
0010
0001
0000
,  // measure 36
1001
0000
1010
0000
0001
0010
0001
0000
,  // measure 37
1001
0000
1100
0000
0001
0100
0001
0000
,  // measure 38
1001
0000
1100
0000
0001
0100
0001
0000
,  // measure 39
1001
0000
0011
0000
1000
0010
1000
0000
,  // measure 40
1001
0000
0011
0000
1000
0010
1000
0000
,  // measure 41
0001
0010
0100
0000
1000
0001
0000
0001
,  // measure 42
0100
0010
1000
0100
0000
1000
0100
0010
,  // measure 43
0002
0000
0000
0000
1000
1003
0000
0000
,  // measure 44
0100
1100
0001
0101
,  // measure 45
1001
0000
0000
0000
0000
0100
0001
0010
,  // measure 46
0200
0000
0000
0000
0000
1300
0001
0010
,  // measure 47
0200
0000
0000
0000
0000
1300
0010
0100
,  // measure 48
0002
0000
1000
1003
,  // measure 49
1001
0000
0000
0000
0000
0001
1000
0100
,  // measure 50
0020
0000
0000
0000
0000
0031
1000
0100
,  // measure 51
0020
0000
0000
0000
0000
0031
1000
0100
,  // measure 52
0010
0000
0000
0000
0100
0000
0000
0000
1000
0000
0000
0010
0000
0000
0220
0000
,  // measure 53
0000
0000
0000
0000
,  // measure 54
0000
0000
0000
0000
,  // measure 55
0000
0330
0000
0000
;

//---------------dance-single - ----------------
#NOTES:
     dance-single:
     :
     Beginner:
     1:
     0.056,0.112,0.087,0.000,0.000: // measure 1
1000
0000
0000
0000
,  // measure 2
0000
0000
0000
0000
,  // measure 3
0001
0000
0000
0000
,  // measure 4
0000
0000
0000
0000
,  // measure 5
1000
0000
0000
0000
,  // measure 6
0000
0000
0000
0000
,  // measure 7
1000
0000
0000
0000
,  // measure 8
0000
0000
0000
0000
,  // measure 9
1001
0000
0000
0000
,  // measure 10
0000
0000
0000
0000
,  // measure 11
0001
0000
0000
0000
,  // measure 12
0000
0000
0000
0000
,  // measure 13
1001
0000
0000
0000
,  // measure 14
0000
0000
0000
0000
,  // measure 15
1000
0000
0000
0000
,  // measure 16
0000
0000
0000
0000
,  // measure 17
1001
0000
0000
0000
,  // measure 18
0000
0000
0000
0000
,  // measure 19
0001
0000
0000
0000
,  // measure 20
0000
0000
0000
0000
,  // measure 21
1000
0000
0000
0000
,  // measure 22
0000
0000
0000
0000
,  // measure 23
0001
0000
0000
0000
,  // measure 24
0000
0000
0000
0000
,  // measure 25
1001
0000
0000
0000
,  // measure 26
1000
0000
0000
0000
,  // measure 27
1000
0000
0000
0000
,  // measure 28
1001
0000
0000
0000
,  // measure 29
1001
0000
0000
0000
,  // measure 30
0001
0000
0000
0000
,  // measure 31
0001
0000
0000
0000
,  // measure 32
0001
0000
0000
0000
,  // measure 33
1000
0000
0000
0000
,  // measure 34
0000
0000
0000
0000
,  // measure 35
0010
0000
0000
0000
,  // measure 36
0000
0000
0000
0000
,  // measure 37
0100
0000
0000
0000
,  // measure 38
0000
0000
0000
0000
,  // measure 39
0001
0000
0000
0000
,  // measure 40
0000
0000
0000
0000
,  // measure 41
1001
0000
0000
0000
,  // measure 42
0000
0000
0000
0000
,  // measure 43
0001
0000
0000
0000
,  // measure 44
0000
0000
0000
0000
,  // measure 45
1001
0000
0000
0000
,  // measure 46
0010
0000
0000
0000
,  // measure 47
0100
0000
0000
0000
,  // measure 48
1000
0000
0000
0000
,  // measure 49
1001
0000
0000
0000
,  // measure 50
0100
0000
0000
0000
,  // measure 51
0010
0000
0000
0000
,  // measure 52
0001
0000
0000
0000
0000
0000
0000
1001
;
