#TITLE:The Light feat. Love Divinity;
#SUBTITLE:(HOUSE NATION Remix);
#ARTIST:The Standard Club;
#TITLETRANSLIT:;
#SUBTITLETRANSLIT:;
#ARTISTTRANSLIT:;
#CREDIT:DMAxel;
#BANNER:The Light feat. Love Divinity (HOUSE NATION Remix).png;
#BACKGROUND:The Light feat. Love Divinity (HOUSE NATION Remix)-bg.png;
#LYRICSPATH:;
#CDTITLE:house nation.png;
#MUSIC:The Light feat. Love Divinity (HOUSE NATION Remix).mp3;
#OFFSET:-7.700;
#SAMPLESTART:71.435;
#SAMPLELENGTH:12.000;
#SELECTABLE:YES;
#BPMS:0.000=128.000;
#STOPS:;
#BGCHANGES:;

//---------------dance-single - ----------------
#NOTES:
     dance-single:
     :
     Hard:
     8:
     0.458,0.435,0.052,0.078,0.209: // measure 1
0100
0000
0000
0000
0100
0000
0000
0000
0100
0000
0000
0001
1000
0000
0000
0000
,  // measure 2
0010
0000
0000
0000
0010
0000
0000
0000
0010
0000
0000
1000
0001
0000
0000
0000
,  // measure 3
0010
0000
0000
0001
0010
0000
0000
0000
0010
0000
0000
0001
1000
0000
0000
0000
,  // measure 4
0100
0000
0000
1000
0100
0000
0000
0000
0100
0000
0000
1000
0001
0000
0000
0000
,  // measure 5
0100
0000
0000
0001
0100
0000
0000
0000
0100
0000
0000
0001
1000
0000
0010
0000
,  // measure 6
0010
0000
0000
1000
0010
0000
0000
0000
0010
0000
0000
1000
0001
0000
0100
0000
,  // measure 7
0100
0000
0000
0001
0100
0000
0000
0000
0100
0000
0000
0001
1000
0000
0010
0000
,  // measure 8
0010
0000
0000
1000
0010
0000
0000
0000
0010
0000
1000
0000
0100
0000
0010
0000
,  // measure 9
0001
0000
0000
1000
0010
0000
0100
0000
0010
0000
0000
1000
0001
0000
0010
0000
,  // measure 10
0001
0000
0000
0000
0100
0000
0000
0000
0010
0000
0000
1000
0001
0000
0100
0000
,  // measure 11
0001
0000
0000
0000
0010
0000
0000
0000
0100
0000
0000
1000
0001
0000
0010
0000
,  // measure 12
0001
0000
0000
0100
0010
0000
1000
0000
1000
0000
0000
0010
0100
0000
0010
0000
,  // measure 13
1000
0000
0000
0000
0010
0000
0000
0000
0100
0000
0000
0001
1000
0000
0010
0000
,  // measure 14
1000
0000
0000
0000
0100
0000
0000
0000
0010
0000
0000
0001
1000
0000
0100
0000
,  // measure 15
1000
0000
0000
0010
0100
0000
0001
0000
0001
0000
0000
0100
0010
0000
0100
0000
,  // measure 16
0001
0010
0001
0010
0001
1000
0010
1000
,  // measure 17
1001
0000
0001
0010
0001
1000
0010
0000
,  // measure 18
0010
1000
0010
1000
0001
0010
0001
0010
,  // measure 19
0001
0000
0000
1000
0001
0000
0010
0000
0010
0000
0000
0001
1000
0000
0100
0000
,  // measure 20
1000
0000
0000
0001
1000
0000
0100
0000
1000
0000
0001
0000
0100
0000
0001
0000
,  // measure 21
0100
0000
0000
0001
1000
0000
0100
0000
1000
0000
0000
0010
0100
0000
0001
0000
,  // measure 22
0001
0000
0000
1000
0001
0000
0010
0000
0001
0000
0000
1000
0001
0000
0010
0000
,  // measure 23
0001
0000
1000
0000
0010
0000
1000
0000
0010
0000
0000
1000
0001
0000
0001
0000
,  // measure 24
0100
0010
0100
0001
0100
0001
0010
0100
,  // measure 25
2000
0000
0000
0000
0010
0000
0000
0000
3010
0000
0000
1000
0001
0000
0010
0000
,  // measure 26
0002
0000
0000
0000
0100
0000
0000
0000
0103
0000
0000
0001
1000
0000
0010
0000
,  // measure 27
2000
0000
0000
0000
0100
0000
0000
0000
3100
0000
0000
1000
0001
0000
0100
0000
,  // measure 28
0002
0000
0000
0000
0010
0000
0000
0000
0013
0000
0000
0001
1000
0000
0100
0000
,  // measure 29
1000
0000
0100
0000
1000
0000
0010
0000
0100
0000
0000
0001
1000
0000
0001
0000
,  // measure 30
0001
0000
0010
0000
0001
0000
0100
0000
0010
0000
0000
1000
0001
0000
1000
0000
,  // measure 31
1000
0000
0100
0000
1000
0000
0010
0000
0100
0000
0000
0001
1000
0000
0100
0000
,  // measure 32
1000
0000
0000
0010
0100
0000
0001
0000
0010
0000
0001
0000
0010
0000
0001
0000
,  // measure 33
1001
0000
0000
0010
1000
0000
0001
0000
0001
0000
0000
0100
0001
0000
1000
0000
,  // measure 34
1000
0000
0010
0000
1000
0000
0001
0000
0100
0000
0100
0010
0100
0010
0100
0000
,  // measure 35
0001
0010
0100
1000
0001
0100
0010
0100
,  // measure 36
0000
0001
0010
1000
0100
0010
0001
1000
,  // measure 37
1000
0100
0010
0001
1000
0010
0100
0010
,  // measure 38
0000
1000
0100
0001
0010
0100
1000
0001
,  // measure 39
0102
0000
0100
0000
1003
0001
0010
0001
,  // measure 40
2000
0000
0100
0000
3001
1000
0100
1000
,  // measure 41
0002
0000
0000
0000
0100
0000
0000
0000
1003
0000
0000
0001
1000
0000
0100
0000
,  // measure 42
0010
0011
1000
1010
,  // measure 43
0001
0010
0100
1000
0010
0100
0010
1000
,  // measure 44
0000
0100
0010
0100
1000
0001
0010
0001
,  // measure 45
1000
0100
0010
0001
0100
0010
0100
0001
,  // measure 46
0000
0010
0100
0010
0001
1000
0100
1000
,  // measure 47
0002
0000
0100
0000
1003
0001
0010
0001
,  // measure 48
2000
0000
0000
0000
0100
0000
0000
0000
3001
0000
0000
1000
0001
0000
0010
0000
,  // measure 49
0100
0000
0000
1000
0001
0000
0010
0000
0010
0000
0000
0001
1000
0000
0100
0000
,  // measure 50
0100
0000
1000
0000
0010
0000
0100
0000
0001
0000
0000
0100
0001
0000
1000
0000
,  // measure 51
1001
0000
0000
0000
;

//---------------dance-single - ----------------
#NOTES:
     dance-single:
     :
     Medium:
     5:
     0.337,0.327,0.183,0.009,0.000:
0001
0001
0001
0100
,
1000
1000
1000
0100
,
0001
1001
0001
0010
,
1000
1001
1000
0010
,
0001
0000
1001
0000
0001
0000
0001
1000
,
0100
0000
0100
0000
0100
0000
0100
1000
,
0010
0000
0010
0000
0010
0000
0010
1000
,
0001
0001
0001
1001
,
1000
0000
1000
0000
1000
0000
1000
0001
,
0010
0000
0010
0000
0010
0000
0010
0001
,
0100
0000
0100
0000
0100
0000
0100
0001
,
1000
0000
1001
0000
1000
0000
1000
0001
,
0010
0000
0010
0001
0010
0000
0010
0001
,
0100
0000
0100
0010
0100
0000
0100
0001
,
2000
0000
0000
0000
0000
0000
3001
1000
,
0010
0100
0010
0000
0010
0100
0010
0000
,
1001
0000
0100
0000
0010
0000
0100
1000
,
0100
0000
0010
0000
0001
0000
0010
0100
,
0010
0001
0101
0001
,
1001
0100
0010
0001
,
1000
0000
0001
0000
0010
0000
0100
0010
,
0100
0000
0010
0000
0001
0000
1000
0100
,
1000
0100
1000
0000
0010
0000
0100
0000
,
0001
0000
0010
0000
1000
0001
0010
0001
,
0010
0000
0010
0000
0010
0000
0010
0001
,
0100
0000
0100
0000
0100
0000
0100
0001
,
1000
0000
1000
0000
1000
0000
1000
0010
,
1000
0000
0001
0010
0001
0000
0001
1000
,
0001
0000
0001
0000
0001
0000
0001
0100
,
0010
0000
0010
0000
0010
0000
0010
1000
,
0100
0000
0100
0000
0100
0000
0100
1000
,
0001
0000
0010
0001
0010
0000
0001
0000
,
1001
1000
1010
1000
,
1010
0000
0101
0000
0010
1000
0010
1000
,
0001
0010
0001
0000
0001
0000
1000
0000
,
1000
0100
1000
0000
1000
0001
1000
0001
,
1000
0100
1000
0000
1000
0000
0001
0100
,
0001
0000
0001
0000
1000
0010
1000
0000
,
1001
0000
0010
0000
0100
0000
1000
0001
,
1000
0000
0100
0000
0010
0000
0001
1000
,
0001
0010
0100
1000
,
0001
0011
0001
0011
,
1000
0010
1000
0000
1000
0000
0001
0100
,
0001
0000
0001
0000
1000
0010
1000
0001
,
0100
0000
0100
0000
0100
0010
0100
0000
,
0010
0000
0010
0100
0010
0000
0010
0000
,
1001
0000
0100
0000
0010
0000
0001
1000
,
0001
0000
0010
0000
0100
0000
1000
0001
,
1000
0100
0110
0010
,
0110
0000
0101
0000
1010
0000
0100
0001
,
1001
0000
0000
0000
;

//---------------dance-single - ----------------
#NOTES:
     dance-single:
     :
     Easy:
     2:
     0.213,0.239,0.113,0.139,0.000:
1001
0000
1000
0000
,
0001
0000
0001
0000
,
0100
0000
0100
0000
,
0010
0000
0010
0000
,
1000
0001
1000
0000
,
0001
1000
0001
0000
,
0100
0010
0100
0000
,
0010
0100
0010
0000
,
1000
0010
1000
0001
,
0001
0100
0001
1000
,
0020
0000
1030
0001
,
0100
0000
0001
1000
,
0100
1000
0100
0000
,
0010
0001
0010
0000
,
0200
0000
0000
0000
,
0310
0001
1000
0001
,
1002
0000
1000
0000
,
1003
0100
0010
0001
,
2000
0000
0001
0000
,
3001
1000
0001
0000
,
2001
0000
0001
0000
,
3001
0010
0100
1000
,
0002
0000
1000
0000
,
1003
0100
0010
0001
,
2001
0000
0001
0000
,
3001
0010
0100
1000
,
0002
0000
1000
0000
,
1003
0100
0010
0001
,
2001
0000
0001
0000
,
3001
0010
0100
1000
,
0002
0000
1000
0000
,
1003
0000
0010
0010
,
0110
0000
0101
0000
,
1010
1000
0100
0010
,
1001
0000
0001
0000
,
1000
0100
1000
0100
,
1000
0000
0001
0000
,
0001
0100
0001
0100
,
0002
0000
0000
0000
,
2003
0000
0000
0000
,
3002
0000
0000
0000
,
0103
0010
0100
0010
,
2000
0000
0001
0000
,
3001
0010
0001
1000
,
0020
0000
0100
0000
,
0130
0010
1000
0100
,
2000
0000
0001
0001
,
3001
0010
0100
1000
,
1001
0000
1010
0000
,
0101
0001
0001
1000
,
1001
0000
0000
0000
;

//---------------dance-single - ----------------
#NOTES:
     dance-single:
     :
     Beginner:
     1:
     0.063,0.109,0.061,0.000,0.000:
0010
0000
0000
0000
,
0010
0000
0000
0000
,
0010
0000
0000
0000
,
0010
0000
0000
0000
,
1000
0000
0000
0000
,
0001
0000
0000
0000
,
1000
0000
0000
0000
,
0000
0000
0000
0000
,
0100
0000
0000
0000
,
0100
0000
0000
0000
,
0100
0000
0000
0000
,
0100
0000
0000
0000
,
1000
0000
0000
0000
,
0001
0000
0000
0000
,
1000
0000
0000
0000
,
0000
0000
0000
0000
,
1001
0000
0000
0000
,
0001
0000
0000
0000
,
0001
0000
0000
0000
,
0000
0000
0000
0000
,
1001
0000
0000
0000
,
1000
0000
0000
0000
,
1000
0000
0000
0000
,
0000
0000
0000
0000
,
1001
0000
0000
0000
,
0001
0000
0000
0000
,
0001
0000
0000
0000
,
0000
0000
0000
0000
,
1001
0000
0000
0000
,
1000
0000
0000
0000
,
1000
0000
0000
0000
,
0000
0000
0000
0000
,
0010
0000
0000
0000
,
0010
0000
0000
0000
,
0110
0000
0000
0000
,
0000
0000
0000
0000
,
0001
0000
0000
0000
,
1000
0000
0000
0000
,
0001
0000
0000
0000
,
0001
0000
0000
0000
,
0001
0000
0000
0000
,
1000
0000
0000
0000
,
1000
0000
0000
0000
,
0001
0000
0000
0000
,
1000
0000
0000
0000
,
0001
0000
0000
0000
,
1000
0000
0000
0000
,
1000
0000
0000
0000
,
1001
0000
0000
0000
,
0010
0000
0000
0000
,
1001
0000
0000
0000
;
