#TITLE:The Drill;
#SUBTITLE:(Paolo Bolognesi Remix);
#ARTIST:THE DRILL;
#TITLETRANSLIT:;
#SUBTITLETRANSLIT:;
#ARTISTTRANSLIT:;
#CREDIT:DMAxel;
#BANNER:The Drill (Paolo Bolognesi Remix).png;
#BACKGROUND:The Drill (Paolo Bolognesi Remix)-bg.png;
#LYRICSPATH:;
#CDTITLE:DMAxel Original Simfile.png;
#MUSIC:The Drill (Paolo Bolognesi Remix).mp3;
#OFFSET:-0.060;
#SAMPLESTART:26.724;
#SAMPLELENGTH:12.000;
#SELECTABLE:YES;
#BPMS:0.000=126.040;
#STOPS:;
#BGCHANGES:;

//---------------dance-single - ----------------
#NOTES:
     dance-single:
     :
     Easy:
     3:
     0.207,0.301,0.157,0.084,0.000:
0000
0000
0000
0000
,
0000
0000
0000
0000
,
0000
0000
0000
0000
,
0000
0000
0000
0000
,
0000
0000
0000
0000
,
0000
0000
0000
0000
,
0001
1000
0001
1000
,
0100
0010
0100
0010
,
0001
1000
0001
1000
,
0100
0010
0100
0000
,
1001
1000
0001
0010
,
0001
1000
0001
1000
,
0100
1000
0100
0010
,
0001
1000
0001
0000
,
1001
0010
0010
0000
,
1001
0100
0100
0000
,
1001
0010
0010
0000
,
1001
0100
0100
1000
,
1001
0001
0001
1001
,
1000
1000
0010
1001
,
0001
0001
0100
1001
,
0010
0010
1000
0000
,
2000
0000
0000
0000
,
3002
0000
0000
0000
,
2003
0000
0000
0000
,
3020
0000
0000
0000
,
0230
0000
0000
0000
,
0302
0000
0000
0000
,
0023
0000
0000
0000
,
0230
0000
0000
0000
,
1300
0000
1000
0000
,
0001
0000
0001
0000
,
1000
0000
1000
0000
,
0001
0000
0001
0000
,
0010
0000
0100
0000
,
1000
0000
0001
0000
,
1000
0000
0100
0000
,
0010
0000
0001
0000
,
1001
0000
0000
0000
,
0000
0000
0000
0000
,
1001
0010
0001
0010
,
0100
1000
0100
1000
,
0001
1000
0010
1001
,
0100
0100
0100
0100
,
1001
0010
0001
1001
,
0100
1000
0010
0100
,
0010
1000
0100
0010
,
1001
0001
0001
0001
;

//---------------dance-single - ----------------
#NOTES:
     dance-single:
     :
     Medium:
     4:
     0.285,0.376,0.273,0.189,0.000:
0000
0000
0000
0000
,
0000
0000
0000
0000
,
0000
0000
0000
0000
,
0000
0000
0000
0000
,
0000
0000
0000
0000
,
0000
0000
0000
0000
,
1000
0100
1000
0011
,
0001
1000
0001
1000
,
0001
0010
0001
1100
,
1000
0001
1000
0001
,
1000
0010
1000
0110
,
0001
1000
0001
1000
,
0001
0100
0001
0110
,
1000
0010
0100
0000
,
0001
1000
0001
0000
0001
0000
0010
0000
,
1000
0001
1000
0000
1000
0000
0100
0000
,
0001
1000
0001
0000
0001
0000
0100
0000
,
1000
0001
1000
0000
1000
0000
0010
0000
,
0001
1000
0001
0000
0001
0000
1000
0000
,
0010
0100
0010
0000
1000
0000
0001
0000
,
0100
0010
0100
0000
0001
0000
1000
0000
,
0100
0001
0010
1000
,
0002
0000
0000
0010
0000
0000
0003
0000
,
2000
0000
0000
0100
0000
0000
3000
0000
,
0002
0000
0000
0100
0000
0000
0003
0000
,
2000
0000
0000
0010
0000
0000
3000
0000
,
0002
0000
0000
0010
0000
0000
0003
0000
,
2000
0000
0000
0100
0000
0000
3000
0000
,
0002
0000
0000
0100
0000
0000
0003
0000
,
2000
0000
0000
0010
0000
0000
3000
0000
,
1002
0000
0000
0010
0000
0000
0013
0000
,
1002
0000
0000
0100
0000
0000
0003
0000
,
2001
0000
0000
0100
0000
0000
3100
0000
,
2001
0000
0000
0010
0000
0000
3000
0000
,
1002
0000
0000
0100
0000
0000
0103
0000
,
1002
0000
0000
0010
0000
0000
0003
0000
,
2001
0000
0000
0010
0000
0000
3010
0000
,
2001
0000
0000
0100
0000
0000
3000
0000
,
2200
0000
0000
0000
,
3300
0000
0000
0011
,
1001
0000
0010
0001
0010
0000
0110
0000
,
1001
0000
0100
1000
0100
0000
0100
0000
,
1001
0000
0100
0001
0100
0000
0110
0000
,
1001
1000
1000
1000
,
1001
0000
0010
1000
0010
0000
0110
0000
,
1001
0000
0100
0001
0100
0000
0100
0000
,
1001
0000
0100
1000
0100
0000
0110
0000
,
1001
0001
0001
0001
;

//---------------dance-single - ----------------
#NOTES:
     dance-single:
     :
     Beginner:
     1:
     0.058,0.099,0.021,0.000,0.000:
0000
0000
0000
0000
,
0000
0000
0000
0000
,
0000
0000
0000
0000
,
0000
0000
0000
0000
,
0000
0000
0000
0000
,
0000
0000
0000
0000
,
0001
0000
0000
0000
,
1000
0000
0000
0000
,
0001
0000
0000
0000
,
0001
0000
0000
0000
,
1000
0000
0000
0000
,
0001
0000
0000
0000
,
1000
0000
0000
0000
,
1000
0000
0000
0000
,
1001
0000
0000
0000
,
0001
0000
0000
0000
,
1000
0000
0000
0000
,
0001
0000
0000
0000
,
0100
0000
0000
0000
,
0100
0000
0000
0000
,
0010
0000
0000
0000
,
0010
0000
0000
0000
,
1000
0000
0000
0000
,
0000
0000
0000
0000
,
1000
0000
0000
0000
,
0000
0000
0000
0000
,
0001
0000
0000
0000
,
0000
0000
0000
0000
,
0001
0000
0000
0000
,
0000
0000
0000
0000
,
0001
0000
0000
0000
,
1000
0000
0000
0000
,
0001
0000
0000
0000
,
1000
0000
0000
0000
,
0001
0000
0000
0000
,
1000
0000
0000
0000
,
0001
0000
0000
0000
,
1000
0000
0000
0000
,
0001
0000
0000
0000
,
0000
0000
0000
0000
,
1001
0000
0000
0000
,
1000
0000
0000
0000
,
0001
0000
0000
0000
,
1000
0000
0000
0000
,
0010
0000
0000
0000
,
0100
0000
0000
0000
,
0010
0000
0000
0000
,
0100
0000
0000
0000
;

//---------------dance-single - ----------------
#NOTES:
     dance-single:
     :
     Hard:
     6:
     0.363,0.426,0.409,0.189,0.042:
0000
0000
0000
0000
,
0000
0000
0000
0000
,
0000
0000
0000
0000
,
0000
0000
0000
0000
,
0000
0000
0000
0000
,
0000
0000
0000
0000
,
1000
0000
1010
0000
1000
0001
1000
0000
,
0001
0000
0101
0000
0001
1000
0001
0000
,
1000
0000
1010
0000
1000
0001
1000
0000
,
0001
0000
0101
0000
0001
1000
0001
0000
,
1000
0000
1100
0000
1000
0001
0100
0000
,
0001
0000
0011
0000
0001
1000
0010
0000
,
1000
0000
1100
0000
1000
0001
0010
0000
,
0001
0000
0011
0000
0001
1000
0100
1000
,
0100
1000
0010
1000
0010
0000
1001
0000
,
0010
0001
0100
0001
0100
0000
1001
0000
,
0010
1000
0010
1000
0100
0000
1001
0000
,
0100
0001
0100
0001
0010
0000
1001
0000
,
1000
0010
1000
0001
0010
0001
0010
0000
,
0001
1000
0001
1000
0100
1000
0100
0000
,
1000
0001
1000
0001
0100
0001
0100
0000
,
0001
1000
0001
1000
0010
0000
0010
0000
,
1002
0000
0000
0200
0000
0000
0303
0000
,
1002
0000
0000
0020
0000
0000
0033
0000
,
2001
0000
0000
0020
0000
0000
3030
0000
,
2001
0000
0000
0200
0000
0000
3300
0000
,
2001
0000
0000
0020
0000
0000
3030
0000
,
1002
0000
0000
0020
0000
0000
0033
0000
,
2001
0000
0000
0200
0000
0000
3300
0000
,
1002
0000
0000
0020
0000
0000
0033
0000
,
0001
0000
0000
0010
0000
0000
0100
0000
0000
0000
0000
0000
1001
0000
0000
0000
,
1000
0000
0000
0100
0000
0000
0010
0000
0000
0000
0000
0000
0000
0000
0000
0000
,
0001
0000
0000
0100
0000
0000
0010
0000
0000
0000
0000
0000
1001
0000
0000
0000
,
1000
0000
0000
0010
0000
0000
0100
0000
0000
0000
0000
0000
0000
0000
0000
0000
,
0001
0000
0000
1000
0000
0000
0010
0000
0000
0000
0000
0000
1001
0000
0000
0000
,
1000
0000
0000
0001
0000
0000
0100
0000
0000
0000
0000
0000
0000
0000
0000
0000
,
0001
0000
0000
1000
0000
0000
0100
0000
0000
0000
0000
0000
1001
0000
0000
0000
,
1000
0000
0000
0001
0000
0000
0020
0000
0000
0000
0000
0000
0000
0000
0000
0000
,
0031
0001
0000
0000
0000
0000
0000
0000
,
0100
0100
0100
1010
,
1100
0000
1000
0010
0100
0010
1001
0000
,
0011
0000
0001
0100
0010
0100
0001
0000
,
0101
0000
0001
0100
0010
0100
1001
0000
,
1010
1001
0000
1001
,
0101
0000
0100
0001
0010
0100
1001
0000
,
1010
0000
0010
1000
0100
0010
0100
0000
,
0101
0000
0100
1000
0100
0010
1001
0000
,
2010
0010
0010
3010
;

//---------------dance-single - ----------------
#NOTES:
     dance-single:
     :
     Challenge:
     7:
     0.457,0.526,0.399,0.346,0.184: // measure 1
0000
0000
0000
0000
,  // measure 2
0000
0000
0000
0000
,  // measure 3
0000
0000
0000
0000
,  // measure 4
0000
0000
0000
0000
,  // measure 5
0000
0000
0000
0000
,  // measure 6
0000
0000
0000
0000
,  // measure 7
0001
1000
0100
1000
0100
0010
1001
0000
,  // measure 8
1000
0001
0010
0001
0010
0001
1000
0000
,  // measure 9
0001
1000
0010
1000
0100
0010
1001
0000
,  // measure 10
1000
0001
0100
0001
0100
0001
1000
0000
,  // measure 11
0100
0000
0010
0000
0100
0000
0010
0000
0001
0000
1000
0010
1000
0000
0000
0000
,  // measure 12
0100
0010
0100
0010
0001
1000
0001
0000
,  // measure 13
0010
0000
0100
0000
0010
0000
0100
0000
1000
0000
0001
0100
0001
0000
0000
0000
,  // measure 14
0010
0100
0010
0100
1000
0000
1001
0000
,  // measure 15
0001
0010
0001
0000
1000
0000
0100
0000
0010
0000
0100
0000
1000
0000
0000
0000
,  // measure 16
0001
0010
0001
0000
1000
0000
0100
0000
0010
0000
0100
0000
1000
0000
0000
0000
,  // measure 17
0001
0010
0001
0000
1000
0000
0100
0000
0010
0100
0010
0000
0001
0000
0000
0000
,  // measure 18
1000
0100
1000
0000
0001
0000
0010
0000
0100
0010
0100
0000
1001
0000
0000
0000
,  // measure 19
1000
0010
1000
0000
0001
0000
0010
0000
0100
1000
0100
0000
1001
0000
0000
0000
,  // measure 20
0001
0100
0001
0000
1000
0000
0100
0000
0010
0001
0010
0000
1001
0000
0000
0000
,  // measure 21
1000
0010
1000
0000
0001
0000
0100
0000
0010
1000
0010
0000
1001
0000
0000
0000
,  // measure 22
0001
0000
0100
0000
0001
0000
1000
0000
0100
0000
0000
1000
0010
1000
0010
0000
,  // measure 23
2002
0000
3000
0020
0000
0000
0033
0000
,  // measure 24
2002
0000
0003
0200
0000
0000
3300
0000
,  // measure 25
2002
0000
3000
0200
0000
0000
0303
0000
,  // measure 26
2002
0000
0003
0020
0000
0000
3030
0000
,  // measure 27
0022
0000
0030
2000
0000
0000
3003
0000
,  // measure 28
2200
0000
0300
0002
0000
0000
3003
0000
,  // measure 29
0202
0000
0300
2000
0000
0000
3003
0000
,  // measure 30
2020
0000
0030
0002
0000
0000
3003
0000
,  // measure 31
0020
0000
0000
1000
0000
0000
1000
0000
0000
0000
0030
0000
1001
0000
0000
0000
,  // measure 32
0020
0000
0000
1000
0000
0000
1000
0000
0000
0000
0000
0000
0030
0000
0000
0000
,  // measure 33
0200
0000
0000
0001
0000
0000
0001
0000
0000
0000
0300
0000
1001
0000
0000
0000
,  // measure 34
0200
0000
0000
0001
0000
0000
0001
0000
0000
0000
0000
0000
0300
0000
0000
0000
,  // measure 35
0002
0000
0000
0010
0000
0000
0100
0000
0000
0000
0003
0000
1001
0000
0000
0000
,  // measure 36
0002
0000
0000
0010
0000
0000
0100
0000
0000
0000
0000
0000
0003
0000
0000
0000
,  // measure 37
2000
0000
0000
0100
0000
0000
0010
0000
0000
0000
3000
0000
1001
0000
0000
0000
,  // measure 38
2000
0000
0000
0100
0000
0000
0020
0000
0000
0000
0000
0000
3030
0000
0000
0000
,  // measure 39
0100
0001
0100
0000
0000
0001
0000
1000
0000
0001
0000
0000
1000
0010
1000
0000
,  // measure 40
0010
0010
0010
0101
,  // measure 41
1001
0000
0000
0001
1000
0000
0100
0000
1000
0000
0001
0000
0011
0000
0000
0000
,  // measure 42
1001
0000
0000
1000
0001
0000
0010
0000
0001
0000
1000
0000
0100
0000
0000
0000
,  // measure 43
1001
0000
0000
0001
1000
0000
0010
0000
1000
0000
0001
0000
0011
0000
0000
0000
,  // measure 44
0101
0110
1010
0110
,  // measure 45
1001
0000
0000
0100
0001
0000
1000
0000
0100
0000
1000
0000
1010
0000
0000
0000
,  // measure 46
1001
0000
0000
0010
1000
0000
0001
0000
0010
0000
0001
0000
0100
0000
0000
0000
,  // measure 47
1001
0000
0000
0100
0001
0000
1000
0000
0010
0000
1000
0000
1100
0000
0000
0000
,  // measure 48
1001
0110
0110
0110
;
