#TITLE:テルテル坊主;
#SUBTITLE:(TV SIZE);
#ARTIST:里花子愛河;
#TITLETRANSLIT:Teruteru Bouzu;
#SUBTITLETRANSLIT:;
#ARTISTTRANSLIT:Rikako Aikawa;
#CREDIT:Kyon;
#BANNER:Teruteru Bouzu (TV SIZE).png;
#BACKGROUND:Teruteru Bouzu (TV SIZE)-bg.png;
#LYRICSPATH:Teruteru Bouzu (TV SIZE).lrc;
#CDTITLE:Dj DMA Original Simfile.png;
#MUSIC:Teruteru Bouzu (TV SIZE).mp3;
#OFFSET:0.240;
#SAMPLESTART:25.261;
#SAMPLELENGTH:12.000;
#SELECTABLE:YES;
#BPMS:0.000=93.050;
#STOPS:;
#BGCHANGES:0.240=Teruteru Bouzu (TV SIZE).AVI=1.000=1=0=1,
99999=-nosongbg-=1.000=0=0=0 // don't automatically add -songbackground-
;

//---------------dance-single - ----------------
#NOTES:
     dance-single:
     :
     Easy:
     2:
     0.174,0.167,0.103,0.073,0.000: // measure 1
0000
0000
0000
0000
,  // measure 2
0000
0000
0000
0000
,  // measure 3
0000
0001
0001
0001
,  // measure 4
0000
1000
1000
1000
,  // measure 5
0000
0010
0100
0010
,  // measure 6
0100
0010
0000
0100
,  // measure 7
0010
1001
0000
0001
,  // measure 8
0000
1000
0000
0010
,  // measure 9
0000
0100
0000
0000
,  // measure 10
0001
0100
1010
0000
,  // measure 11
0000
0010
0100
0010
,  // measure 12
1000
0002
0000
0000
,  // measure 13
0000
1003
0010
0100
,  // measure 14
0010
1000
0001
0010
,  // measure 15
0000
1001
0000
1001
,  // measure 16
0000
0020
0000
0130
,  // measure 17
0000
0001
0010
0100
,  // measure 18
1000
0002
0010
0010
,  // measure 19
0013
1000
0100
0010
,  // measure 20
0001
1000
0010
0100
,  // measure 21
0000
1001
0001
0001
,  // measure 22
1000
1000
0010
0200
,  // measure 23
0000
0310
0010
0100
,  // measure 24
0010
1001
0100
0020
,  // measure 25
0000
0130
0001
0100
,  // measure 26
0010
1001
0000
0000
;

//---------------dance-single - ----------------
#NOTES:
     dance-single:
     :
     Hard:
     5:
     0.281,0.283,0.176,0.161,0.000: // measure 1
0000
0000
0000
0000
,  // measure 2
0000
0000
0000
0000
,  // measure 3
0000
0000
0010
0000
0010
0000
1000
0010
,  // measure 4
1000
0001
0010
0100
1000
0000
1001
0000
,  // measure 5
0100
0000
0100
0000
0001
0100
0001
1000
,  // measure 6
0100
0010
0001
0000
1001
0000
0010
0000
,  // measure 7
0100
0000
0020
0000
0000
0100
0230
0000
,  // measure 8
0000
0001
0302
0000
0000
1000
1003
0000
,  // measure 9
0000
0010
0200
0000
0010
0000
0300
0001
,  // measure 10
0100
1000
0010
0000
1010
0000
0000
0000
,  // measure 11
0000
1001
0010
0001
,  // measure 12
1000
0000
0001
0000
0100
0000
1000
0010
,  // measure 13
1000
0010
1000
0001
,  // measure 14
0010
0000
0001
0000
0100
0000
0001
0100
,  // measure 15
1000
0100
0200
0000
0000
1000
2300
0000
,  // measure 16
0000
0000
3001
0000
0000
1000
0010
0100
,  // measure 17
0001
0011
1100
1001
,  // measure 18
0010
0000
0100
0001
0100
1000
0100
0000
,  // measure 19
0011
0000
0100
0000
0010
0000
1000
0010
,  // measure 20
0001
0010
1001
0200
,  // measure 21
0000
0000
0301
0000
1010
0000
1000
0100
,  // measure 22
0010
0000
0100
0010
0100
0001
0010
0100
,  // measure 23
1000
0000
0001
0010
0100
0000
0010
0100
,  // measure 24
0010
1000
0010
0100
0002
0000
0010
0000
,  // measure 25
0013
1001
2000
0100
,  // measure 26
3100
2002
0000
3003
;

//---------------dance-single - ----------------
#NOTES:
     dance-single:
     :
     Challenge:
     6:
     0.338,0.302,0.382,0.073,0.037: // measure 1
0000
0000
0000
0000
,  // measure 2
0000
0000
0000
0000
,  // measure 3
0000
0000
0001
1000
0010
1000
0010
0100
,  // measure 4
0010
0001
0010
1000
0010
0000
1001
0000
,  // measure 5
1000
0001
0100
0001
0100
0010
0100
1000
,  // measure 6
0100
0001
0100
0000
0010
0000
1100
0000
,  // measure 7
0101
0000
0000
0000
1001
0000
0000
0000
0100
0000
0001
0100
0010
0000
0000
0000
,  // measure 8
0100
0000
0010
0000
2000
0000
0000
0000
0000
0000
3010
0000
0100
0010
1000
0000
,  // measure 9
0000
0010
0200
0000
0010
0000
0310
0100
,  // measure 10
0001
0100
1000
0000
1001
0000
0000
0000
,  // measure 11
0000
0000
0011
0000
1010
0000
0100
1000
,  // measure 12
0100
0000
1100
0000
0101
0000
0010
0001
,  // measure 13
0010
0000
0101
0000
1100
0000
0010
1000
,  // measure 14
0010
0000
1010
0000
0011
0000
0100
0001
,  // measure 15
0100
0010
1001
0000
0010
0100
1001
0000
,  // measure 16
0100
0000
0020
0000
0100
0000
0130
0010
,  // measure 17
1000
0010
0001
0000
0100
0000
0010
1000
,  // measure 18
0010
0000
1000
0100
0010
0001
1100
0000
,  // measure 19
1001
0000
1000
0000
0010
0000
0001
0010
,  // measure 20
0100
1000
0011
0000
1001
0000
1000
0010
,  // measure 21
0100
0000
0000
0000
0011
0000
0000
0000
1001
0000
0000
0001
0010
0000
0001
0000
,  // measure 22
0010
0000
0100
0000
1000
0100
1000
0000
,  // measure 23
0100
0000
0000
0000
0011
0000
0000
0000
1001
0000
0000
1000
0100
0000
1000
0000
,  // measure 24
0100
0000
0010
0000
0001
0010
0001
0000
,  // measure 25
0010
0000
0000
0000
1100
0000
0000
0000
1001
0000
0000
0010
0100
0000
0010
0000
,  // measure 26
0100
2002
0000
3003
;

//---------------dance-single - ----------------
#NOTES:
     dance-single:
     :
     Medium:
     4:
     0.237,0.227,0.059,0.132,0.000: // measure 1
0000
0000
0000
0000
,  // measure 2
0000
0000
0000
0000
,  // measure 3
0000
0100
0100
0010
,  // measure 4
1000
0100
1000
0000
0010
0000
0100
0000
,  // measure 5
0001
0010
0001
0000
1000
0000
0010
0000
,  // measure 6
0100
0010
0100
0000
0010
0000
1000
0000
,  // measure 7
0001
0200
0000
0320
,  // measure 8
0000
2030
0000
3002
,  // measure 9
0000
0013
0002
0000
0000
0000
0000
0000
,  // measure 10
0103
0010
1001
0000
,  // measure 11
0000
0000
0100
0000
0010
0000
1000
0100
,  // measure 12
1000
0000
0010
0000
0100
0000
0001
0010
,  // measure 13
0001
0000
0100
0000
0010
0000
1000
0010
,  // measure 14
1000
0000
0010
0000
0100
0000
0001
0100
,  // measure 15
0001
0100
0100
0000
0000
0010
0010
0000
,  // measure 16
0000
0000
2000
0000
0000
0001
3001
0000
,  // measure 17
0000
0000
0010
0000
0100
0000
0001
0010
,  // measure 18
0100
1000
0100
1000
,  // measure 19
0010
0000
0100
0000
0010
0000
1000
0100
,  // measure 20
0010
0001
0010
0002
,  // measure 21
0000
0000
1003
0000
0010
0000
0100
0010
,  // measure 22
1000
0000
0010
0000
0100
0001
0010
0001
,  // measure 23
0100
0000
0010
0000
0100
0000
0001
1000
,  // measure 24
0001
0000
0100
0000
1010
0000
1000
0001
,  // measure 25
1000
0000
0010
0000
0101
0000
0010
0100
,  // measure 26
0010
0100
2002
0000
0000
0000
3003
0000
;

//---------------dance-single - ----------------
#NOTES:
     dance-single:
     :
     Beginner:
     1:
     0.063,0.111,0.103,0.000,0.000: // measure 1
0000
0000
0000
0000
,  // measure 2
0000
0000
0000
0000
,  // measure 3
0000
1000
0000
0000
,  // measure 4
0000
1000
0000
0000
,  // measure 5
0000
0001
0000
0000
,  // measure 6
0000
0001
0000
0000
,  // measure 7
0000
1001
0000
0000
,  // measure 8
0000
0100
0000
0000
,  // measure 9
0000
1000
0000
0000
,  // measure 10
0000
0000
1001
0000
,  // measure 11
0000
0001
0000
0000
,  // measure 12
0000
0010
0000
0000
,  // measure 13
0000
0001
0000
0000
,  // measure 14
0000
1000
0000
0000
,  // measure 15
0000
1001
0000
1001
,  // measure 16
0000
1001
0000
0000
,  // measure 17
0000
1000
0000
0000
,  // measure 18
0000
0010
0000
0000
,  // measure 19
0000
0100
0000
0000
,  // measure 20
0000
0001
0000
0000
,  // measure 21
0000
1001
0000
0000
,  // measure 22
0000
0000
0100
0000
,  // measure 23
0000
0000
0000
0000
,  // measure 24
0000
0000
0010
0000
,  // measure 25
0000
0000
0000
0000
,  // measure 26
0000
1001
0000
0000
;
