#TITLE:TYPE MARS;
#SUBTITLE:-DAJI DDR EDIT-;
#ARTIST:remixed by DAJI;
#TITLETRANSLIT:;
#SUBTITLETRANSLIT:;
#ARTISTTRANSLIT:;
#CREDIT:Kyon;
#BANNER:TYPE MARS -DAJI DDR EDIT-.png;
#BACKGROUND:TYPE MARS -DAJI DDR EDIT--bg.png;
#LYRICSPATH:;
#CDTITLE:Konami Original Remix.png;
#MUSIC:TYPE MARS -DAJI DDR EDIT-.mp3;
#OFFSET:-0.920;
#SAMPLESTART:36.775;
#SAMPLELENGTH:12.000;
#SELECTABLE:YES;
#BPMS:0.000=158.920,191.000=79.460,205.000=158.920;
#STOPS:;
#BGCHANGES:;

//---------------dance-single - ----------------
#NOTES:
     dance-single:
     :
     Easy:
     3:
     0.220,0.450,0.059,0.084,0.000:
0000
0000
0000
0000
,
0000
0000
0000
0000
,
0000
0000
0000
0000
,
0000
0000
0000
0000
,
0000
0000
0000
0000
,
0000
0000
0000
0000
,
0000
0000
0000
0001
,
1000
0001
1000
1001
,
0000
0010
0000
0000
,
0000
0100
0000
0000
,
0000
0010
0000
0000
,
0000
0100
0000
0000
,
0000
0001
0000
0000
,
0000
1000
0000
0000
,
0000
0001
0000
0000
,
0000
0000
0000
0010
,
0000
0000
0000
0000
,
0000
0001
0000
0000
,
0000
1000
0000
0000
,
0000
0100
0000
0000
,
0000
1000
0000
0000
,
0000
0010
0000
0000
,
0000
0100
0000
0010
,
0000
0000
0000
1001
,
0000
0100
0000
0020
,
0000
0000
0000
1030
,
0000
0001
0000
0200
,
0000
0000
0000
0301
,
0000
1000
0000
0020
,
0000
0000
0000
1030
,
0000
0001
0000
0200
,
0000
0000
0000
0310
,
0100
0010
0100
0010
,
0100
0010
1000
0001
,
1000
0001
1000
0001
,
1000
0001
0100
0001
,
0100
0001
0100
0010
,
1000
0010
1000
0010
,
1000
0100
1000
0100
,
1000
0100
0010
0001
,
0010
0001
0010
0001
,
1000
1001
0000
0100
,
0000
1000
0000
0011
,
0000
1000
0000
0010
,
0000
0100
0000
0001
,
0000
1000
0000
0010
,
0100
0010
1000
0001
,
0000
0000
0000
0000
0000
0000
1000
0100
,
0010
0001
0100
0010
1000
0000
0001
0010
,
0100
1000
0010
0100
0001
0000
1000
0010
,
0100
0000
0001
0100
0010
0000
1000
1001
,
0001
1001
0100
0000
0010
0000
1000
0000
,
0001
0020
0000
0000
,
0000
0031
0010
0100
,
1000
0020
0000
0000
,
0000
1030
0100
0010
,
0001
0200
0000
0000
,
0000
0301
0010
0100
,
1000
0020
0000
0000
,
0000
1030
0100
0010
,
0001
1000
0001
1000
,
0001
0100
0010
0100
,
0010
1000
0010
1000
,
0010
1000
0001
0100
,
0001
1000
0010
1000
,
0100
1000
0100
0010
,
0001
0100
0010
1000
,
0001
0010
0001
1000
,
0100
1000
0000
0000
,
0000
2002
0000
0000
,
0000
0000
0000
0000
,
0000
3003
0000
0000
;

//---------------dance-single - ----------------
#NOTES:
     dance-single:
     :
     Hard:
     7:
     0.414,0.540,0.219,0.084,0.000:
0000
0000
0000
0000
,
0000
0000
0000
0000
,
0000
0000
0000
0000
,
0000
0000
0000
0000
,
0000
0000
0000
0000
,
0000
0000
0000
0000
,
0000
0000
0000
1100
,
0011
1010
0101
2001
,
0000
0001
0000
0001
,
0000
3001
0000
1002
,
0000
1000
0000
1000
,
0000
1003
0000
0120
,
0000
0100
0000
0100
,
0000
0130
0000
0210
,
0000
0010
0000
0310
,
0000
0000
0000
0000
0000
0000
1000
0100
,
1000
0001
0100
0010
,
0100
0010
0100
0000
0001
0000
1000
0010
,
1000
0000
0001
0000
0100
0000
0001
0100
,
0001
0000
0100
0000
0010
0000
1000
0100
,
1000
0000
0001
0000
0100
0000
0001
0010
,
0001
0000
1000
0000
0010
0000
0100
0010
,
0100
0000
0001
0000
1000
0000
0010
0100
,
0000
0000
0000
1010
0000
0000
0001
0010
,
0100
1000
0100
1000
0010
0100
0001
1000
,
0001
0000
1000
0001
1000
0000
0001
0010
,
0100
1000
0010
0100
0001
0010
0001
1000
,
0001
0000
1000
0001
1000
0000
0001
0100
,
0010
1000
0100
0010
0001
0100
0010
0100
,
0010
0000
1000
0001
1000
0000
0001
0010
,
0100
1000
0010
0100
0010
1000
0002
0000
,
0000
2003
0000
3001
,
0010
0100
1000
0000
0100
0000
0010
0000
,
0001
0010
0100
0000
1000
0000
0100
0000
,
0010
0001
0100
0000
0010
0000
1000
0000
,
0100
1000
0010
0000
0100
0000
0001
0000
,
1000
0100
0010
0100
1000
0000
0001
0010
,
0100
0010
0001
1000
0010
0100
0001
0000
,
1000
0000
0001
0010
0100
0010
0001
1000
,
0100
0010
0100
1000
0100
0010
0001
0000
,
1000
1010
0100
0001
,
1000
1100
0010
0001
,
1000
0011
0100
0010
,
1000
0101
1000
1010
,
0100
0001
1000
1100
,
0010
0001
0100
0011
,
1100
0101
1010
2002
,
0000
0000
3003
1000
,
1001
0010
0100
0001
,
1001
0100
0010
1000
,
1001
0000
0010
0000
1001
0000
0100
1001
,
0010
1001
0100
1000
0100
1000
0001
0010
,
0001
0010
0001
0000
0100
0000
0010
1000
,
0010
0000
0100
0000
0001
0000
1000
0010
,
1000
0000
0100
0000
0010
0000
0001
0100
,
0001
0000
0010
0000
0100
0000
1000
0100
,
1000
0000
0100
0000
0010
0000
0001
0010
,
0001
1000
0010
0100
,
0001
1000
0001
0000
1000
0000
0010
0000
,
0100
0000
0001
0010
0001
0000
1000
0100
,
1000
0000
0010
0100
0001
0100
0001
1000
,
0010
0000
0100
0001
0100
0010
1000
0010
,
1000
0000
0010
0100
0001
0100
0001
1000
,
0010
0000
0100
0010
0100
0001
0100
0010
,
1000
0000
0010
0100
0010
1000
0001
0100
,
0010
0000
0100
0010
1000
0001
0100
0010
,
1000
0000
0010
0100
0010
0100
0001
1000
,
0001
0000
0100
0010
0100
0010
1000
0001
,
1000
0002
0000
0000
,
0000
2000
0000
0000
,
0000
0000
0000
0000
,
0000
3003
0000
0000
;

//---------------dance-single - ----------------
#NOTES:
     dance-single:
     :
     Challenge:
     8:
     0.503,0.691,0.270,0.110,0.080: // measure 1
0000
0000
0000
0000
,  // measure 2
0000
0000
0000
0000
,  // measure 3
0000
0000
0000
0000
,  // measure 4
0000
0000
0000
0000
,  // measure 5
0000
0000
0000
0000
,  // measure 6
0000
0000
0000
0000
,  // measure 7
0000
0000
0000
0011
,  // measure 8
1100
0000
0101
0010
1000
0010
0102
0000
,  // measure 9
0000
0000
1000
0000
0000
1000
0000
1000
,  // measure 10
0000
1003
0000
2001
,  // measure 11
0000
0000
0001
0000
0000
0001
0000
0001
,  // measure 12
0000
3001
0000
0210
,  // measure 13
0000
0000
0010
0000
0000
0010
0000
0010
,  // measure 14
0000
0000
0310
0000
1000
0001
1100
0000
,  // measure 15
0011
0100
0010
1000
0100
0010
0002
0000
,  // measure 16
0000
0000
0000
0000
0003
0000
1000
0001
,  // measure 17
1000
0100
0010
0001
0010
0100
1000
0010
,  // measure 18
0100
0000
0101
0000
1010
0000
1000
0001
,  // measure 19
1000
0100
0010
0001
0010
0100
1000
0010
,  // measure 20
1000
0000
0011
0000
1100
0000
0001
0010
,  // measure 21
0001
0010
0100
1000
0100
0010
0001
0100
,  // measure 22
0010
0000
1100
0000
0011
0000
0100
0010
,  // measure 23
0100
0001
0010
0100
1000
0010
0100
0101
,  // measure 24
0000
0000
0000
1010
0000
0000
1000
0100
,  // measure 25
0010
0001
0010
0001
0100
0010
1000
0100
,  // measure 26
1000
0000
0001
0010
0001
0000
1000
0100
,  // measure 27
0010
0001
0100
0010
1000
0100
1000
0010
,  // measure 28
1000
0000
0001
0100
0001
0000
1000
0010
,  // measure 29
0100
0001
0010
0100
1000
0010
0100
0010
,  // measure 30
0100
0000
0001
1000
0001
0000
1000
0100
,  // measure 31
0010
0001
0100
0010
0100
0001
2000
0000
,  // measure 32
0000
3002
0000
1003
,  // measure 33
0001
0100
1000
0100
0001
0100
0010
1000
,  // measure 34
0100
0001
0100
1000
0001
0010
0100
2000
,  // measure 35
0000
0000
0000
3001
0010
1000
0010
0001
,  // measure 36
0010
0100
1000
0001
0100
1000
0000
0001
,  // measure 37
0100
1000
0100
0001
0000
0000
1000
0010
,  // measure 38
0001
0010
1000
0010
0100
0001
1000
0000
,  // measure 39
0001
0000
1000
0100
0001
0100
1000
0100
,  // measure 40
0010
0001
0010
1000
0010
0100
0001
0000
,  // measure 41
0100
0000
1001
0000
0010
0000
1000
0010
,  // measure 42
0001
1001
0100
0010
,  // measure 43
1001
0000
0100
0000
0001
0100
1000
0000
,  // measure 44
1001
0010
0011
1100
,  // measure 45
0010
0100
0010
0101
,  // measure 46
0100
0010
0100
1010
,  // measure 47
0101
1100
0011
2002
,  // measure 48
0000
0000
0000
0000
3003
0000
0001
0010
,  // measure 49
0001
0000
0100
0010
0100
0000
0001
0010
0000
0100
1000
0000
0100
0000
1000
0100
,  // measure 50
1000
0000
0010
0100
0001
0000
0000
0010
0001
1000
0100
0010
0001
0000
0100
0000
,  // measure 51
0010
0000
1000
0100
1000
0000
0001
0100
0000
0010
1000
0000
0100
0000
1001
0000
,  // measure 52
0010
1001
0100
0010
0100
0010
1000
0001
,  // measure 53
1000
0001
1000
0000
0100
0000
0010
0001
,  // measure 54
0010
0000
0100
0000
1000
0000
0001
0100
,  // measure 55
0001
0000
0010
0000
0100
0000
1000
0010
,  // measure 56
1000
0000
0100
0000
0010
0000
0001
0010
,  // measure 57
0001
0000
0010
0000
0100
0000
1000
0100
,  // measure 58
1000
0001
0100
0010
,  // measure 59
1000
0001
1000
0000
0001
0000
0100
0000
,  // measure 60
0010
0000
1000
0100
1000
0000
0001
0010
,  // measure 61
0001
0000
0000
0000
0100
0010
0100
0000
0001
0000
1000
0100
1000
0000
0001
0000
,  // measure 62
0010
0000
0100
0000
1000
0001
1000
0000
0010
0000
0100
0000
0001
0010
0001
0000
,  // measure 63
0100
0010
1000
0100
0010
0001
0100
0010
,  // measure 64
1000
0000
0010
0100
0010
1000
0010
0100
,  // measure 65
0010
0000
0100
0010
0100
0001
0100
0010
,  // measure 66
0100
0000
0010
0100
0010
1000
0010
0100
,  // measure 67
0010
0000
0000
0000
0100
0010
0100
0000
0001
0000
0010
0001
0010
0000
0001
0000
,  // measure 68
0010
0000
0100
0000
1000
0010
1000
0000
0010
0000
0100
0001
0100
0000
0010
0000
,  // measure 69
1000
0100
0022
0000
0000
0000
0000
0000
,  // measure 70
0033
2200
0000
0000
,  // measure 71
0000
0000
0000
0000
,  // measure 72
0000
3300
0000
0000
;

//---------------dance-single - ----------------
#NOTES:
     dance-single:
     :
     Medium:
     6:
     0.330,0.600,0.303,0.042,0.000:
0000
0000
0000
0000
,
0000
0000
0000
0000
,
0000
0000
0000
0000
,
0000
0000
0000
0000
,
0000
0000
0000
0000
,
0000
0000
0000
0000
,
0000
0000
0000
1000
,
0010
1000
0001
0100
,
0000
0000
0000
0000
,
0000
0011
0000
0000
,
0000
1100
0000
0000
,
0000
1001
0000
0000
,
0000
0101
0000
0000
,
0000
1010
0000
0000
,
1001
0000
0001
2000
,
0000
0000
0000
3001
,
0100
0001
1000
0010
,
0100
0001
0010
0001
,
1000
0100
1000
0010
,
0100
0001
0010
0001
,
1000
0100
1000
0010
,
0100
0010
1000
0001
,
0010
0000
0001
0000
0100
0000
0001
1000
,
0000
0000
0000
1001
0000
0000
1100
0000
,
0010
1000
0001
0011
,
0000
1000
0000
0010
,
0100
0001
1000
0010
,
0000
0100
0000
0001
,
0100
0010
1000
0001
,
0000
1000
0000
0010
,
0100
0010
1000
0001
,
0000
1100
0000
0001
,
0100
0001
0010
0001
,
0010
0100
1000
0100
,
0010
0001
1000
0100
,
0010
0001
0010
0100
,
1000
0001
0010
0100
,
1000
0001
0100
0001
,
1000
0010
1000
0100
,
1000
0001
0100
0101
,
0000
1010
0000
0001
,
1000
1001
0000
1100
,
0000
0011
0000
0101
,
0000
1010
0000
1000
,
0001
1000
0010
0101
,
0010
1000
0001
1010
,
0101
1100
0011
2002
,
0000
0000
3003
0010
,
0100
0000
0001
0010
0001
1000
0100
1000
,
1010
0000
0101
0010
0100
0001
0010
0000
,
0011
0000
1100
0000
1001
0000
0011
0100
,
1010
0100
0011
0000
1100
0000
0011
0000
,
1100
0011
1000
0010
,
1000
0001
0100
0001
,
0010
0001
1000
0100
,
1000
0010
0100
0001
,
0010
0001
0100
0010
,
1000
0100
1000
0001
,
0100
0010
0100
0010
,
1000
0001
0100
0001
,
0010
0000
0001
0010
0001
0000
1000
0100
,
1000
0000
0010
0100
0010
0000
1000
0010
,
1000
0000
0001
0100
0001
0000
0100
0010
,
0100
0000
0010
1000
0001
0000
0100
0010
,
1000
0000
0010
0100
0001
0000
1000
0010
,
1000
0000
0001
1000
0010
0100
0001
0100
,
0010
0000
1000
0001
1000
0010
0100
0001
,
1000
0000
0010
0100
0001
1000
0010
0100
,
0001
1000
0001
0000
0000
0000
0000
0000
,
0000
2002
0000
0000
,
0000
0000
0000
0000
,
0000
3003
0000
0000
;

//---------------dance-single - ----------------
#NOTES:
     dance-single:
     :
     Beginner:
     1:
     0.064,0.117,0.067,0.000,0.000:
0000
0000
0000
0000
,
0000
0000
0000
0000
,
0000
0000
0000
0000
,
0000
0000
0000
0000
,
0000
0000
0000
0000
,
0000
0000
0000
0000
,
0000
0000
0000
0000
,
0000
0000
0000
0001
,
0000
0000
0000
0000
,
0000
0000
0000
1000
,
0000
0000
0000
0000
,
0000
0000
0000
0001
,
0000
0000
0000
0000
,
0000
0000
0000
1000
,
0000
0000
0000
1001
,
0000
0000
0000
0010
,
0000
0000
0000
0000
,
0000
0000
0000
0000
,
0000
0000
0000
0000
,
0000
0000
0000
0100
,
0000
0000
0000
0000
,
0000
0000
0000
0000
,
0000
0000
0000
1001
,
0000
0000
0000
1001
,
0000
0000
0000
0000
,
0000
0000
0000
1001
,
0000
0000
0000
0000
,
0000
0000
0000
1001
,
0000
0000
0000
0000
,
0000
0000
0000
1001
,
0000
0000
0000
0001
,
0000
0000
0000
1000
,
0000
0000
0000
0000
,
0000
0000
0000
0010
,
0000
0000
0000
0000
,
0000
0000
0000
0100
,
0000
0000
0000
0000
,
0000
0000
0000
0010
,
0000
0000
0000
0000
,
0000
0000
0000
1000
,
0000
0000
0000
0000
,
0000
0000
0000
0001
,
0000
0000
0000
0000
,
0000
0000
0000
0100
,
0000
0000
0000
0001
,
0000
0000
0000
1000
,
0000
0001
0000
1001
,
0000
0000
0000
1000
,
0000
0000
0000
0100
,
0000
0000
0000
0010
,
0000
0001
0000
1000
,
0001
1000
0000
0000
,
0000
0010
0000
0000
,
0000
0000
0000
0000
,
0000
0100
0000
0000
,
0000
0000
0000
0000
,
0000
0001
0000
0000
,
0000
0000
0000
0000
,
0000
1000
0000
0000
,
0000
0000
0000
0000
,
0000
0100
0000
0000
,
0000
1000
0000
0000
,
0000
0010
0000
0000
,
0000
0100
0000
0000
,
0000
0010
0000
0000
,
0000
0100
0000
0000
,
0000
0001
0000
0000
,
0000
0010
0000
0000
,
0000
0001
0000
0000
,
0000
1001
0000
0000
;
