#TITLE:TROOPERS;
#SUBTITLE:;
#ARTIST:Des-TRACT;
#TITLETRANSLIT:;
#SUBTITLETRANSLIT:;
#ARTISTTRANSLIT:;
#CREDIT:DMAxel;
#BANNER:TROOPERS.png;
#BACKGROUND:TROOPERS-bg.png;
#LYRICSPATH:TROOPERS.lrc;
#CDTITLE:beatmaniaIIDX.png;
#MUSIC:TROOPERS.mp3;
#OFFSET:-5.740;
#SAMPLESTART:43.338;
#SAMPLELENGTH:12.000;
#SELECTABLE:YES;
#BPMS:0.000=177.000;
#STOPS:;
#BGCHANGES:-20.000=TROOPERS.avi=1.000=1=1=0,
99999=-nosongbg-=1.000=0=0=0 // don't automatically add -songbackground-
;

//---------------dance-single - ----------------
#NOTES:
     dance-single:
     :
     Easy:
     4:
     0.327,0.376,0.299,0.026,0.000: // measure 1
1000
0000
0001
0000
,  // measure 2
1000
0000
0001
0000
,  // measure 3
1000
0000
0001
0000
,  // measure 4
1001
0000
1001
0000
,  // measure 5
0100
0000
0100
0000
,  // measure 6
0010
0000
0010
0000
,  // measure 7
1000
0000
1000
0000
,  // measure 8
0001
0000
0001
0000
,  // measure 9
0100
0000
0100
0000
,  // measure 10
0010
0000
0010
0000
,  // measure 11
0100
0000
0100
0000
,  // measure 12
1001
0000
1001
0000
,  // measure 13
1000
0001
1000
0001
,  // measure 14
0100
0010
0100
0010
,  // measure 15
0000
1000
0010
1000
,  // measure 16
0010
0100
0001
0100
,  // measure 17
0000
0001
0010
0001
,  // measure 18
0010
0001
1000
0100
,  // measure 19
0000
1000
0010
1000
,  // measure 20
1001
0000
1001
0000
,  // measure 21
0010
0010
0010
0010
,  // measure 22
0000
0100
0100
0100
,  // measure 23
0000
0001
0001
0001
,  // measure 24
2000
0000
0000
0000
,  // measure 25
3000
0100
0100
0100
,  // measure 26
0000
1000
1000
1000
,  // measure 27
0000
0010
0000
0100
,  // measure 28
0020
0000
0230
0000
,  // measure 29
0301
0010
0100
1000
,  // measure 30
0100
0010
0001
1000
,  // measure 31
1001
0001
0010
0100
,  // measure 32
1000
0010
0100
0001
,  // measure 33
1001
0000
0100
0000
,  // measure 34
0010
0100
0010
1000
,  // measure 35
0001
1000
0001
0010
,  // measure 36
0011
0000
1100
0000
,  // measure 37
0001
0001
0001
1000
,  // measure 38
1000
1000
0010
0010
,  // measure 39
0010
0100
0100
0100
,  // measure 40
0010
0010
0010
0000
,  // measure 41
1001
0000
1000
0000
,  // measure 42
0010
0000
0100
0000
,  // measure 43
0001
0000
0010
0000
,  // measure 44
0100
0000
1000
0000
,  // measure 45
0010
0000
0100
0000
,  // measure 46
0001
0000
1000
0000
,  // measure 47
0001
0000
0100
0000
,  // measure 48
1001
0000
1001
0000
,  // measure 49
0010
0100
0010
0100
,  // measure 50
0001
1000
0001
1000
,  // measure 51
0000
0001
0010
0001
,  // measure 52
1000
0100
1000
0000
,  // measure 53
0000
0010
0100
0010
,  // measure 54
1000
0001
1000
0000
,  // measure 55
0001
0100
0001
1000
,  // measure 56
0010
0000
1001
0000
,  // measure 57
0100
0010
1000
0100
,  // measure 58
1000
0001
0010
0001
,  // measure 59
1001
0100
0010
0100
,  // measure 60
0010
1000
0100
0010
,  // measure 61
0011
1000
0010
0000
,  // measure 62
0100
0001
0100
0000
,  // measure 63
0010
1000
0010
1000
,  // measure 64
1001
0000
1001
0000
,  // measure 65
0000
0000
1100
0000
0000
1100
0000
0000
,  // measure 66
0011
0000
0000
0011
0000
0000
0000
0000
,  // measure 67
0000
0000
0101
0000
0000
0101
0000
0000
,  // measure 68
1010
0000
0000
1010
0000
0000
0000
0000
,  // measure 69
0000
0000
0110
0000
0000
0110
0000
0000
,  // measure 70
1001
0000
0000
1001
0000
0000
0000
0000
,  // measure 71
0000
0000
0101
0000
0000
1100
0000
0000
,  // measure 72
0110
0000
0000
1001
0000
0000
0000
0000
,  // measure 73
0001
0010
0100
1000
,  // measure 74
0010
0100
0010
0100
,  // measure 75
0001
0100
0010
1000
,  // measure 76
0100
0010
0001
0000
,  // measure 77
0000
1000
0100
0010
,  // measure 78
0001
0100
0010
1000
,  // measure 79
0001
0100
0001
1000
,  // measure 80
0010
0000
0100
0000
,  // measure 81
1001
0000
0000
0000
;

//---------------dance-single - ----------------
#NOTES:
     dance-single:
     :
     Challenge:
     10:
     0.861,0.931,0.367,0.060,0.414: // measure 1
1001
0001
1000
0110
,  // measure 2
0110
0001
1000
0001
,  // measure 3
0110
1000
0110
0001
,  // measure 4
0101
1001
0000
0000
1010
1001
0000
0000
,  // measure 5
0001
0010
0100
1000
0010
0100
0001
0010
,  // measure 6
0001
0000
0010
0000
0100
0000
1000
0000
0010
0100
0000
0100
0010
0000
0000
0000
,  // measure 7
1000
0100
0010
0001
0100
0010
1000
0100
,  // measure 8
1000
0000
0100
0000
0010
0000
0001
0000
0100
0010
0000
0010
0100
0000
0000
0000
,  // measure 9
0001
0100
0010
1000
0100
0010
0001
0100
,  // measure 10
0001
0000
0100
0000
0010
0000
1000
0000
0010
0100
0000
0100
0010
0000
0000
0000
,  // measure 11
1000
0010
0100
0001
0010
0100
1000
0001
,  // measure 12
0110
0010
0100
0000
0110
0100
0010
0000
,  // measure 13
1000
0010
1000
0100
0010
0100
1000
0100
,  // measure 14
0010
0001
0100
0010
0100
0000
0101
0000
,  // measure 15
1001
0000
0001
0100
0001
0010
0100
0010
,  // measure 16
0001
0010
0100
1000
0010
0000
1010
0000
,  // measure 17
1001
0000
1000
0100
0001
0100
1000
0001
,  // measure 18
1000
0100
0010
0001
0100
0000
1100
0000
,  // measure 19
1001
0000
0001
0010
1000
0010
0001
1000
,  // measure 20
0110
0010
0100
0000
0110
0100
0010
0000
,  // measure 21
1000
0000
0010
0000
0100
0001
0100
0000
0010
0000
1000
0000
0010
1000
0010
0000
,  // measure 22
0100
0000
0001
0000
1000
0100
1000
0000
0001
0000
0100
0000
0001
0010
0001
0000
,  // measure 23
0100
0000
0010
0000
1000
0001
1000
0000
0010
0000
0100
0000
0001
1000
0001
0000
,  // measure 24
1000
0000
0010
0000
1000
0001
1000
0000
0100
0000
0010
0000
0001
0000
0100
0000
,  // measure 25
0010
0000
0000
0000
1000
0001
1000
0000
0010
0000
0100
0000
0001
1000
0001
0000
,  // measure 26
0100
0000
0010
0000
1000
0001
1000
0000
0010
0000
0100
0000
0001
0010
0001
0000
,  // measure 27
1000
0000
0010
0000
1000
0100
1000
0000
0010
0000
0100
0000
0010
0100
0010
0000
,  // measure 28
0101
0101
0000
0000
1010
1010
0000
0000
,  // measure 29
0001
0010
0100
1000
0100
0001
0100
1000
,  // measure 30
0100
0000
0001
0000
0100
0000
1000
0000
0100
0000
0010
0000
0001
1000
0001
0000
,  // measure 31
1000
0100
0010
0001
0010
1000
0010
0001
,  // measure 32
0010
0000
1000
0000
0010
0000
0001
0000
0010
0000
0100
0000
1000
0001
1000
0000
,  // measure 33
0001
0010
0100
1000
0100
0001
0100
1000
,  // measure 34
0100
0000
0001
0000
0010
0000
0100
0000
1000
0000
1000
0000
0010
0100
0010
0000
,  // measure 35
1000
0100
0010
0001
0010
0100
0010
0000
,  // measure 36
1001
0001
1000
0000
1001
1000
0001
0000
,  // measure 37
0210
0000
0301
0100
1000
0000
0120
0000
,  // measure 38
1030
0100
0001
0000
0210
0000
0301
0100
,  // measure 39
1000
0000
0120
0000
1030
0100
0001
0000
,  // measure 40
0210
0000
0301
0100
1000
0100
0001
1000
,  // measure 41
1001
0000
0010
0100
0001
0000
0100
0010
,  // measure 42
1000
0000
0000
0000
0000
0000
0100
0000
0000
1000
0000
0000
0010
0000
0100
0000
0010
0000
0100
0000
0000
0001
0000
0000
,  // measure 43
1000
0000
0010
0100
0001
0000
0100
0010
,  // measure 44
1000
0000
0010
0100
0101
0000
1100
0000
,  // measure 45
1001
0000
0100
0010
1000
0000
0100
0010
,  // measure 46
0001
0000
0000
0000
0000
0000
0010
0000
0000
0001
0000
0000
0100
0000
0010
0000
0100
0000
0010
0000
0000
1000
0000
0000
,  // measure 47
0001
0000
1000
0010
0100
0000
0010
0100
,  // measure 48
0101
1001
0101
1001
,  // measure 49
0001
0000
0100
0000
0001
0010
0001
0000
1000
0000
0010
0000
1000
0100
1000
0000
,  // measure 50
0001
0000
0010
0000
0001
0100
0001
0000
0100
0000
0010
0000
1000
0010
1000
0000
,  // measure 51
0001
0000
0000
0000
0100
0010
0100
0000
0010
0000
1000
0000
0001
1000
0001
0000
,  // measure 52
0100
0000
0010
0000
1000
0100
1000
0000
0010
0000
0100
0000
0001
0010
0001
0000
,  // measure 53
1000
0000
0000
0000
0010
0100
0010
0000
1000
0000
0001
0000
1000
0001
1000
0000
,  // measure 54
0010
0000
0100
0000
0001
0100
0001
0000
0100
0000
0010
0000
1000
0010
1000
0000
,  // measure 55
0001
0010
0100
1000
0100
0010
0001
0100
,  // measure 56
0001
0100
0001
0100
0001
0000
0000
0000
1000
0100
1000
0100
1000
0000
0000
0000
,  // measure 57
1001
0010
0100
1000
0100
0001
0100
1000
,  // measure 58
0100
0000
0010
0000
0001
0000
0100
0000
0010
0000
0000
0000
1000
0001
1000
0000
,  // measure 59
0001
0100
0010
1000
0100
0001
0100
1000
,  // measure 60
0100
0000
0010
0000
0001
0000
1000
0000
0100
0000
1000
0000
0001
1000
0001
0000
,  // measure 61
1000
0100
0010
0001
0010
1000
0010
0001
,  // measure 62
0010
0000
0100
0000
1000
0000
0001
0000
0100
0000
0001
0000
1000
0001
1000
0000
,  // measure 63
0100
0001
0100
1000
0010
0100
0001
0000
,  // measure 64
1001
0000
0001
0000
1000
0000
0000
0000
1001
0000
1000
0000
0001
1000
0001
0000
,  // measure 65
0100
0010
0100
0010
0100
0000
0001
1000
0001
1000
0001
0000
0010
0001
0010
0001
,  // measure 66
0010
0000
0100
1000
0100
1000
0100
0000
1000
0001
1000
0001
1000
0000
0000
0000
,  // measure 67
0001
1000
0001
1000
0001
0000
0100
0010
0100
0010
0100
0000
0001
0010
0001
0010
,  // measure 68
0001
0000
1000
0100
1000
0100
1000
0000
0001
1000
0001
1000
0001
0000
0000
0000
,  // measure 69
0100
0010
0100
0010
0100
0000
0001
0100
0001
0100
0001
0000
1000
0010
1000
0010
,  // measure 70
1000
0000
0010
0100
0010
0100
0010
0000
1000
0001
1000
0001
1000
0000
0000
0000
,  // measure 71
0001
1000
0001
1000
0001
0000
0100
0010
0100
0010
0100
0000
0001
0010
0001
0010
,  // measure 72
0001
0000
1000
0100
1000
0100
1000
0000
0001
1000
0001
1000
0001
0000
0000
0000
,  // measure 73
0011
0100
1000
0100
0010
0001
0100
0010
,  // measure 74
1000
0100
0001
0100
1000
0010
0100
0010
,  // measure 75
1000
0010
0001
0010
1000
0100
0010
0001
,  // measure 76
0100
0000
0010
0000
0100
0000
0001
0000
1000
0000
0010
0000
0100
0001
0100
0000
,  // measure 77
0001
1000
0001
0000
0010
0001
0010
0000
0001
0000
0010
0000
0100
1000
0100
0000
,  // measure 78
0001
0000
0100
0000
1000
0001
1000
0000
0100
0000
0010
0000
0001
1000
0001
0000
,  // measure 79
0100
0000
0010
0000
1000
0000
0010
0000
0100
0001
0100
0000
0010
1000
0010
0000
,  // measure 80
0100
0000
0010
0000
1000
0001
1000
0000
0001
1000
0001
0000
0010
0100
0010
0000
,  // measure 81
2002
0000
0000
3003
;

//---------------dance-single - ----------------
#NOTES:
     dance-single:
     :
     Hard:
     8:
     0.643,0.586,0.273,0.128,0.017: // measure 1
1001
0010
0100
0001
,  // measure 2
0001
0010
0100
1000
,  // measure 3
0001
0001
1000
1000
,  // measure 4
1001
1001
0000
0000
1001
1001
0000
0000
,  // measure 5
1000
0100
0010
0001
0100
0010
1000
0100
,  // measure 6
1000
0100
0010
0001
0100
0001
0200
0000
,  // measure 7
0301
0010
0100
1000
0100
0010
0001
0100
,  // measure 8
0010
1000
0001
0100
0001
0100
0020
0000
,  // measure 9
1030
0100
0010
0001
0100
0001
0100
0010
,  // measure 10
1000
0010
0100
0001
0100
0001
0200
0000
,  // measure 11
0301
0100
0010
1000
0100
0010
0001
1000
,  // measure 12
1001
0000
1001
0000
,  // measure 13
1000
0000
0010
0100
0001
0000
0100
0001
,  // measure 14
1000
0000
0001
0100
0001
1000
0100
0010
,  // measure 15
0001
0000
0100
0010
1000
0000
0010
1000
,  // measure 16
0001
0000
1000
0010
1000
0001
0010
0100
,  // measure 17
1000
0000
0010
0100
0001
0000
0100
0001
,  // measure 18
1000
0000
0001
0010
0100
1000
0010
0100
,  // measure 19
0001
0000
0100
0010
0100
0000
0110
0000
,  // measure 20
1000
1000
0000
0000
0001
0001
0000
0000
,  // measure 21
1000
0100
0010
0001
0100
1000
0100
0000
,  // measure 22
0001
0010
0100
1000
0100
0001
0100
0000
,  // measure 23
1000
0100
0010
0100
1000
0100
0010
0001
,  // measure 24
2000
0000
0001
0000
3001
0100
0010
1000
,  // measure 25
0001
0010
0100
1000
0100
0001
0100
1000
,  // measure 26
0000
0100
0010
0001
0100
1000
0100
0001
,  // measure 27
0000
0100
0010
0100
0010
0100
0001
0010
,  // measure 28
0100
1000
1000
0000
0001
0001
2000
0000
,  // measure 29
3002
0000
0000
0000
1003
0100
0010
0001
,  // measure 30
0100
0010
1000
0100
1000
0010
0200
0000
,  // measure 31
0320
0000
1030
0100
0010
0001
0100
0010
,  // measure 32
0100
0010
1000
0100
0010
0001
2000
0000
,  // measure 33
3002
0000
0000
1003
0100
0000
0010
0001
,  // measure 34
0010
0100
1000
0010
0100
0000
0001
0100
,  // measure 35
1000
0000
0110
0000
1001
0000
1000
0100
,  // measure 36
0001
1000
0000
0000
0001
1000
0000
0000
,  // measure 37
0001
0010
1000
0010
,  // measure 38
0001
0100
1000
0100
,  // measure 39
0001
0010
1000
0010
,  // measure 40
0001
0100
0020
0000
,  // measure 41
1030
0000
0010
1000
0100
0000
0010
0001
,  // measure 42
0100
0000
0000
0000
0000
0000
0010
0000
0000
0100
0000
0000
0001
0000
1000
0000
0001
0000
1000
0000
0000
0100
0000
0000
,  // measure 43
0010
0000
0001
0100
0010
0000
0100
0010
,  // measure 44
1000
0000
0010
0100
0002
0000
1003
0000
,  // measure 45
1001
0000
0100
0001
0010
0000
0100
1000
,  // measure 46
0010
0000
0000
0000
0000
0000
0100
0000
0000
0010
0000
0000
1000
0000
0001
0000
1000
0000
0001
0000
0000
0010
0000
0000
,  // measure 47
0100
0000
1000
0010
0100
0000
0010
0100
,  // measure 48
0001
0001
0000
0000
1000
1000
0000
0000
,  // measure 49
0001
0000
1000
0001
1000
0000
0010
0100
,  // measure 50
0010
0000
0100
0010
1000
0001
0010
0100
,  // measure 51
1000
0000
0001
0100
0001
0000
1000
0010
,  // measure 52
1000
0000
0010
0100
0001
1000
0100
0010
,  // measure 53
0001
0000
1000
0100
1000
0000
0001
0010
,  // measure 54
0001
0000
1000
0010
0100
0001
1000
0100
,  // measure 55
1000
1001
0001
1001
,  // measure 56
1100
0000
0011
0000
,  // measure 57
2000
0000
0000
3001
0100
0010
1000
0010
,  // measure 58
0000
1000
0100
0010
0001
0000
0011
0000
,  // measure 59
1100
0000
0000
1000
0010
0100
0001
0100
,  // measure 60
0001
0010
0000
1100
0000
0000
0101
0000
,  // measure 61
1010
0000
0000
0001
0100
0010
1000
0100
,  // measure 62
0010
0001
0100
0010
0000
0000
0101
0000
,  // measure 63
1010
1001
1001
1001
,  // measure 64
1100
0000
0011
0000
,  // measure 65
1000
0010
0001
0010
1000
0010
0100
0001
,  // measure 66
0100
1000
0100
0010
0001
0000
1001
0000
,  // measure 67
0100
0000
0001
0100
1000
0100
0001
0100
,  // measure 68
0010
1000
0100
0010
0001
0000
1001
0000
,  // measure 69
1000
0000
0001
0010
1000
0010
0001
0010
,  // measure 70
0100
1000
0010
0100
0001
0000
1001
0000
,  // measure 71
0001
0000
1000
0100
0001
0100
1000
0100
,  // measure 72
0010
0001
0100
0010
1000
0000
1001
0000
,  // measure 73
0001
0010
1000
0010
0001
0010
1000
0000
,  // measure 74
1000
0100
0001
0100
1000
0100
0001
0000
,  // measure 75
0001
0010
1000
0010
0001
0010
1000
0000
,  // measure 76
1000
0100
0001
0100
1000
0100
0001
0000
,  // measure 77
0001
1000
0001
0010
1000
0010
0100
0010
,  // measure 78
1000
0010
0001
0000
0100
0010
1000
0000
,  // measure 79
0010
0100
0001
0100
1000
0100
0010
0001
,  // measure 80
1000
0100
0010
0100
1000
0001
0100
0000
,  // measure 81
2002
0000
0000
3003
;

//---------------dance-single - ----------------
#NOTES:
     dance-single:
     :
     Beginner:
     3:
     0.198,0.239,0.256,0.000,0.000: // measure 1
0001
0000
0000
0000
,  // measure 2
0001
0000
0000
0000
,  // measure 3
1000
0000
0000
0000
,  // measure 4
1001
0000
1001
0000
,  // measure 5
0001
0000
0000
0000
,  // measure 6
1000
0000
0000
0000
,  // measure 7
1001
0000
0000
0000
,  // measure 8
1000
0000
0000
0000
,  // measure 9
1001
0000
0000
0000
,  // measure 10
0001
0000
0000
0000
,  // measure 11
1001
0000
0000
0000
,  // measure 12
0110
0000
1001
0000
,  // measure 13
0000
0001
0000
0100
,  // measure 14
0000
0001
0000
0100
,  // measure 15
0000
0010
0000
1000
,  // measure 16
0000
0010
0000
1000
,  // measure 17
0000
0001
0000
1000
,  // measure 18
0000
0001
0000
1000
,  // measure 19
0000
0010
0000
0000
,  // measure 20
0110
0000
1001
0000
,  // measure 21
0100
0000
0100
0000
,  // measure 22
0010
0000
0010
0000
,  // measure 23
0100
0000
0100
0000
,  // measure 24
0001
0000
0001
0000
,  // measure 25
0000
1000
0000
1000
,  // measure 26
0000
0100
0000
0100
,  // measure 27
0000
0010
0000
0010
,  // measure 28
0000
0000
1001
0000
,  // measure 29
1001
0000
0010
0000
,  // measure 30
0001
0000
0010
0000
,  // measure 31
1001
0000
0100
0000
,  // measure 32
1000
0000
0100
0000
,  // measure 33
1001
0000
0100
0000
,  // measure 34
0001
0000
0100
0000
,  // measure 35
0001
0000
1000
0000
,  // measure 36
1001
0000
1001
0000
,  // measure 37
1000
0000
0000
0010
,  // measure 38
0000
0000
0100
0000
,  // measure 39
0000
0001
0000
0000
,  // measure 40
1000
0000
0000
0000
,  // measure 41
1001
0000
0010
0000
,  // measure 42
0010
0000
0010
0000
,  // measure 43
1001
0000
0100
0000
,  // measure 44
0100
0000
0100
0000
,  // measure 45
1001
0000
0010
0000
,  // measure 46
0100
0000
0010
0000
,  // measure 47
1001
0000
0100
0000
,  // measure 48
0110
0000
1001
0000
,  // measure 49
0000
0010
0000
1000
,  // measure 50
0000
0010
0000
1000
,  // measure 51
0000
0001
0000
0100
,  // measure 52
0000
0001
0000
0100
,  // measure 53
0000
0001
0000
0010
,  // measure 54
0000
0001
0000
1000
,  // measure 55
0000
0100
0000
0000
,  // measure 56
1001
0000
0110
0000
,  // measure 57
1001
0000
0010
0000
,  // measure 58
0001
0000
0010
0000
,  // measure 59
1001
0000
0100
0000
,  // measure 60
1000
0000
0100
0000
,  // measure 61
0110
0000
1001
0000
,  // measure 62
0010
0000
0000
0000
,  // measure 63
0001
0000
1000
0000
,  // measure 64
0110
0000
1001
0000
,  // measure 65
0000
0100
0000
0000
,  // measure 66
0000
0000
0000
0000
,  // measure 67
0010
0000
0000
0000
,  // measure 68
0000
0000
0000
0000
,  // measure 69
1000
0000
0000
0000
,  // measure 70
0000
0000
0000
0000
,  // measure 71
0001
0000
0000
0000
,  // measure 72
0000
0000
0000
0000
,  // measure 73
0010
0000
0001
0000
,  // measure 74
0010
0000
0001
0000
,  // measure 75
1000
0000
0100
0000
,  // measure 76
1000
0000
0100
0000
,  // measure 77
1000
0000
0010
0000
,  // measure 78
1000
0000
0010
0000
,  // measure 79
0100
0000
0010
0000
,  // measure 80
0100
0000
0001
0000
,  // measure 81
1001
0000
0000
0000
;

//---------------dance-single - ----------------
#NOTES:
     dance-single:
     :
     Medium:
     6:
     0.537,0.580,0.410,0.401,0.000: // measure 1
1000
0001
1000
0001
,  // measure 2
1000
0001
0100
0000
,  // measure 3
0010
0100
0010
0100
,  // measure 4
2002
3003
2002
3003
,  // measure 5
0010
0100
0010
0000
1000
0001
1000
0000
,  // measure 6
0001
0010
0001
0100
0001
1000
0010
0000
,  // measure 7
1000
0010
1000
0000
0001
0100
0001
0000
,  // measure 8
1000
0010
0100
0001
0100
0001
1000
0000
,  // measure 9
0001
0100
0001
0000
1000
0010
1000
0000
,  // measure 10
0001
1000
0010
0100
0010
1000
0001
0000
,  // measure 11
1000
0100
1000
0000
0001
0010
0001
0000
,  // measure 12
2002
3003
2002
3003
,  // measure 13
1000
0000
0010
0100
0001
0000
0100
0001
,  // measure 14
1000
0000
0001
0100
0001
1000
0010
1000
,  // measure 15
0100
0000
1000
0000
0001
0000
0100
0010
,  // measure 16
0100
0000
0010
1000
0001
1000
0100
0010
,  // measure 17
0001
1000
0001
0100
,  // measure 18
0010
0000
1000
0100
0010
0001
0100
0010
,  // measure 19
1000
0001
0100
0010
,  // measure 20
2002
3003
2002
3003
,  // measure 21
0100
0000
0010
0000
1000
0001
1000
0000
,  // measure 22
0001
0000
0100
0000
0010
0100
0010
0000
,  // measure 23
1000
0000
0001
0000
0100
0001
0100
0000
,  // measure 24
2002
0000
0000
0000
,  // measure 25
3003
0000
0001
0000
1000
0000
0001
1000
,  // measure 26
0001
0000
0100
0000
0010
0000
1000
0010
,  // measure 27
1000
0000
0001
0000
0100
0000
0001
0100
,  // measure 28
2002
3003
2002
3003
,  // measure 29
0100
0010
1000
0000
0010
0100
0001
0000
,  // measure 30
0100
0000
0001
1000
0001
0000
0010
0000
,  // measure 31
1001
0000
1000
0000
0010
0100
0001
0100
,  // measure 32
0010
0000
0100
0000
1001
0000
0100
0001
,  // measure 33
0100
0000
0010
0000
1000
0010
1000
0000
,  // measure 34
0010
0100
0001
1000
0001
0000
1100
0000
,  // measure 35
1100
0011
0011
1001
,  // measure 36
1001
0000
1001
0000
,  // measure 37
0001
0010
1000
0010
,  // measure 38
0001
0100
1000
0100
,  // measure 39
0001
0010
1000
0010
,  // measure 40
0001
0100
1000
0000
,  // measure 41
1001
0000
0011
0000
,  // measure 42
0011
0000
1100
0000
,  // measure 43
1100
0000
1001
0000
,  // measure 44
1001
0000
1010
0000
,  // measure 45
1010
0000
0101
0000
,  // measure 46
0101
0000
1010
0000
,  // measure 47
0101
0000
1001
0000
,  // measure 48
2002
3003
2002
3003
,  // measure 49
0010
0000
1000
0001
1000
0000
0010
0100
,  // measure 50
0010
0000
0100
0010
1000
0001
0010
0100
,  // measure 51
1000
0000
0001
0100
0001
0000
1000
0010
,  // measure 52
1000
0000
0010
0100
0001
1000
0100
0010
,  // measure 53
0001
0000
1000
0100
1000
0000
0001
0010
,  // measure 54
0001
0000
1000
0010
0100
0001
1000
0001
,  // measure 55
1000
0001
0100
0010
,  // measure 56
2200
3300
0022
0033
,  // measure 57
0100
0000
0010
0000
1000
0001
1000
0000
,  // measure 58
0001
0000
0100
0010
0100
0000
0001
0000
,  // measure 59
1000
0000
0001
0000
0100
0001
0100
0000
,  // measure 60
0010
0000
0100
0000
0010
1000
0010
0000
,  // measure 61
0100
0000
0010
0000
1000
0001
1000
0000
,  // measure 62
0010
0100
0010
0000
0100
0000
0001
0000
,  // measure 63
1000
1001
1001
1001
,  // measure 64
2200
3300
0022
0033
,  // measure 65
0201
0000
0320
0000
0000
2030
0000
0000
,  // measure 66
3002
0000
0000
0203
0000
0000
0300
0000
,  // measure 67
0000
0000
1020
0000
0000
2030
0000
0000
,  // measure 68
3002
0000
0000
0203
0000
0000
0300
0000
,  // measure 69
0000
0000
0120
0000
0000
2030
0000
0000
,  // measure 70
3002
0000
0000
0203
0000
0000
0000
0000
,  // measure 71
0300
0000
1002
0000
0000
2003
0000
0000
,  // measure 72
3200
0000
0000
2300
0000
0000
0000
0000
,  // measure 73
3010
0000
0100
0000
0001
1000
0001
0000
,  // measure 74
0100
0000
0010
0000
1000
0001
1000
0000
,  // measure 75
0001
0000
0100
0000
0010
1000
0010
0000
,  // measure 76
0100
0000
0001
0000
1000
0010
1000
0000
,  // measure 77
0001
0000
0100
0010
0100
0000
0001
1000
,  // measure 78
0001
0000
1000
0010
0100
0001
1000
0000
,  // measure 79
0001
0100
0010
1000
0001
0000
0100
0000
,  // measure 80
0010
1010
0100
0101
,  // measure 81
1001
0000
0000
0000
;
