#TITLE:TOTAL RECALL;
#SUBTITLE:(beatmania version);
#ARTIST:ULTIMATE HEIGHTS;
#TITLETRANSLIT:;
#SUBTITLETRANSLIT:;
#ARTISTTRANSLIT:;
#CREDIT:DMAxel;
#BANNER:TOTAL RECALL (beatmania version).png;
#BACKGROUND:TOTAL RECALL (beatmania version)-bg.png;
#LYRICSPATH:TOTAL RECALL (beatmania version).lrc;
#CDTITLE:Dancemania SUMMERS 2.png;
#MUSIC:TOTAL RECALL (beatmania version).mp3;
#OFFSET:-0.420;
#SAMPLESTART:42.083;
#SAMPLELENGTH:12.000;
#SELECTABLE:YES;
#BPMS:0.000=132.500;
#STOPS:;
#BGCHANGES:;

//---------------dance-single - ----------------
#NOTES:
     dance-single:
     :
     Easy:
     3:
     0.220,0.311,0.220,0.000,0.000: // measure 1
0000
0000
0000
0000
,  // measure 2
0000
0000
0000
0000
,  // measure 3
0000
0000
0000
0000
,  // measure 4
0000
0000
0000
0000
,  // measure 5
1001
0000
0000
0000
,  // measure 6
0011
0000
0001
0000
,  // measure 7
1001
0000
0000
0000
,  // measure 8
1100
0000
1000
0000
,  // measure 9
1001
0000
1000
0010
,  // measure 10
1000
0000
0001
0010
,  // measure 11
0001
1000
0001
1000
,  // measure 12
0001
0001
0001
0001
,  // measure 13
1001
0000
0000
0000
,  // measure 14
0100
0000
0000
0000
,  // measure 15
0100
0000
0000
0000
,  // measure 16
0100
0000
0000
0000
,  // measure 17
1001
1000
1000
1000
,  // measure 18
0001
0001
0001
0001
,  // measure 19
0100
0100
0100
0100
,  // measure 20
0010
0010
0010
0010
,  // measure 21
1001
0000
0000
0000
,  // measure 22
1000
0000
1000
0000
,  // measure 23
0001
0000
0001
0000
,  // measure 24
1001
0000
0000
0000
,  // measure 25
0001
0100
0010
1000
,  // measure 26
0100
1000
0100
0010
,  // measure 27
0001
0010
0100
1000
,  // measure 28
0001
0010
0001
0100
,  // measure 29
0001
0001
1000
0010
,  // measure 30
1000
1000
0001
0100
,  // measure 31
0001
0010
0100
1000
,  // measure 32
1001
1001
1001
0000
,  // measure 33
1001
1000
1000
0010
,  // measure 34
0100
0000
0100
0000
,  // measure 35
0001
0001
0001
0100
,  // measure 36
0010
0000
0010
0000
,  // measure 37
1000
0001
1000
0000
,  // measure 38
0001
1000
0001
0000
,  // measure 39
0100
0010
0100
0000
,  // measure 40
0110
0110
0110
0000
,  // measure 41
1001
0000
0000
0000
;

//---------------dance-single - ----------------
#NOTES:
     dance-single:
     :
     Hard:
     6:
     0.385,0.451,0.673,0.168,0.000: // measure 1
0000
0000
0000
0000
,  // measure 2
0000
0000
0000
0000
,  // measure 3
0000
0000
0000
0000
,  // measure 4
0000
0000
0000
0000
,  // measure 5
1001
0001
1000
0001
,  // measure 6
0011
0010
1010
0000
,  // measure 7
1001
1000
0001
1000
,  // measure 8
1100
0100
0101
0000
,  // measure 9
1000
0010
1000
0100
,  // measure 10
0001
0100
0001
0010
,  // measure 11
1000
0100
1000
0100
,  // measure 12
1001
1001
1001
0010
,  // measure 13
0220
0000
0000
0330
,  // measure 14
2002
0000
0000
3003
,  // measure 15
0022
0000
0000
0033
,  // measure 16
2200
0000
0000
3300
,  // measure 17
1001
1000
0110
1000
,  // measure 18
0110
0001
0110
0001
,  // measure 19
0110
1000
0110
1000
,  // measure 20
0110
0001
1001
1001
,  // measure 21
1002
0000
0000
0000
,  // measure 22
0203
0000
0010
0000
,  // measure 23
0320
0000
1000
0030
,  // measure 24
1001
0000
0000
0000
,  // measure 25
1000
0100
1000
0100
1000
0010
0100
0000
,  // measure 26
0001
0010
0001
0010
0001
0100
0010
0000
,  // measure 27
1000
0010
1000
0010
0100
0010
1000
0000
,  // measure 28
1010
1010
0101
0101
,  // measure 29
1001
0000
0001
0010
1000
0000
0010
0000
,  // measure 30
0100
0000
0001
0100
1000
0000
0001
0000
,  // measure 31
1000
0010
1000
0010
0100
0010
1000
0000
,  // measure 32
0101
0101
1010
1001
,  // measure 33
1001
0000
1000
0010
0100
0001
1000
0000
,  // measure 34
1100
0011
1100
0011
,  // measure 35
1001
0000
0001
0100
0010
1000
0001
0000
,  // measure 36
1100
0011
1100
0011
,  // measure 37
1001
0000
1001
0000
0001
0010
1000
0000
,  // measure 38
1001
0000
1001
0000
1000
0100
0001
0000
,  // measure 39
0100
0010
0100
0000
0001
0100
1000
0000
,  // measure 40
0101
0101
1010
1010
,  // measure 41
2002
0000
0000
0000
,  // measure 42
3003
0000
0000
0000
;

//---------------dance-single - ----------------
#NOTES:
     dance-single:
     :
     Challenge:
     7:
     0.497,0.504,0.388,0.220,0.136: // measure 1
0000
0000
0000
0000
,  // measure 2
0000
0000
0000
0000
,  // measure 3
0000
0000
0000
0000
,  // measure 4
0000
0000
0000
0000
,  // measure 5
0001
0010
1000
0000
0100
0000
1100
0000
,  // measure 6
1000
0010
0100
0000
0101
0100
1001
0000
,  // measure 7
1000
0100
0001
0000
0010
0000
0011
0000
,  // measure 8
0001
0100
0010
0000
1010
0010
1001
0000
,  // measure 9
0100
0100
1000
0001
0100
0100
0001
1000
,  // measure 10
0010
0010
1000
0001
0010
0010
0001
1000
,  // measure 11
0001
0001
0100
0010
1000
1000
0010
0100
,  // measure 12
0001
0100
0000
0000
0001
0100
0000
0000
0010
1000
0000
0000
0010
1000
0000
0000
,  // measure 13
1002
1000
1000
1000
,  // measure 14
0200
0003
0000
0000
0010
0000
0000
0000
0010
0000
0000
0000
0010
0000
0000
0000
,  // measure 15
0320
1000
1000
1000
,  // measure 16
2030
0001
0001
3001
,  // measure 17
1001
0000
0000
1000
0100
0000
0000
0100
1000
0000
0000
1000
0010
0000
0000
0010
,  // measure 18
0001
0000
0000
0001
0010
0000
0000
0010
0001
0000
0000
0001
0100
0000
0000
0100
,  // measure 19
1000
0000
0000
1000
0010
0000
0000
0010
1000
0000
0000
1000
0001
0000
0000
0001
,  // measure 20
0100
0000
0000
0100
0001
0000
0000
0001
1000
0000
0000
1000
0001
0000
0000
0000
,  // measure 21
2020
0030
0002
3003
,  // measure 22
0202
0300
2000
3003
,  // measure 23
2200
0300
0002
3003
,  // measure 24
0220
0000
0330
0001
,  // measure 25
1001
0001
0100
0010
0100
0001
0001
0000
,  // measure 26
0001
1000
0010
0100
0010
1000
1000
0010
,  // measure 27
0100
0001
0010
0001
1000
0010
0100
0010
,  // measure 28
1010
0000
0011
0000
1010
0010
1001
0000
,  // measure 29
1001
1000
0010
0100
0010
1000
1000
0000
,  // measure 30
1000
0001
0100
0010
0100
0001
0001
0000
,  // measure 31
0001
0100
0010
1000
0100
0001
0100
1000
,  // measure 32
1100
0000
0000
0000
1010
0000
0000
0000
0101
0000
0100
0000
0001
1000
0000
0000
,  // measure 33
1001
1000
0001
0010
0100
0010
0001
0010
,  // measure 34
1000
0010
0100
0010
1000
0001
0001
0000
,  // measure 35
1000
0001
1000
0100
0010
0100
1000
0100
,  // measure 36
0001
0100
0010
0100
0001
1000
1000
0000
,  // measure 37
1010
0010
1001
0000
1000
0100
0001
0000
,  // measure 38
0101
0100
1001
0000
0001
0010
1000
0001
,  // measure 39
0001
0100
0010
0000
1000
0100
1000
0001
,  // measure 40
0101
0000
0000
0000
1100
0000
0000
0000
0101
0000
0100
0000
0001
1000
0000
0000
,  // measure 41
2002
0000
0000
0000
,  // measure 42
3003
0000
0000
0000
;

//---------------dance-single - ----------------
#NOTES:
     dance-single:
     :
     Beginner:
     1:
     0.092,0.155,0.065,0.000,0.000: // measure 1
0000
0000
0000
0000
,  // measure 2
0000
0000
0000
0000
,  // measure 3
0000
0000
0000
0000
,  // measure 4
0000
0000
0000
0000
,  // measure 5
0010
0000
0000
0000
,  // measure 6
0000
0000
0000
0000
,  // measure 7
0010
0000
0000
0000
,  // measure 8
0000
0000
0000
0000
,  // measure 9
1000
0000
1000
0000
,  // measure 10
1000
0000
1000
0000
,  // measure 11
0001
0000
0001
0000
,  // measure 12
0001
0000
0001
0000
,  // measure 13
1001
0000
0000
0000
,  // measure 14
0001
0000
0000
0000
,  // measure 15
0001
0000
0000
0000
,  // measure 16
0001
0000
0000
0000
,  // measure 17
1001
0000
1000
0000
,  // measure 18
0010
0000
0010
0000
,  // measure 19
0100
0000
0100
0000
,  // measure 20
0001
0000
0001
0000
,  // measure 21
1001
0000
0000
0000
,  // measure 22
0100
0000
0100
0000
,  // measure 23
0010
0000
0010
0000
,  // measure 24
1001
0000
0000
0000
,  // measure 25
0001
0000
0000
0000
,  // measure 26
1000
0000
0000
0000
,  // measure 27
0001
0000
0000
0000
,  // measure 28
1000
0000
0000
0000
,  // measure 29
0100
0000
0000
0000
,  // measure 30
0100
0000
0000
0000
,  // measure 31
0010
0000
0000
0000
,  // measure 32
0010
0000
0000
0000
,  // measure 33
0001
0000
0000
0000
,  // measure 34
0001
0000
0000
0000
,  // measure 35
1000
0000
0000
0000
,  // measure 36
1000
0000
0000
0000
,  // measure 37
0001
0000
0000
0000
,  // measure 38
0001
0000
0000
0000
,  // measure 39
1000
0000
0000
0000
,  // measure 40
1001
0000
0000
0000
,  // measure 41
0001
0000
0000
0000
;

//---------------dance-single - ----------------
#NOTES:
     dance-single:
     :
     Medium:
     5:
     0.281,0.388,0.207,0.013,0.000: // measure 1
0000
0000
0000
0000
,  // measure 2
0000
0000
0000
0000
,  // measure 3
0000
0000
0000
0000
,  // measure 4
0000
0000
0000
0000
,  // measure 5
1000
0001
1000
0001
,  // measure 6
1000
0000
1100
0000
,  // measure 7
0001
1000
0001
1000
,  // measure 8
0001
0000
0011
0000
,  // measure 9
0001
0001
1000
1000
,  // measure 10
0001
0001
0100
0100
,  // measure 11
0010
0010
0100
0100
,  // measure 12
1001
1001
1001
0100
,  // measure 13
0110
0000
0000
0000
,  // measure 14
0100
0000
0000
0000
,  // measure 15
0100
0000
0000
0000
,  // measure 16
0100
0000
0000
0000
,  // measure 17
1001
1000
1000
1000
,  // measure 18
0001
0001
0001
0001
,  // measure 19
1000
1000
1000
1000
,  // measure 20
0100
0100
0010
0010
,  // measure 21
1002
0000
0000
0000
,  // measure 22
1000
0000
1000
0000
,  // measure 23
1000
0000
1003
0000
,  // measure 24
0110
0000
0000
0000
,  // measure 25
0001
1000
0001
0000
1000
0000
0100
0000
,  // measure 26
1000
0001
1000
0000
0010
0100
0010
0000
,  // measure 27
1000
0001
1000
0000
0001
0000
0010
0000
,  // measure 28
0001
1000
0001
0000
0100
0010
0100
0000
,  // measure 29
1001
0000
0001
0000
0001
0100
0001
0000
,  // measure 30
1000
0000
1000
0000
1000
0010
1000
0000
,  // measure 31
0010
0100
0010
1000
,  // measure 32
0100
0001
0010
1001
,  // measure 33
1000
0001
1000
0000
0010
0000
0010
0100
,  // measure 34
0010
1000
0001
1000
,  // measure 35
0001
1000
0001
0000
0100
0000
0100
0010
,  // measure 36
0100
0001
1000
0001
,  // measure 37
0110
0000
1001
0000
1000
0001
1000
0000
,  // measure 38
0110
0000
1001
0000
0001
1000
0001
0000
,  // measure 39
0100
0010
0100
0000
0001
0010
0001
0000
,  // measure 40
0010
1000
0100
0001
,  // measure 41
1001
0000
0000
0000
;

//---------------dance-double - ----------------
#NOTES:
     dance-double:
     :
     Easy:
     3:
     0.261,0.311,0.233,0.142,0.000:
00000000
00000000
00000000
00000000
,
00000000
00000000
00000000
00000000
,
00000000
00000000
00000000
00000000
,
00000000
00000000
00000000
00000000
,
00001001
00000000
00000010
00000000
,
00000011
00000000
00000100
00000000
,
00001001
00000000
00000100
00000000
,
00001100
00000000
00011000
00000000
,
00010000
00010000
10000000
10000000
,
01000000
01000000
00010000
00010000
,
00001000
00001000
00000100
00000100
,
00000001
00000010
00000100
00001000
,
00022000
00000000
00000000
00033000
,
00022000
00000000
00000000
00033000
,
00022000
00000000
00000000
00033000
,
00022000
00000000
00000000
00033000
,
10010000
00010000
00010000
00100000
,
00100000
01000000
01000000
10000000
,
10000000
01000000
01000000
00010000
,
00010000
00001000
00001000
00000100
,
00000102
00000000
00000000
00000000
,
00002003
00000000
00000000
00000000
,
00003020
00000000
00000000
00000030
,
00001001
00000000
00000000
00000000
,
00001001
00000010
00000001
00000010
,
00000001
00000010
00000100
00001000
,
00000100
00000100
00001000
00001000
,
00000100
00001000
00010000
00100000
,
00010000
00010000
10000000
01000000
,
10000000
00010000
00010000
10000000
,
00100000
01000000
00010000
00001000
,
00000100
00000100
00001000
00001000
,
00001001
00000010
00000001
00000010
,
00000100
00001000
00010000
00001000
,
00010000
00100000
01000000
10000000
,
01000000
00100000
00010000
00001000
,
00010000
00001000
00000100
00000010
,
00000001
00000010
00000100
00001000
,
00010000
01000000
00010000
01000000
,
00011000
00011000
00011000
00000000
,
00011000
00000000
00000000
00000000
;
