#TITLE:THEME OF ロックマンエグゼ;
#SUBTITLE:~TGS 2002 mix~;
#ARTIST:青木佳乃;
#TITLETRANSLIT:THEME OF ROCKMAN.EXE;
#SUBTITLETRANSLIT:;
#ARTISTTRANSLIT:Aoki Yoshino;
#CREDIT:DMAxel;
#BANNER:THEME OF ROCKMAN.EXE ~TGS 2002 mix~.png;
#BACKGROUND:THEME OF ROCKMAN.EXE ~TGS 2002 mix~-bg.png;
#LYRICSPATH:;
#CDTITLE:DMAxel Original Simfile.png;
#MUSIC:THEME OF ROCKMAN.EXE ~TGS 2002 mix~.mp3;
#OFFSET:0.200;
#SAMPLESTART:43.141;
#SAMPLELENGTH:12.000;
#SELECTABLE:YES;
#BPMS:0.000=141.040;
#STOPS:149.750=0.520
,282.750=0.520
;
#BGCHANGES:;

//---------------dance-single - ----------------
#NOTES:
     dance-single:
     :
     Challenge:
     8:
     0.554,0.616,0.456,0.120,0.422: // measure 1
0000
0000
0000
0000
,  // measure 2
0000
0000
0000
0000
,  // measure 3
0000
0000
0000
0000
,  // measure 4
0000
0000
0000
0000
,  // measure 5
0000
0000
0000
0000
1000
0100
1000
0100
,  // measure 6
0000
1000
0000
0000
0010
0000
0000
0000
0100
0000
0001
0000
0010
0000
0001
0000
,  // measure 7
0000
0100
0000
0000
0010
0000
0000
0000
1000
0000
0100
0000
1000
0000
0010
0000
,  // measure 8
0000
0100
0000
0000
0010
0000
0000
0000
0100
0000
0001
0000
0100
0000
0010
0000
,  // measure 9
0100
0000
0000
0100
0000
0000
0100
0000
0001
0000
0010
0000
0001
0000
0100
0000
,  // measure 10
0000
0010
0000
0000
0100
0000
0000
0000
0001
0000
1000
0000
0100
0000
1000
0000
,  // measure 11
0000
0100
0000
0000
1000
0000
0000
0000
0001
0000
0100
0000
0001
0000
0100
0000
,  // measure 12
0000
0010
0000
0000
1000
0000
0000
0000
0100
0000
1000
0000
0100
0000
1000
0000
,  // measure 13
0000
0010
0000
0000
0100
0000
0000
0000
0002
0000
0000
0000
0000
0000
0203
0000
,  // measure 14
0000
0010
0000
0000
0310
0000
0000
0000
2000
0000
0000
0000
0000
0000
3020
0000
,  // measure 15
0000
0100
0000
0000
0130
0000
0000
0000
2000
0000
0000
0000
0000
0000
3002
0000
,  // measure 16
0000
0010
0000
0000
0013
0000
0000
0000
0200
0000
0000
0000
0000
0000
0320
0000
,  // measure 17
0000
0100
0000
0000
0130
0000
0000
0000
1001
0000
0000
0000
0101
0000
1000
0010
,  // measure 18
0000
1000
0010
0000
1001
0000
0000
0000
1001
0000
0000
0000
1010
0000
0001
0100
,  // measure 19
0000
0001
0100
0000
1001
0000
0000
0000
1001
0000
0000
0000
0011
0000
1000
0100
,  // measure 20
0000
1000
0100
0000
1001
0000
0000
0000
1001
0000
0000
0000
1100
0000
0001
0010
,  // measure 21
0000
0001
0010
0000
1001
0000
0000
0000
0000
0000
0010
0000
0100
0000
0000
0101
,  // measure 22
0000
0000
1100
0000
0000
1001
0000
0000
0001
0000
0010
0000
0001
0000
0100
0010
,  // measure 23
0000
0000
0000
0000
1000
0000
0100
0000
1000
0000
0010
0000
1000
0000
0010
0100
,  // measure 24
0000
0000
0001
0100
1010
0000
0101
0000
,  // measure 25
1010
0101
1001
0000
,  // measure 26
0000
0100
0000
0000
0010
0000
0000
0100
0001
0000
0010
0000
0001
0000
0100
0010
,  // measure 27
0000
0000
0000
0000
1000
0000
0100
0000
1000
0000
0010
0000
1000
0000
0010
0100
,  // measure 28
0000
0000
0001
0010
1100
0000
0011
0000
,  // measure 29
1100
0011
2002
0000
,  // measure 30
0000
0000
0000
0000
3003
0000
0000
0000
1000
0000
0100
0000
1000
0000
0000
0001
,  // measure 31
0000
0000
0010
0000
0000
0001
0000
0000
0100
0000
0010
0000
0100
0000
0000
0010
,  // measure 32
0000
0000
1000
0000
0000
0001
0000
0000
0010
0000
0100
0000
1000
0000
0000
0010
,  // measure 33
0000
0000
0100
0000
0000
0001
0000
0000
1100
0000
0000
0000
1100
0000
0000
0000
,  // measure 34
0011
0000
0000
0000
0011
0000
0000
0000
1000
0000
0010
0000
0100
0000
0000
0010
,  // measure 35
0000
0000
0100
0000
0000
0001
0000
0000
0100
0000
0010
0000
0100
0000
0000
0010
,  // measure 36
0000
0000
1000
0000
0000
0100
0000
0000
1000
0000
0010
0000
0100
0000
0000
0001
,  // measure 37
0000
0000
0100
0000
0000
0010
0000
0000
0101
0000
0000
0000
0101
0000
0000
0000
,  // measure 38
1010
0000
1010
0000
0000
0000
1001
0010
,  // measure 39
0001
0000
0100
0010
0000
0010
0100
0000
0010
0000
0000
0000
1000
0000
0100
0000
,  // measure 40
1000
0000
0010
0100
0000
0100
0010
0000
0100
0000
0000
0000
0001
0000
0010
0000
,  // measure 41
0001
0000
0100
0010
0000
0010
0100
0000
0001
0000
0000
0000
1000
0000
0010
0000
,  // measure 42
0100
0000
0010
0000
0100
0000
0000
0100
0000
0000
0100
0000
0001
0000
0100
0000
,  // measure 43
0001
0000
0100
0010
0000
0010
0100
0000
0010
0000
0000
0000
1000
0000
0010
0000
,  // measure 44
1000
0000
0010
0100
0000
0100
0010
0000
0100
0000
0000
0000
0001
0000
0100
0000
,  // measure 45
0010
0000
1000
0001
0000
0001
1000
0000
0001
0000
0000
0000
1000
0000
0100
0000
,  // measure 46
0010
0000
0001
1000
0000
1000
0001
0000
1000
0000
0000
0000
0002
0000
0000
0000
,  // measure 47
0100
0000
0000
0010
0000
0100
0000
0000
0013
0000
0000
0000
2000
0000
0000
0000
,  // measure 48
0010
0000
0000
0100
0000
0010
0000
0000
3100
0000
0000
0000
0002
0000
0000
0000
,  // measure 49
0100
0000
0000
0010
0000
0100
0000
0000
0013
0000
0000
0000
2000
0000
0000
0000
,  // measure 50
0100
0000
0000
0010
0000
0100
0000
0000
3010
0000
0000
0000
1001
0000
0000
0000
,  // measure 51
0101
0000
1000
0010
0000
1000
0010
0000
1001
0000
0000
0000
1001
0000
0000
0000
,  // measure 52
1010
0000
0001
0100
0000
0001
0100
0000
1001
0000
0000
0000
1001
0000
0000
0000
,  // measure 53
1100
0000
0010
0001
0000
0010
0001
0000
0110
0000
0000
0000
1001
0000
0000
0000
,  // measure 54
0011
0000
0100
1000
0000
0100
1000
0000
0110
0000
0000
0000
0000
0000
0001
0000
,  // measure 55
0100
0000
0000
1010
0000
0000
0110
0000
0000
0101
0000
0000
0010
0000
0100
0000
,  // measure 56
0010
0000
0100
0001
0000
0000
0000
0000
0010
0000
0100
0000
1000
0000
0010
0000
,  // measure 57
0100
0000
0010
0100
0000
0000
0000
0000
0001
0000
0010
0000
1000
0000
0000
0000
,  // measure 58
0101
1010
0101
1001
,  // measure 59
0000
0000
0000
0000
0000
0010
0000
0000
0010
0000
0000
0010
1000
0000
0010
0000
,  // measure 60
0100
0000
0010
1000
0000
0000
0000
0000
0100
0000
0010
0000
0001
0000
0010
0000
,  // measure 61
0001
0000
1000
0010
0000
0000
0000
0000
1000
0000
0010
0000
0001
0000
0000
0000
,  // measure 62
1100
0011
1100
2002
,  // measure 63
0000
0000
0000
0000
3003
0000
0001
0010
,  // measure 64
0100
1000
0000
0100
1000
0000
0001
0010
0000
0001
0010
0000
0001
0000
1000
0000
,  // measure 65
0001
0100
0000
0001
0100
0000
0010
1000
0000
0010
1000
0000
0001
0000
1000
0000
,  // measure 66
0010
0100
0000
0010
0100
0000
0001
1000
0000
0001
1000
0000
0001
0000
0000
0000
,  // measure 67
1001
0000
1000
0000
1001
0000
0001
1000
,  // measure 68
0010
0100
0000
0010
0100
0000
0001
1000
0000
0001
1000
0000
0010
0000
1000
0000
,  // measure 69
0001
1000
0000
0001
1000
0000
0010
0100
0000
0010
0100
0000
0001
0000
0100
0000
,  // measure 70
0010
1000
0000
0010
1000
0000
0001
0100
0000
0001
0100
0000
0010
0000
0000
0000
,  // measure 71
1001
0100
1001
0000
,  // measure 72
0001
0000
0010
0000
0100
0000
1000
0100
0000
0100
1000
0000
0100
1000
0000
0000
,  // measure 73
0100
0000
0010
0000
0001
0000
0100
0001
0000
0001
0100
0000
0001
0100
0000
0000
,  // measure 74
0010
0000
0100
0000
0001
0000
0100
0010
0000
0010
0100
0000
0010
0100
0000
0000
,  // measure 75
0001
0000
1000
0000
0100
0000
1000
0000
0100
0000
0000
0100
0000
0000
0100
0000
;

//---------------dance-single - ----------------
#NOTES:
     dance-single:
     :
     Hard:
     7:
     0.455,0.504,0.314,0.187,0.052: // measure 1
0000
0000
0000
0000
,  // measure 2
0000
0000
0000
0000
,  // measure 3
0000
0000
0000
0000
,  // measure 4
0000
0000
0000
0000
,  // measure 5
0000
0000
0000
0000
0001
0010
0001
0010
,  // measure 6
0001
0100
0001
0000
1000
0100
1000
0100
,  // measure 7
1000
0010
1000
0000
0001
0100
0001
0010
,  // measure 8
0001
0010
0001
0000
1000
0010
1000
0100
,  // measure 9
1000
0000
0000
0100
0000
0000
1000
0000
0100
0000
0010
0000
0001
0000
0100
0000
,  // measure 10
0010
0100
0010
0000
1000
0010
0100
0001
,  // measure 11
0100
0010
0100
0000
0001
0010
0100
1000
,  // measure 12
0010
0100
0010
0000
1000
0010
0100
0010
,  // measure 13
0100
0001
1000
0000
0001
0000
0010
0000
,  // measure 14
0001
0001
0001
0000
0010
0000
0001
0000
,  // measure 15
1000
1000
1000
0000
0100
0000
1000
0000
,  // measure 16
0100
0100
0100
0000
1000
0000
0010
0000
,  // measure 17
0100
0100
0100
0000
0010
0000
1001
0000
,  // measure 18
0001
0001
0001
0000
0100
0000
1001
0000
,  // measure 19
1000
1000
1000
0000
0010
0000
1100
0000
,  // measure 20
0010
0010
0010
0000
0100
0000
0011
0000
,  // measure 21
0100
0100
0200
0000
0000
0000
0000
0000
,  // measure 22
0000
0000
0300
0000
0001
0010
0100
1000
,  // measure 23
0100
0000
0010
0001
0010
0100
1000
0100
,  // measure 24
0010
0000
0001
0010
0002
0000
0023
0000
,  // measure 25
0230
2300
3002
0000
,  // measure 26
0000
0103
0000
0000
0100
0000
0000
0100
0001
0000
1000
0000
0100
0000
0010
0000
,  // measure 27
0001
0000
0100
0010
1000
0100
0010
0001
,  // measure 28
0010
0000
0001
0100
1001
0000
0110
0000
,  // measure 29
1001
0110
2002
0000
,  // measure 30
0000
3003
0011
0101
,  // measure 31
0001
0010
0001
0010
1100
0000
1010
0000
,  // measure 32
1000
0100
1000
0100
0011
0000
0101
0000
,  // measure 33
0001
0010
0001
0010
1100
0000
1010
0000
,  // measure 34
1100
0000
1010
0000
0100
0001
0100
0001
,  // measure 35
1010
0000
1100
0000
0010
1000
0010
1000
,  // measure 36
0101
0000
0011
0000
0100
0010
0100
0010
,  // measure 37
1001
0000
0110
0000
0001
1000
0001
1000
,  // measure 38
0110
0000
1001
0000
0000
0000
1000
0100
,  // measure 39
1000
0010
0100
0010
0100
0000
0001
0010
,  // measure 40
0001
0100
0010
0100
0001
0000
0100
0010
,  // measure 41
1000
0100
1000
0010
0100
0000
0001
0010
,  // measure 42
0001
0000
0100
0000
0010
0000
0000
0100
0000
0000
0010
0000
0100
0000
0010
0000
,  // measure 43
0100
0010
1000
0100
0010
0000
0001
0010
,  // measure 44
0100
0010
0001
0010
0100
0000
1000
0100
,  // measure 45
0010
0100
1000
0100
0010
0000
0001
0100
,  // measure 46
0010
0100
0010
1000
0001
0000
0200
0000
,  // measure 47
0000
0320
0000
0000
0000
0000
2030
0000
,  // measure 48
0000
3200
0000
0000
0000
0000
2300
0000
,  // measure 49
0000
3002
0000
0000
0000
0000
0023
0000
,  // measure 50
0000
0000
0000
0032
,  // measure 51
0000
0203
0000
0000
0000
0000
0320
0000
,  // measure 52
0000
2030
0000
0000
0000
0000
3200
0000
,  // measure 53
0000
2300
0000
0000
0000
0000
3020
0000
,  // measure 54
0000
0000
0000
0000
0000
0000
0000
0200
,  // measure 55
0000
0000
0000
0000
0330
0000
1000
0100
,  // measure 56
1000
0000
0100
1000
0000
0000
0000
0000
0100
0000
0010
0000
0001
0000
0010
0000
,  // measure 57
0001
0000
0010
0001
0000
0000
0000
0000
1000
0000
0100
0000
0001
0000
0000
0000
,  // measure 58
1100
0011
1100
1001
,  // measure 59
0000
0000
0000
0000
0000
0100
0000
0000
0100
0000
0000
0100
0001
0000
0100
0000
,  // measure 60
0001
0000
0100
0001
0000
0000
0000
0000
0100
0000
0010
0000
1000
0000
0010
0000
,  // measure 61
1000
0000
0010
1000
0000
0000
0000
0000
0001
0000
0010
0000
1000
0000
0000
0000
,  // measure 62
0101
1010
0101
2002
,  // measure 63
0000
0000
3003
1100
,  // measure 64
0100
0000
0010
0000
0001
0010
0100
0000
,  // measure 65
1000
0000
0010
0000
0100
0001
0010
0000
,  // measure 66
0001
0000
1000
0000
0100
0010
0001
0000
,  // measure 67
1001
0000
0100
0000
1001
0000
0001
0010
,  // measure 68
0100
0000
1000
0000
0100
0000
1000
0010
,  // measure 69
0100
0000
0001
0000
0100
0000
0010
0100
,  // measure 70
0001
1000
0010
1100
,  // measure 71
0011
1100
0011
0000
,  // measure 72
0100
0000
0010
0000
1000
0000
0100
0000
0000
1000
0000
0000
0100
0000
0000
0000
,  // measure 73
1000
0000
0100
0000
0010
0000
0001
0000
0000
0100
0000
0000
0010
0000
0000
0000
,  // measure 74
0100
0000
0010
0000
1000
0000
0010
0000
0000
0100
0000
0000
0010
0000
0100
0000
,  // measure 75
0001
0000
0010
0000
0001
0000
0100
0000
0010
0000
0000
0010
0000
0000
0010
0000
;

//---------------dance-single - ----------------
#NOTES:
     dance-single:
     :
     Medium:
     5:
     0.369,0.448,0.105,0.209,0.000: // measure 1
0000
0000
0000
0000
,  // measure 2
0000
0000
0000
0000
,  // measure 3
0000
0000
0000
0000
,  // measure 4
0000
0000
0000
0000
,  // measure 5
0000
0000
0000
0000
1000
0001
1000
0000
,  // measure 6
0010
0000
0100
0000
0001
1000
0001
0000
,  // measure 7
0100
0000
0010
0000
1000
0001
1000
0000
,  // measure 8
0010
0000
0100
0000
0001
1000
0001
0100
,  // measure 9
0020
0000
0000
0000
1030
0100
1000
0000
,  // measure 10
0010
0000
0100
0000
0001
0010
0001
0000
,  // measure 11
0100
0000
0010
0000
1000
0010
1000
0000
,  // measure 12
0010
0000
0100
0000
0001
0100
0001
0000
,  // measure 13
0100
0010
0200
0000
,  // measure 14
0000
0000
0320
0000
,  // measure 15
0000
0000
2030
0000
,  // measure 16
0000
0000
3002
0000
,  // measure 17
0000
0000
0203
0000
,  // measure 18
0000
0000
0320
0000
,  // measure 19
0000
0000
2030
0000
,  // measure 20
0000
0000
3002
0000
,  // measure 21
0000
0000
0000
0000
0003
0100
0020
0000
,  // measure 22
0000
0000
0000
0000
0130
0010
1000
0100
,  // measure 23
1000
0000
0001
0010
0100
1000
0010
1000
,  // measure 24
0100
0000
1000
0010
1000
0000
0010
0000
,  // measure 25
0100
0001
2000
0000
,  // measure 26
0002
0000
3003
0000
0100
0010
0100
0010
,  // measure 27
1000
0000
0100
0010
0001
0010
0001
0100
,  // measure 28
0001
1001
0001
0010
,  // measure 29
0100
2000
0002
0000
,  // measure 30
0000
3003
0011
0011
,  // measure 31
0100
1000
0100
0000
1100
0000
1100
0000
,  // measure 32
0010
0001
0010
0000
1001
0000
1001
0000
,  // measure 33
0001
1000
0001
0000
1000
0000
0100
0000
,  // measure 34
0010
0000
0001
0000
1000
0010
1000
0000
,  // measure 35
1010
0000
1010
0000
0001
0100
0001
0000
,  // measure 36
0101
0000
0101
0000
1000
0001
1000
0000
,  // measure 37
1001
0000
1001
0000
0100
0010
0100
0010
,  // measure 38
0100
0001
1000
0100
0000
0000
0010
0001
,  // measure 39
0100
0010
1000
0100
1000
0000
0010
1000
,  // measure 40
0010
0100
0010
0100
0001
0000
0100
0001
,  // measure 41
0100
0010
1000
0010
1000
0000
0100
1000
,  // measure 42
0010
0100
0022
0000
0000
0033
0100
0010
,  // measure 43
1000
0100
1000
0100
1000
0000
0010
0100
,  // measure 44
0001
0010
0001
0010
0001
0000
0100
0010
,  // measure 45
1000
0010
1000
0010
1000
0000
0010
0100
,  // measure 46
0001
0100
0001
0100
0001
0000
0200
0000
,  // measure 47
0000
0000
0310
0020
,  // measure 48
0000
0000
1030
2000
,  // measure 49
0000
0000
3001
0002
,  // measure 50
0000
0000
0103
0200
,  // measure 51
0000
0000
0310
0020
,  // measure 52
0000
0000
1030
2000
,  // measure 53
0000
0000
3001
0002
,  // measure 54
0000
0000
0000
0000
0000
0000
0003
0100
,  // measure 55
0020
0000
0000
0000
0030
0000
1000
0100
,  // measure 56
1000
0010
1000
0000
0010
0100
0010
0100
,  // measure 57
0001
0010
0001
0000
0100
0010
1000
0000
,  // measure 58
0010
0100
0001
0020
,  // measure 59
0000
0000
0031
0000
0000
0000
1000
0100
,  // measure 60
1000
0010
0100
0000
0001
0010
0100
1000
,  // measure 61
0010
0100
0010
0000
0100
0010
1000
0000
,  // measure 62
0010
0100
0001
0020
,  // measure 63
0000
0000
0030
0001
,  // measure 64
0010
0001
0100
0010
,  // measure 65
0010
0100
0100
0010
,  // measure 66
1000
0000
0100
0000
1000
0000
0010
1000
,  // measure 67
0010
0000
0100
0001
0100
0000
0010
0000
,  // measure 68
0100
0100
0010
0100
,  // measure 69
0001
0010
0001
0100
,  // measure 70
0100
0000
0010
0000
1000
0000
0100
1000
,  // measure 71
0100
1000
0001
0010
0100
1000
0000
0000
,  // measure 72
0100
1000
0010
0100
0010
0100
0001
0000
,  // measure 73
0010
0001
0100
0010
0100
0010
1000
0000
,  // measure 74
0010
1000
0010
0100
0010
0100
0001
0000
,  // measure 75
1000
0010
0100
0001
0200
0000
0000
0300
;

//---------------dance-single - ----------------
#NOTES:
     dance-single:
     :
     Easy:
     3:
     0.257,0.306,0.082,0.142,0.000: // measure 1
0000
0000
0000
0000
,  // measure 2
0000
0000
0000
0000
,  // measure 3
0000
0000
0000
0000
,  // measure 4
0000
0000
0000
0000
,  // measure 5
0000
0000
1000
0100
,  // measure 6
1000
1000
0010
0100
,  // measure 7
0010
0010
1000
0010
,  // measure 8
1000
1000
0001
0100
,  // measure 9
0001
0000
0100
0010
,  // measure 10
0100
0100
0010
0100
,  // measure 11
0001
0001
0010
0001
,  // measure 12
0100
0100
0010
0100
,  // measure 13
0001
0001
2000
0000
,  // measure 14
0000
0000
3002
0000
,  // measure 15
0000
0000
0203
0000
,  // measure 16
0000
0000
0302
0000
,  // measure 17
0000
0003
2000
0000
,  // measure 18
0000
0000
3020
0000
,  // measure 19
0000
0000
0230
0000
,  // measure 20
0000
0000
0320
0000
,  // measure 21
0000
0000
0030
0000
,  // measure 22
0000
0000
1001
0100
,  // measure 23
0100
0010
1001
0010
,  // measure 24
0010
0100
1001
0100
,  // measure 25
1000
0100
0002
0000
,  // measure 26
0013
0000
1001
0100
,  // measure 27
0100
0010
1001
0010
,  // measure 28
0010
0100
1001
0100
,  // measure 29
0001
0100
2000
0000
,  // measure 30
0000
3000
0100
0100
,  // measure 31
0010
0010
1000
1000
,  // measure 32
0001
0001
1000
1000
,  // measure 33
0010
0010
0100
0010
,  // measure 34
0100
0010
1000
1000
,  // measure 35
0001
0001
0010
0010
,  // measure 36
0100
0100
1000
1000
,  // measure 37
0001
0001
1000
0100
,  // measure 38
0010
0001
0000
1000
,  // measure 39
1000
0010
0010
0100
,  // measure 40
0010
1000
1000
0010
,  // measure 41
0100
0001
0001
1000
,  // measure 42
0001
1001
0000
0100
,  // measure 43
0100
0010
0010
1000
,  // measure 44
0100
1000
1000
0010
,  // measure 45
0100
0010
0010
1000
,  // measure 46
0001
0100
0100
0020
,  // measure 47
0000
0000
0000
0230
,  // measure 48
0000
0000
0000
0302
,  // measure 49
0000
0000
0000
0203
,  // measure 50
0000
0000
0300
0020
,  // measure 51
0000
0000
0000
2030
,  // measure 52
0000
0000
0000
3200
,  // measure 53
0000
0000
0000
2300
,  // measure 54
0000
0000
3000
0000
,  // measure 55
0000
0000
0000
0010
,  // measure 56
0010
0100
0001
1001
,  // measure 57
0010
0010
0100
1001
,  // measure 58
0100
1000
0100
0001
,  // measure 59
0000
0200
0000
0310
,  // measure 60
0010
1000
0001
0010
,  // measure 61
0010
0001
0100
1001
,  // measure 62
0010
0001
0010
1000
,  // measure 63
0000
0000
0000
0010
,  // measure 64
0010
0010
0010
0100
,  // measure 65
0100
0100
0100
0001
,  // measure 66
0001
0001
0001
1000
,  // measure 67
0001
1000
0001
1000
,  // measure 68
1000
1000
1000
0100
,  // measure 69
0100
0100
0100
0010
,  // measure 70
0010
0010
0010
0001
,  // measure 71
1000
0001
1000
0000
,  // measure 72
1001
0010
1000
0100
,  // measure 73
1000
0100
0001
0010
,  // measure 74
0001
0100
0010
1000
,  // measure 75
0010
0100
0010
0000
;

//---------------dance-single - ----------------
#NOTES:
     dance-single:
     :
     Beginner:
     2:
     0.105,0.139,0.067,0.000,0.000: // measure 1
0000
0000
0000
0000
,  // measure 2
0000
0000
0000
0000
,  // measure 3
0000
0000
0000
0000
,  // measure 4
0000
0000
0000
0000
,  // measure 5
0000
0000
1001
0000
,  // measure 6
0000
0000
1000
0000
,  // measure 7
0000
0000
0100
0000
,  // measure 8
0000
0000
1000
0000
,  // measure 9
1001
0000
0010
0000
,  // measure 10
0000
0000
0100
0000
,  // measure 11
0000
0000
0001
0000
,  // measure 12
0000
0000
1000
0000
,  // measure 13
0000
0000
0001
0000
,  // measure 14
0000
0000
0010
0000
,  // measure 15
0000
0000
0100
0000
,  // measure 16
0000
0000
1000
0000
,  // measure 17
0000
0000
1000
0000
,  // measure 18
0000
0000
0100
0000
,  // measure 19
0000
0000
0010
0000
,  // measure 20
0000
0000
0001
0000
,  // measure 21
0000
0000
0000
0000
,  // measure 22
0000
0000
1001
0000
,  // measure 23
0000
0001
0001
0000
,  // measure 24
0000
0100
0100
0000
,  // measure 25
0010
0000
1001
0000
,  // measure 26
0100
0000
0010
0000
,  // measure 27
0000
1000
1000
0000
,  // measure 28
0000
0001
0001
0000
,  // measure 29
0010
0000
0001
0000
,  // measure 30
0000
0000
1000
0000
,  // measure 31
0000
0000
1000
0000
,  // measure 32
0000
0000
0010
0000
,  // measure 33
0000
0000
0010
0000
,  // measure 34
0010
0000
0100
0000
,  // measure 35
0000
0000
0100
0000
,  // measure 36
0000
0000
0001
0000
,  // measure 37
0000
0000
0001
0000
,  // measure 38
1000
0000
0000
1001
,  // measure 39
0000
0000
0000
1000
,  // measure 40
0000
0000
0000
0100
,  // measure 41
0000
0000
0000
1000
,  // measure 42
0000
0001
0000
0100
,  // measure 43
0000
0000
0000
0010
,  // measure 44
0000
0000
0000
1000
,  // measure 45
0000
0000
0000
0001
,  // measure 46
0000
0000
0000
1000
,  // measure 47
0000
0000
0000
0100
,  // measure 48
0000
0000
0000
0010
,  // measure 49
0000
0000
0000
0001
,  // measure 50
0000
0000
0000
0001
,  // measure 51
0000
0000
0000
0010
,  // measure 52
0000
0000
0000
0100
,  // measure 53
0000
0000
0000
1000
,  // measure 54
0000
0000
0000
0000
,  // measure 55
0000
0000
0000
1001
,  // measure 56
0000
0000
1000
1000
,  // measure 57
0000
0000
0001
0001
,  // measure 58
0000
0100
0000
0010
,  // measure 59
0000
1001
0000
0100
,  // measure 60
0000
0000
0010
0010
,  // measure 61
0000
0000
1000
1000
,  // measure 62
0000
0010
0000
1001
,  // measure 63
0000
0000
0000
0100
,  // measure 64
0000
0000
0000
0100
,  // measure 65
0000
0000
0000
0010
,  // measure 66
0000
0000
0000
0010
,  // measure 67
0000
0010
0000
1000
,  // measure 68
0000
0000
0000
1000
,  // measure 69
0000
0000
0000
0010
,  // measure 70
0000
0000
0000
0100
,  // measure 71
0000
0001
0000
0000
,  // measure 72
1001
0000
0000
0000
,  // measure 73
0010
0000
0000
0000
,  // measure 74
0100
0000
0000
0000
,  // measure 75
0001
0000
1000
0000
;
