#TITLE:天上の星;
#SUBTITLE:~黎明記~;
#ARTIST:TЁЯRA;
#TITLETRANSLIT:TENJOU NO HOSHI;
#SUBTITLETRANSLIT:~REIMEIKI~;
#ARTISTTRANSLIT:TERRA;
#CREDIT:DMAxel;
#BANNER:TENJOU NO HOSHI ~REIMEIKI~.png;
#BACKGROUND:TENJOU NO HOSHI ~REIMEIKI~-bg.png;
#LYRICSPATH:TENJOU NO HOSHI ~REIMEIKI~.lrc;
#CDTITLE:pop'n music.png;
#MUSIC:TENJOU NO HOSHI ~REIMEIKI~.mp3;
#OFFSET:-13.120;
#SAMPLESTART:29.148;
#SAMPLELENGTH:12.000;
#SELECTABLE:YES;
#BPMS:0.000=85.000,24.000=170.000,124.000=85.000,140.000=170.000,204.000=85.000;
#STOPS:;
#BGCHANGES:;

//---------------dance-single - ----------------
#NOTES:
     dance-single:
     :
     Easy:
     3:
     0.234,0.243,0.085,0.000,0.000: // measure 1
1000
0100
0010
0001
,  // measure 2
1000
0100
0010
0001
,  // measure 3
1000
0001
1000
0001
,  // measure 4
0010
0100
1000
0010
,  // measure 5
0110
0000
0101
0000
,  // measure 6
0110
0000
1010
0000
,  // measure 7
1001
1000
1000
0010
,  // measure 8
1000
0000
0001
0010
,  // measure 9
0001
0000
0100
0010
,  // measure 10
0100
0000
0001
0010
,  // measure 11
0100
0000
1000
0100
,  // measure 12
0010
0000
0001
1000
,  // measure 13
0001
0001
0001
0100
,  // measure 14
0001
0000
1000
0100
,  // measure 15
1000
0000
0010
0100
,  // measure 16
0010
0000
1000
0010
,  // measure 17
1000
0000
0100
0010
,  // measure 18
0001
0000
1000
0001
,  // measure 19
1000
0000
0010
0100
,  // measure 20
0001
0000
0010
0001
,  // measure 21
0010
0000
0001
1000
,  // measure 22
0001
0000
0010
0100
,  // measure 23
1000
0000
1000
0000
,  // measure 24
0001
0000
0001
0000
,  // measure 25
1000
0000
1000
0000
,  // measure 26
0001
0000
0001
0000
,  // measure 27
0100
0000
0100
0000
,  // measure 28
0010
0000
0010
0000
,  // measure 29
0100
0000
0100
0000
,  // measure 30
0010
0000
0010
0000
,  // measure 31
0000
0000
0000
0000
,  // measure 32
1001
0001
0010
0100
,  // measure 33
1000
0010
1000
0100
,  // measure 34
0001
1000
0100
0001
,  // measure 35
0010
0001
1000
0000
,  // measure 36
1001
0001
0001
0010
,  // measure 37
0001
0000
1000
0010
,  // measure 38
1000
0000
0010
0100
,  // measure 39
0010
1000
0010
1000
,  // measure 40
0010
0000
1000
0001
,  // measure 41
1000
0001
1000
0010
,  // measure 42
0100
0000
0010
0100
,  // measure 43
0001
0100
0001
0000
,  // measure 44
1000
0100
1000
0100
,  // measure 45
1000
0001
1000
0001
,  // measure 46
0010
0001
0010
0001
,  // measure 47
0100
0001
0100
0010
,  // measure 48
1000
0010
1000
0010
,  // measure 49
0100
0010
0100
0010
,  // measure 50
1000
0001
1000
0001
,  // measure 51
1000
0100
0010
0001
,  // measure 52
1001
0010
0010
1001
0000
0000
0000
0000
;

//---------------dance-single - ----------------
#NOTES:
     dance-single:
     :
     Medium:
     6:
     0.368,0.413,0.170,0.000,0.057: // measure 1
0001
0010
0100
1000
0001
0010
0100
0000
,  // measure 2
1000
0100
0010
0001
1000
0100
0010
0000
,  // measure 3
0001
0010
0100
1000
0001
0010
0100
0000
,  // measure 4
1000
0100
0010
0001
1000
0100
0010
0000
,  // measure 5
0011
0000
0000
0001
0000
0000
0001
0000
1100
0000
0000
0000
1000
0000
0000
0000
,  // measure 6
0101
0000
0000
0001
0000
0000
0001
0000
1010
0000
0000
0000
0000
0000
0000
0000
,  // measure 7
1001
1000
0010
0100
,  // measure 8
0010
1000
0100
1000
,  // measure 9
0100
0010
0001
1000
,  // measure 10
0010
0000
0100
0000
0001
1000
0001
0000
,  // measure 11
0011
0000
0001
0000
1000
0001
1000
0000
,  // measure 12
1100
1000
0010
0100
,  // measure 13
0010
1000
0100
0001
,  // measure 14
0100
0000
1000
0000
0001
1000
0001
0000
,  // measure 15
0011
0001
0100
0010
,  // measure 16
0100
0001
0100
0010
,  // measure 17
0100
0001
0010
0100
,  // measure 18
1000
0000
0010
0000
1000
0001
1000
0000
,  // measure 19
1100
1000
0100
0010
,  // measure 20
0011
0001
0100
0010
,  // measure 21
1010
1000
0001
0100
,  // measure 22
0010
0000
0000
0000
,  // measure 23
1001
0000
0000
0001
0100
0000
0100
0000
,  // measure 24
0010
0000
1000
0010
,  // measure 25
0001
0000
0000
1000
0010
0000
0010
0000
,  // measure 26
0100
0000
0001
0100
,  // measure 27
1000
0000
0000
0001
0010
0000
0100
0000
,  // measure 28
0100
0000
1000
0100
,  // measure 29
0001
0000
0000
1000
0100
0000
0010
0000
,  // measure 30
0010
0000
0000
0000
0001
1000
0001
1000
,  // measure 31
0001
0001
0000
0010
0000
0000
0000
0000
,  // measure 32
1001
0000
0000
1000
0010
0000
0000
0010
1000
0000
0000
0001
0100
0000
0001
0000
,  // measure 33
0001
0000
0000
1000
0000
0000
0100
0000
1000
0000
0000
0001
0000
0010
0100
0000
,  // measure 34
1001
0000
0000
1000
0000
0100
0010
0000
1001
0000
0000
0000
0001
0000
0010
0000
,  // measure 35
1000
0000
0000
1000
0000
0000
0001
0000
0010
0000
0000
0000
0000
0000
0000
0000
,  // measure 36
1001
0000
1000
0010
1000
0000
0010
0100
,  // measure 37
0001
0000
0100
0010
0100
0000
0001
0100
,  // measure 38
0001
0000
0010
0000
0100
0000
1000
0010
,  // measure 39
0100
0000
0010
0100
0001
1000
0001
0000
,  // measure 40
0011
0000
0001
0000
1000
0000
1000
0010
,  // measure 41
0100
0000
0001
0000
0001
0100
0010
0000
,  // measure 42
1000
0000
0001
0000
0010
0000
0100
1000
,  // measure 43
0100
0000
1000
0001
1000
0000
0000
0000
,  // measure 44
0001
0000
0100
0010
0100
0000
0001
0010
,  // measure 45
0001
0000
0100
0010
0100
0000
0010
1000
,  // measure 46
0010
0000
1000
0100
0010
0000
0001
0000
,  // measure 47
1000
0000
0010
0100
0010
0000
1000
0100
,  // measure 48
1000
0000
0010
0100
0010
0000
0100
0001
,  // measure 49
0100
0000
0001
0010
0100
0000
1000
0000
,  // measure 50
0010
0000
0100
0010
0100
0000
0001
0010
,  // measure 51
0001
0000
0001
0000
0001
0010
0100
1000
,  // measure 52
0010
0000
0100
0100
0100
0000
1001
0000
0000
0000
0000
0000
0000
0000
0000
0000
;

//---------------dance-single - ----------------
#NOTES:
     dance-single:
     :
     Hard:
     8:
     0.504,0.559,0.426,0.047,0.142: // measure 1
1000
0000
1000
0100
1000
0000
0001
0000
1000
0000
0100
0000
0010
0001
0010
0000
,  // measure 2
1001
0000
0001
0010
0001
0000
1000
0000
0001
0000
0010
0000
0100
1000
0100
0000
,  // measure 3
1001
0000
1000
0010
1000
0000
0001
0000
1000
0000
0100
0000
0010
0001
0010
0000
,  // measure 4
1001
0000
0001
0100
0001
0000
1000
0000
0001
0000
0010
0000
0100
0000
0100
0000
,  // measure 5
1000
0010
0000
1000
0100
0000
0010
0000
0011
0000
0010
0000
0010
0000
0010
0000
,  // measure 6
0001
0100
0000
0001
0010
0000
0100
0000
1100
0000
0000
0000
0000
0000
0000
0000
,  // measure 7
1001
0000
0101
0000
1001
0000
0100
0010
,  // measure 8
1000
0000
0010
1000
0100
0000
0001
0000
,  // measure 9
1001
0000
0001
0100
0001
0000
0100
0001
,  // measure 10
1000
0001
0100
1000
0001
0010
0100
1000
,  // measure 11
1001
0000
1010
0000
1000
0100
0010
0001
,  // measure 12
1001
0000
0101
0000
0100
0001
1000
0000
,  // measure 13
0200
1000
2300
0001
,  // measure 14
3001
0010
0100
1000
0100
0010
0100
1000
,  // measure 15
1001
0000
0101
0000
1001
0000
0100
0001
,  // measure 16
1000
0000
0010
1000
0001
0000
0010
0100
,  // measure 17
1000
0000
0010
1000
0010
0000
0100
0001
,  // measure 18
1000
0000
1000
0000
0001
0010
0100
1000
,  // measure 19
1002
0010
0013
0011
,  // measure 20
1001
1010
1001
1010
,  // measure 21
1001
0000
0001
0100
0010
0000
1000
0100
,  // measure 22
0020
0000
0000
0030
,  // measure 23
0001
1000
0000
0010
1000
0100
1000
0100
,  // measure 24
1100
0000
0010
0010
,  // measure 25
1000
0001
0000
0100
0001
0010
0001
0010
,  // measure 26
0011
0000
0100
0100
,  // measure 27
1001
0000
1000
0100
0010
0001
1000
0100
,  // measure 28
0110
0001
1001
0010
,  // measure 29
1001
0000
0001
0010
0100
1000
0001
0010
,  // measure 30
0110
0000
1000
0001
0010
0001
0010
0001
,  // measure 31
1000
1000
0000
0010
0100
0000
0000
0000
,  // measure 32
1001
0000
0010
1000
0001
0000
0100
0000
1010
0000
0100
0000
1010
0000
0001
0000
,  // measure 33
1001
0000
0000
0001
0000
0000
1000
0000
0001
0000
0000
1000
0000
0001
0010
0001
,  // measure 34
1100
0000
0000
0001
0000
1000
0100
1000
0011
0000
0000
0000
0011
0000
0100
0000
,  // measure 35
1010
0000
1100
0010
0101
0000
0000
0000
,  // measure 36
0010
1000
0100
1000
0010
1000
0001
0010
,  // measure 37
0100
0000
0010
0100
1000
0000
0001
0100
,  // measure 38
0010
0000
0100
0010
0100
0001
1000
0000
,  // measure 39
1010
0000
0001
1000
0100
0010
0001
1000
,  // measure 40
1001
0000
0000
1000
0000
0000
1000
0000
0001
0000
0000
0001
0000
0000
0001
0000
,  // measure 41
0100
0010
0100
0001
0010
0100
1000
0000
,  // measure 42
1001
0000
0010
0100
0010
1000
0001
0100
,  // measure 43
2000
0000
0000
3000
,  // measure 44
0001
0000
0000
0001
0000
0000
0100
0000
0010
0000
0000
0010
0000
0000
1000
0000
,  // measure 45
0100
0010
0000
0100
0010
0001
1000
0100
,  // measure 46
1000
0000
0000
1000
0000
0000
0010
0000
0100
0000
0000
0100
0000
0000
0001
0000
,  // measure 47
1000
0100
1000
0000
0001
0100
0010
0100
,  // measure 48
0001
0000
0000
0001
0000
0000
0010
0000
0100
0000
0000
0100
0000
0000
1000
0000
,  // measure 49
0100
0010
0000
0100
0010
0001
1000
0100
,  // measure 50
1000
0000
0000
1000
0000
0000
0100
0000
0010
0000
0000
0010
0000
0000
0001
0000
,  // measure 51
0010
0100
1000
0001
0010
0100
0010
0001
,  // measure 52
1001
0000
0100
0100
0100
0000
1001
0000
0000
0000
0000
0000
0000
0000
0000
0000
;

//---------------dance-single - ----------------
#NOTES:
     dance-single:
     :
     Challenge:
     9:
     0.582,0.656,0.359,0.151,0.260: // measure 1
0100
0000
0100
0001
0100
0000
0001
0000
1000
0000
0010
1000
0010
1000
0100
0010
,  // measure 2
1001
0000
0010
1000
0010
0000
1000
0000
0001
0000
0100
0001
0100
0001
0010
0100
,  // measure 3
1001
0000
0001
0100
0001
0000
1000
0000
0100
0000
0010
0100
0010
0001
0010
0100
,  // measure 4
1001
0000
1000
0010
1000
0000
0001
0000
0010
0000
0100
0010
0100
1000
0100
0000
,  // measure 5
1000
0001
0000
0001
0100
0000
0110
0000
0100
0010
0100
0010
0100
0010
0100
0000
,  // measure 6
0001
1000
0000
1000
0100
0000
0110
0000
1001
0000
0000
0000
0100
0000
0100
0000
,  // measure 7
1001
0000
1000
0001
0100
0001
1000
0100
,  // measure 8
0010
0000
0100
0010
0001
0000
0101
0000
,  // measure 9
1001
0000
0001
1000
0010
1000
0001
0010
,  // measure 10
0100
1000
0010
0001
1000
0100
0010
0001
,  // measure 11
1001
0000
1100
0000
0001
0010
0100
1000
,  // measure 12
1001
0000
0011
0000
0001
1000
0010
0000
,  // measure 13
1000
0100
0010
0001
1000
0010
0100
0001
,  // measure 14
1000
0100
0001
0100
1000
0100
0010
0001
,  // measure 15
1001
0000
0001
1000
0010
1000
0001
0010
,  // measure 16
0100
0000
0010
0100
1000
0000
1010
0000
,  // measure 17
1001
0000
1000
0001
0100
0001
1001
0000
,  // measure 18
1001
0000
0001
1000
0001
0010
0100
1000
,  // measure 19
2001
0000
0000
0001
0000
0000
3001
0000
0020
0000
0000
0001
0000
0000
0031
0000
,  // measure 20
1000
0100
0010
0000
0100
0010
0001
0000
,  // measure 21
1001
0000
0001
1000
0010
0000
0100
0001
,  // measure 22
1000
0100
0010
0001
1000
0100
0001
0100
,  // measure 23
1000
1000
0001
0010
0100
0010
0001
0100
,  // measure 24
0210
0000
0001
0301
,  // measure 25
0001
0001
1000
0100
0010
0100
1000
0010
,  // measure 26
0120
0000
1000
1030
,  // measure 27
0001
0001
1000
0100
0010
0001
1000
0010
,  // measure 28
0110
0001
1100
0100
,  // measure 29
1000
1000
0001
0010
0100
1000
0001
0100
,  // measure 30
0110
0000
0001
1000
0010
1000
0010
1000
,  // measure 31
0100
0001
0000
0100
0010
0000
1000
0000
,  // measure 32
1000
0000
0001
0010
0100
0000
0010
0000
1001
0000
1000
0000
0110
0000
0001
0000
,  // measure 33
1001
0000
0000
0100
0000
0000
0010
0000
0110
0000
0000
0001
0000
0001
0010
0100
,  // measure 34
0110
0000
0000
1000
0000
1000
0100
0010
0110
0000
0000
0000
0101
0000
0100
0000
,  // measure 35
1001
0000
0000
0000
1010
0000
0010
0000
1001
0000
0000
1000
0000
0001
0010
0100
,  // measure 36
1000
0000
0000
0001
0010
0000
0001
0000
1000
0000
0010
0000
1000
0000
0001
0010
,  // measure 37
0001
0000
0000
0000
1000
0000
0001
0010
0001
0000
1000
0000
0010
0000
1000
0000
,  // measure 38
1000
0001
0010
0001
1000
0010
0100
0001
,  // measure 39
2000
0000
0000
0010
0000
0000
3010
0000
0200
0000
0000
0001
0000
0000
0301
0000
,  // measure 40
1002
0000
0000
1000
0000
0000
1003
0000
0200
0000
0000
1000
0000
0000
1300
0000
,  // measure 41
0001
0010
1000
0010
0001
0100
0010
1000
,  // measure 42
0100
0000
0010
0001
0010
0100
1000
0002
,  // measure 43
2000
0000
0000
3003
,  // measure 44
0001
0000
0000
1000
0100
0000
1000
0000
0001
0000
0100
0000
0001
0000
1000
0100
,  // measure 45
1000
0000
0000
0000
0001
0000
1000
0100
1000
0000
0001
0000
0100
0000
0001
0000
,  // measure 46
0200
0000
0000
0001
0000
0000
0301
0000
2000
0000
0000
0010
0000
0000
3010
0000
,  // measure 47
0002
0000
0000
1000
0000
0000
1000
0000
1003
0000
0100
0000
0001
0000
0010
0000
,  // measure 48
0100
0000
0000
1000
0100
0000
1000
0000
0001
0000
0100
0000
0001
0000
1000
0100
,  // measure 49
1000
0000
0000
0000
0001
0000
1000
0100
1000
0000
0001
0000
0100
0000
0001
0000
,  // measure 50
2000
0000
0000
0010
0000
0000
3010
0000
0200
0000
0000
0001
0000
0000
0301
0000
,  // measure 51
2000
0000
0000
0001
0000
0000
3001
0000
0010
0000
0001
0000
1000
0000
0010
0000
,  // measure 52
0110
0000
0001
0100
1000
0000
1001
0000
0000
0000
0000
0000
0000
0000
0000
0000
;

//---------------dance-single - ----------------
#NOTES:
     dance-single:
     :
     Beginner:
     1:
     0.076,0.096,0.066,0.000,0.000: // measure 1
0001
0000
0000
0000
,  // measure 2
0001
0000
0000
0000
,  // measure 3
1000
0000
0000
0000
,  // measure 4
1000
0000
0000
0000
,  // measure 5
0010
0000
0000
0000
,  // measure 6
0100
0000
0000
0000
,  // measure 7
0010
0000
0000
0000
,  // measure 8
0010
0000
0000
0000
,  // measure 9
0100
0000
0000
0000
,  // measure 10
0100
0000
0000
0000
,  // measure 11
0001
0000
0000
0000
,  // measure 12
0001
0000
0000
0000
,  // measure 13
1000
0000
0000
0000
,  // measure 14
1000
0000
0000
0000
,  // measure 15
1001
0000
0000
0000
,  // measure 16
0010
0000
0000
0000
,  // measure 17
0010
0000
0000
0000
,  // measure 18
0000
0000
0001
0000
,  // measure 19
0000
0000
0000
0000
,  // measure 20
1000
0000
0000
0000
,  // measure 21
0001
0000
0000
0000
,  // measure 22
0000
0000
0000
0000
,  // measure 23
1001
0000
0000
0000
,  // measure 24
0000
0000
0000
0000
,  // measure 25
1001
0000
0000
0000
,  // measure 26
0000
0000
0000
0000
,  // measure 27
1001
0000
0000
0000
,  // measure 28
0000
0000
0000
0000
,  // measure 29
1001
0000
0000
0000
,  // measure 30
0000
0000
0000
0000
,  // measure 31
0000
0000
0000
0000
,  // measure 32
1000
0000
1000
0000
,  // measure 33
0000
0000
1000
0000
,  // measure 34
0000
0000
0001
0000
,  // measure 35
0000
0000
0001
0000
,  // measure 36
1001
0000
0000
0000
,  // measure 37
0001
0000
0000
0000
,  // measure 38
0001
0000
0000
0000
,  // measure 39
1000
0000
0000
0000
,  // measure 40
0010
0000
0000
0000
,  // measure 41
1000
0000
0000
0000
,  // measure 42
0001
0000
0000
0000
,  // measure 43
0100
0000
0000
0000
,  // measure 44
1001
0000
0000
0000
,  // measure 45
0001
0000
1000
0000
,  // measure 46
0001
0000
0000
0000
,  // measure 47
1000
0000
0001
0000
,  // measure 48
1000
0000
0000
0000
,  // measure 49
0010
0000
0100
0000
,  // measure 50
0010
0000
0000
0000
,  // measure 51
0100
0000
0000
0000
,  // measure 52
0010
0000
0000
0000
;
