#TITLE:ターゲット;
#SUBTITLE:~赤い衝撃~;
#ARTIST:和田光司;
#TITLETRANSLIT:TARGET;
#SUBTITLETRANSLIT:~AKAI SHOUGEKI~;
#ARTISTTRANSLIT:WADA KOUJI;
#CREDIT:DMAxel;
#BANNER:TARGET ~AKAI SHOUGEKI~.png;
#BACKGROUND:TARGET ~AKAI SHOUGEKI~-bg.png;
#LYRICSPATH:TARGET ~AKAI SHOUGEKI~.lrc;
#CDTITLE:DMAxel original simfile.png;
#MUSIC:TARGET ~AKAI SHOUGEKI~.mp3;
#OFFSET:-6.520;
#SAMPLESTART:52.444;
#SAMPLELENGTH:12.000;
#SELECTABLE:YES;
#BPMS:0.000=160.080;
#STOPS:119.000=1.124
;
#BGCHANGES:-16.000=TARGET ~AKAI SHOUGEKI~.avi=1.000=1=1=0,
99999=-nosongbg-=1.000=0=0=0 // don't automatically add -songbackground-
;

//---------------dance-single - ----------------
#NOTES:
     dance-single:
     :
     Easy:
     3:
     0.225,0.256,0.086,0.118,0.000: // measure 1
0000
0000
0000
0000
,  // measure 2
0000
0001
0000
1000
,  // measure 3
0000
0001
0000
1000
,  // measure 4
0000
0100
0000
0010
,  // measure 5
0000
0001
1000
1000
,  // measure 6
0001
0000
0100
0000
,  // measure 7
0010
0000
1000
0000
,  // measure 8
0100
0000
0010
0000
,  // measure 9
0001
0000
1000
0000
,  // measure 10
0001
0000
0001
0000
,  // measure 11
1000
0000
1000
0000
,  // measure 12
0100
0000
0010
0000
,  // measure 13
0001
0000
1000
0000
,  // measure 14
1001
0000
1000
0000
,  // measure 15
0001
0000
1000
0000
,  // measure 16
0100
0000
0010
0000
,  // measure 17
0001
0000
1000
0000
,  // measure 18
0001
0000
0100
0000
,  // measure 19
0010
0000
1000
0000
,  // measure 20
0002
0000
0000
1000
,  // measure 21
0000
0000
1003
0000
,  // measure 22
1000
0000
0000
0001
0000
0000
0000
0000
,  // measure 23
0100
0010
0100
0000
,  // measure 24
0001
0000
0000
1000
0000
0000
0000
0000
,  // measure 25
0010
0100
0010
0000
,  // measure 26
1000
0100
1000
0000
,  // measure 27
0001
0100
0001
0000
,  // measure 28
1001
0000
0000
1000
0000
0000
0001
0000
,  // measure 29
0000
1000
0000
0000
0200
0000
0000
0000
,  // measure 30
1300
0000
0000
0001
0000
0000
1000
0000
,  // measure 31
0000
0010
0100
0010
,  // measure 32
0000
0010
0000
0000
1000
0000
0000
0000
,  // measure 33
0010
1000
0001
1000
,  // measure 34
0000
1000
0000
0000
0001
0000
0000
0000
,  // measure 35
0100
0001
1000
0001
,  // measure 36
0000
0001
0000
0000
1000
0000
0000
0000
,  // measure 37
0100
1000
0001
1000
,  // measure 38
0000
2000
0000
0000
0001
0000
0000
0000
,  // measure 39
3000
0010
0100
0010
,  // measure 40
0000
0010
0000
0000
0100
0000
0010
0000
,  // measure 41
0100
0001
1000
0001
,  // measure 42
0000
0001
0000
0000
0100
0000
0010
0000
,  // measure 43
0100
0001
1000
0001
,  // measure 44
0000
1001
0000
0000
0010
0000
0100
0000
,  // measure 45
0010
1000
0001
1000
,  // measure 46
0000
2002
0000
0000
0000
0000
0000
0000
,  // measure 47
3003
0000
0010
0000
0000
0110
0000
0000
,  // measure 48
1000
0002
0000
1003
,  // measure 49
0000
0020
0000
0000
0000
0000
1030
0000
,  // measure 50
0000
0002
0000
0000
0000
2003
0000
0000
,  // measure 51
3001
0100
0001
1000
,  // measure 52
0000
1001
0000
0000
0000
1001
0000
0000
,  // measure 53
0000
2002
0000
0000
0000
0000
0000
0000
,  // measure 54
0000
3003
0000
0000
0000
0000
0000
0000
;

//---------------dance-single - ----------------
#NOTES:
     dance-single:
     :
     Hard:
     7:
     0.518,0.492,0.322,0.204,0.000:
0000
0000
0000
0000
0000
0000
0001
2000
,
0000
0000
0100
0000
3100
1000
0001
0200
,
0000
0000
0001
0000
0301
0010
0100
2000
,
0000
0000
3001
0100
0001
1000
0100
0010
,
0000
0001
0100
0001
1001
0000
1001
0000
,
1100
0000
0001
0100
0010
0000
0100
0010
,
0100
0000
0010
1000
0001
0000
0010
0100
,
1000
0000
1010
0000
0001
0010
0001
0000
,
1001
0000
1000
0001
0000
0001
0100
0010
,
1000
0000
1000
0010
0100
0000
0010
0100
,
0010
0000
0100
0001
1000
0000
0100
0010
,
0001
1000
0100
0020
0000
0000
0001
0031
,
0000
1000
0000
0010
1000
0010
1000
1000
,
0001
0000
1000
0010
0100
0000
0001
0100
,
0001
0000
0010
0100
1000
0000
0010
1000
,
0001
0000
0011
0000
0100
1000
0010
0000
,
0100
0001
0100
0001
1000
0100
1000
0000
,
1001
0000
0001
0100
0010
0000
1000
0010
,
1000
0001
0010
0100
0000
1000
0001
0000
,
0010
0100
1000
0020
0000
0000
1000
1030
,
0000
0001
0000
0100
0001
0100
0001
0001
,
1000
0000
0010
2000
0000
0000
0001
0000
,
3001
0000
1000
0100
0010
0001
1000
0000
,
1001
0000
0100
0002
0000
0000
1000
0000
,
1003
0000
0001
0010
0100
1000
0001
0000
,
0100
0001
0100
0001
1000
0100
1000
0000
,
0100
1000
0100
1000
0001
0100
0010
1000
,
1010
0000
0000
0011
0000
0000
1100
0000
,
0000
0101
0000
0000
0010
1000
0001
0001
,
1001
0000
0000
0110
0000
0000
1001
0000
,
1001
0000
1100
0000
1100
0000
0010
0001
,
1000
0020
0000
1000
1030
0000
1000
0001
,
0100
0001
0100
0000
1001
0000
0100
1000
,
0000
0020
0000
1000
1030
0000
1000
0100
,
0010
0001
0100
0000
1100
0000
0010
0001
,
0010
2000
0000
0001
3001
0000
0001
0010
,
0100
1000
0100
0001
0100
1000
0100
0010
,
0000
0201
0000
0000
0001
0000
0000
0301
,
0000
1000
0010
0000
1001
0000
0100
1000
,
0100
0002
0000
1000
1003
0000
1000
0100
,
0010
0001
0100
0000
0101
0000
0010
0100
,
0000
0002
0000
0000
1000
0000
1003
0010
,
0100
0001
1000
0000
1001
0000
0010
0001
,
0010
2000
0000
0001
3001
0000
0001
0010
,
0100
1000
0010
0100
0010
1000
0100
0010
,
0000
0102
0000
0000
1000
0000
1000
0000
,
1003
0000
1001
0100
0010
1001
0100
0010
,
0001
0100
2000
0000
0100
0000
3001
0010
,
0100
2000
0000
0000
0001
0000
3001
0100
,
0010
1000
0000
0100
0010
0001
1000
0100
,
0010
0001
0000
0100
0010
1000
0001
1000
,
1000
1100
0000
0000
0000
0101
0000
0000
,
0000
2002
0000
0000
0000
0000
0000
0000
,
0000
0000
0000
0000
,
3003
0000
0000
0000
;

//---------------dance-single - ----------------
#NOTES:
     dance-single:
     :
     Medium:
     5:
     0.391,0.405,0.279,0.161,0.000:
0000
0000
0000
0000
0000
0000
0000
0002
,
0000
0000
1000
0000
1003
0000
0000
0020
,
0000
0000
0100
0000
0130
0000
0000
0002
,
0000
1000
1003
0100
,
0010
0001
1001
1001
,
0100
1000
0100
1000
,
0001
1000
0001
1000
,
0001
0100
0001
0100
,
0010
0100
0010
0100
,
0010
1000
0010
1000
,
0001
0010
0001
0010
,
0002
0000
0000
1003
0000
0000
0010
0100
,
0000
0010
0000
0000
1000
0000
0001
1000
,
0001
0010
0100
1000
,
0010
1000
0010
1000
,
0100
0010
0001
1000
,
0010
1000
0010
1000
,
0001
0100
0001
0100
,
0010
0100
0010
0100
,
0001
0000
0100
0010
0000
0000
0000
1000
,
0000
0001
0000
0000
0100
0010
0100
0000
,
0110
0000
0000
0001
0000
0000
1000
0000
,
0100
1000
1100
0101
,
0110
0000
0000
1000
0000
0000
0001
0000
,
0100
0001
0101
1100
,
0110
0001
0010
0100
,
1001
0100
0010
0001
,
1000
0000
0000
1001
0000
0000
0001
0000
,
0000
1001
0000
0000
1000
0001
1000
0000
,
0010
0000
0000
0110
0000
0000
0110
0000
,
0000
1001
1001
0001
,
1000
0020
0000
0000
1030
0000
1000
0001
,
1000
0000
0110
0000
0001
0000
1000
0010
,
0000
0200
0000
0000
0301
0000
0001
1000
,
0001
0000
0110
0000
1000
0000
0001
0100
,
0001
2000
0000
0000
3001
0000
0001
1000
,
0001
0000
1000
0100
1000
0000
0001
0100
,
0000
1001
0000
0000
0000
0000
0000
1000
,
0000
0001
0100
0000
0110
0000
1000
0100
,
1000
0002
0000
0000
1003
0000
0010
1000
,
0000
0000
0001
0000
0101
0000
1000
0100
,
0000
2000
0000
0000
3001
0000
0100
0001
,
1000
0100
1000
0000
1100
0000
0001
0100
,
0001
2000
0000
0000
3001
0000
0100
0001
,
1000
0000
0010
0100
0010
0100
0010
1000
,
0000
2002
0000
0000
0000
0000
0000
0000
,
3003
0000
0001
0010
0100
1000
0001
0010
,
0100
1000
0001
0000
0100
0000
0001
1000
,
0100
0001
0000
0000
0100
0000
1000
0001
,
0100
2000
0000
0000
3100
0000
0001
0000
,
1000
0100
1000
0000
0001
0100
0001
1000
,
0001
1001
0000
0000
0000
0110
0000
0000
,
0000
2002
0000
0000
0000
0000
0000
0000
,
0000
0000
0000
0000
,
3003
0000
0000
0000
;

//---------------dance-single - ----------------
#NOTES:
     dance-single:
     :
     Beginner:
     1:
     0.103,0.112,0.097,0.000,0.000:
0000
0000
0000
0000
,
0000
1000
0000
0000
,
0000
1000
0000
0000
,
0000
0001
0000
0000
,
0000
0000
0000
0000
,
0001
0000
0000
0000
,
1000
0000
0000
0000
,
0001
0000
0000
0000
,
0000
0000
0000
0000
,
1000
0000
0000
0000
,
0001
0000
0000
0000
,
1000
0000
0000
0000
,
0000
0000
0000
0000
,
1000
0000
0000
0000
,
0001
0000
0000
0000
,
1000
0000
0000
0000
,
1000
0000
0000
0000
,
0001
0000
0000
0000
,
1000
0000
0000
0000
,
0001
0000
0000
0000
,
0001
0000
0000
0000
,
0110
0000
0000
0000
,
0100
0000
0000
0000
,
0110
0000
0000
0000
,
0010
0000
0000
0000
,
1000
0000
0000
0000
,
0001
0000
0000
0000
,
1001
0000
0000
0000
,
0000
0000
0000
0000
,
1001
0000
0000
0000
,
0000
1001
0000
0000
,
1000
0000
0000
0000
,
0000
0001
0000
1000
,
0000
0001
0000
0000
,
0000
1000
0000
0001
,
0000
1001
0000
0000
,
0000
0100
0000
0010
,
0000
0100
0000
0000
,
0000
0001
0000
1000
,
0000
1001
0000
0000
,
0000
0010
0000
0100
,
0000
0010
0000
0000
,
0000
1000
0000
0001
,
0000
1000
0000
0000
,
0000
0001
0000
1000
,
0000
0001
0000
0000
,
0000
1001
0000
0000
,
0000
1000
0000
0001
,
0000
1000
0000
0010
,
0000
0100
0000
0001
,
0000
1000
0000
0000
,
0000
0001
0000
0000
0000
0000
0000
0000
,
0000
1001
0000
0000
0000
0000
0000
0000
;
