#TITLE:たまゆら;
#SUBTITLE:;
#ARTIST:佐々木博史;
#TITLETRANSLIT:TAMAYURA;
#SUBTITLETRANSLIT:;
#ARTISTTRANSLIT:Hirofumi Sasaki;
#CREDIT:DMAxel;
#BANNER:TAMAYURA.png;
#BACKGROUND:TAMAYURA-bg.png;
#LYRICSPATH:;
#CDTITLE:GUITAR FREAKS & drummania.png;
#MUSIC:TAMAYURA.mp3;
#OFFSET:2.820;
#SAMPLESTART:26.513;
#SAMPLELENGTH:12.000;
#SELECTABLE:YES;
#DISPLAYBPM:90.000:180.000;
#BPMS:0.000=90.000,40.000=45.000,42.000=180.000;
#STOPS:;
#BGCHANGES:2.000=TAMAYURA.avi=1.000=1=0=1,
99999=-nosongbg-=1.000=0=0=0 // don't automatically add -songbackground-
;

//---------------dance-single - ----------------
#NOTES:
     dance-single:
     :
     Easy:
     3:
     0.208,0.292,0.286,0.036,0.000:
0000
0000
0000
0000
,
0000
0000
0000
0000
,
0000
0000
0000
0000
,
0000
0000
0000
0000
,
0000
0000
0000
0000
,
0000
0000
0000
0000
,
0000
0000
0000
0000
,
0000
0000
0000
0000
,
0000
0000
0000
0000
,
0000
0000
0000
0000
,
1001
0000
1000
0000
,
0000
0000
0000
0000
,
0000
0000
1000
0000
,
0010
0000
1000
0000
,
0000
0000
0001
0000
,
0000
0000
0001
0000
,
0000
0000
0001
0000
,
0100
0000
0001
0000
,
0001
0000
1001
0000
,
0000
0000
0110
0000
,
0000
0000
1001
0000
,
1001
0000
0010
0000
,
0010
0000
1001
0000
,
0000
0000
1001
0000
,
0000
0000
0110
0000
,
0110
0000
1001
0000
,
0000
0000
0001
0100
,
0001
0000
0010
0000
,
0001
0000
1000
0010
,
1000
0000
0100
0000
,
1000
0000
0001
1000
,
0001
0000
0001
1000
,
0001
0000
1000
0000
,
1000
0000
1001
0000
,
0000
0000
1001
0000
,
1010
0000
1000
0001
,
1000
0000
1001
0000
,
1001
0000
1001
0000
,
0000
0000
1001
0000
,
0101
0000
0001
1000
,
0001
0000
0011
0000
,
0011
0000
0010
1000
,
0001
0000
1001
0000
,
0110
0000
1001
0000
,
0000
0000
1000
0000
,
0100
0000
0010
0000
,
0001
0000
0100
0000
,
0010
0000
1000
0000
,
0010
0000
0001
0000
,
0100
0000
1000
0000
,
0010
0000
0100
0000
,
0010
0000
1000
0001
,
1000
0001
0020
0000
,
0000
0000
0032
0000
,
0000
0000
1003
0100
,
1000
0100
1000
0001
,
0000
0000
1001
0000
,
0110
0000
1001
0000
,
0000
0000
0001
0010
,
0001
0010
0001
1000
,
0000
0000
1001
0000
,
0110
0000
1001
0000
,
0000
0000
1000
0010
,
1000
0010
1000
0010
,
1000
0001
1000
0001
,
1000
0001
1000
0001
,
1000
0001
0100
0001
,
0100
0001
0100
0001
,
0100
0010
0110
0000
,
1001
0000
0220
0000
,
0000
0000
0000
0000
,
0000
0000
0000
0000
,
0000
0000
0330
0000
;

//---------------dance-single - ----------------
#NOTES:
     dance-single:
     :
     Medium:
     6:
     0.278,0.356,0.223,0.072,0.000:
0000
0000
0000
0000
,
0000
0000
0000
0000
,
0000
0000
0000
0000
,
0000
0000
0000
0000
,
0000
0000
0000
0000
,
0000
0000
0000
0000
,
0000
0000
0000
0000
,
0000
2000
0000
0000
0000
0000
3002
0000
,
0000
0000
0000
0203
0000
0000
0000
0000
,
0000
0000
0300
0000
,
1001
0000
0001
0010
,
0001
0000
0001
1000
,
0001
0000
1000
0100
,
1000
0010
1000
0100
,
0000
0000
1000
0100
,
1000
0000
1000
0001
,
1000
0000
0001
0010
,
0001
0100
0001
0010
,
0001
0000
0010
0010
,
0010
0000
1001
0000
,
0000
0000
0100
0100
,
0100
0000
1001
0000
,
0000
0000
0010
1000
,
0010
0000
1001
0000
,
0010
0000
1001
0000
,
1001
0000
0110
0110
,
0110
0000
0010
1000
,
0010
0100
0010
1000
,
0010
0100
0010
0010
,
0010
0000
0100
0100
,
0000
0000
0100
0001
,
0100
0010
0100
0001
,
0010
0100
1000
0001
,
1000
0001
2000
0000
,
0000
0000
3001
0000
,
0010
0100
1000
0001
,
0010
0000
1001
0000
,
0110
0000
1001
0000
,
0000
0000
0100
0010
,
0001
1000
0100
0010
,
0001
0000
1001
0000
,
0110
0000
1001
0000
,
0000
0000
0011
0000
,
1010
0000
2002
0000
,
0000
3003
0010
0001
,
0010
0100
1000
0001
,
0010
0100
1000
0010
,
0100
0010
1000
0010
,
0100
0001
1000
0010
,
0100
0001
0010
0100
,
1000
0001
0010
0100
,
1000
0100
0001
0010
,
0100
0000
1000
0000
1001
0000
0000
0101
,
0000
0000
0000
0000
1010
0000
0000
1001
,
0000
0000
0100
0010
,
0001
1000
0010
1000
,
0000
0001
0010
0100
,
1000
0010
0100
0010
,
0000
0000
1000
0100
,
0010
0001
1000
0010
,
0000
0100
0010
0000
,
0110
0000
1001
0000
,
0000
0000
0010
0100
,
1000
0100
0001
0010
,
0100
1000
0010
0100
,
0010
1000
0100
0010
,
0001
1000
0010
0100
,
0010
1000
0100
0010
,
0001
1000
0001
1000
0001
0000
0001
0000
,
1000
1000
0220
0000
,
0000
0000
0000
0000
,
0000
0000
0000
0000
,
0000
0000
0330
0000
;

//---------------dance-single - ----------------
#NOTES:
     dance-single:
     :
     Hard:
     8:
     0.437,0.518,0.250,0.072,0.018: // measure 1
0000
0000
0000
0000
,  // measure 2
0000
0000
0000
0000
,  // measure 3
0000
0000
0000
0000
,  // measure 4
0000
0000
0000
0000
,  // measure 5
0000
0000
0000
0000
,  // measure 6
0000
0000
0000
0000
,  // measure 7
0000
0000
0000
0000
,  // measure 8
0000
0022
0000
0000
0030
0000
2000
0000
,  // measure 9
0000
0003
0000
0200
0000
0000
0000
0000
,  // measure 10
0000
0000
3300
0000
,  // measure 11
1001
0000
1000
0100
,  // measure 12
0001
0010
0100
1000
,  // measure 13
0001
1000
0010
0100
,  // measure 14
0010
1000
0100
0001
,  // measure 15
0000
0000
0010
0100
,  // measure 16
1000
0010
0100
0010
,  // measure 17
1000
0100
0001
0010
,  // measure 18
0100
1000
0001
0010
,  // measure 19
0100
0000
1001
0100
,  // measure 20
0010
0001
1001
0010
,  // measure 21
0100
1000
1001
0010
,  // measure 22
1010
0100
0101
0001
,  // measure 23
1000
0000
0100
0010
,  // measure 24
0001
0100
1001
0010
,  // measure 25
0100
1000
1001
0100
,  // measure 26
1001
0010
1001
0100
,  // measure 27
0010
0000
0001
0000
0100
0001
0000
0001
,  // measure 28
0010
0000
0100
0000
1000
0010
0000
0010
,  // measure 29
0100
0000
0001
0000
0100
0010
0100
0000
,  // measure 30
0010
0100
0010
0000
1000
0000
1000
0000
,  // measure 31
0010
0000
0100
0000
0010
1000
0000
1000
,  // measure 32
0100
0000
0010
0000
0001
0100
0000
0100
,  // measure 33
0010
0000
1000
0000
0010
0100
0010
0000
,  // measure 34
0100
0010
0100
0000
0001
0000
0001
0000
,  // measure 35
0010
0000
0100
0000
1001
0000
1000
0100
,  // measure 36
0010
0100
0010
0000
0001
0010
0100
1000
,  // measure 37
0010
0100
0101
0100
,  // measure 38
0101
0000
0001
0000
1000
0100
0010
0001
,  // measure 39
0100
0000
0010
0000
1001
0000
0001
0010
,  // measure 40
0100
0010
0100
0000
1000
0100
0010
0001
,  // measure 41
0100
0010
1010
0010
,  // measure 42
1010
0000
1000
0000
0001
0010
0100
1000
,  // measure 43
0010
0100
0101
0000
,  // measure 44
1100
0000
2002
0000
,  // measure 45
0000
0000
3003
0000
0010
1000
0010
1000
,  // measure 46
0010
0100
0001
0000
0010
0000
0100
0000
,  // measure 47
1000
0001
1000
0001
0010
0001
0100
0010
,  // measure 48
0000
0010
1000
0010
0100
0001
1000
0001
,  // measure 49
1000
0000
0100
0000
0010
0001
0010
0001
,  // measure 50
0010
0100
1000
0000
0100
1000
0100
1000
,  // measure 51
0100
0010
0001
0000
0100
0001
0010
0000
,  // measure 52
0001
0100
0010
0000
1000
0010
0100
0000
,  // measure 53
0010
0000
0100
0000
0001
0000
0000
0000
1001
0000
0000
0001
0000
0000
0001
0000
,  // measure 54
0000
1000
0000
0000
1100
0000
0000
0000
0011
0000
0000
0001
0000
0000
1000
0000
,  // measure 55
0000
1000
0000
0000
1001
0000
0000
0000
0010
0000
0001
0000
0010
0000
0100
0000
,  // measure 56
1000
0000
0010
0100
0001
0100
0001
0000
,  // measure 57
1000
0001
0010
0100
1000
0010
1000
0010
,  // measure 58
0100
0001
0100
0001
0010
0100
1000
0000
,  // measure 59
0000
0000
0000
0000
0100
1000
0100
0010
,  // measure 60
0001
0000
0100
0010
1000
0010
1000
0000
,  // measure 61
0001
1000
0100
0010
0001
0000
0010
0100
,  // measure 62
1000
0000
0100
0010
0001
1000
0001
0000
,  // measure 63
0000
0000
0000
0000
0100
0001
0000
0001
,  // measure 64
0100
0010
0100
0010
1000
0100
0010
0000
,  // measure 65
0001
1000
0010
0100
0001
0010
0001
0010
,  // measure 66
0001
0100
0010
1000
0001
0000
0010
0100
,  // measure 67
1000
0000
0000
0000
0010
1000
0000
1000
,  // measure 68
0010
0100
0010
0100
0001
0010
0100
0000
,  // measure 69
1000
0001
0100
0010
1000
0000
1010
0000
,  // measure 70
0110
0101
2002
0000
,  // measure 71
0000
0000
0000
0000
,  // measure 72
0000
0000
0000
0000
,  // measure 73
0000
0000
3003
0000
;

//---------------dance-single - ----------------
#NOTES:
     dance-single:
     :
     Challenge:
     9:
     0.533,0.616,0.241,0.107,0.018: // measure 1
0000
0000
0000
0000
,  // measure 2
0000
0000
0000
0000
,  // measure 3
0000
0000
0000
0000
,  // measure 4
0000
0000
0000
0000
,  // measure 5
0000
0000
0000
0000
,  // measure 6
0000
0000
0000
0000
,  // measure 7
0000
0000
0000
0000
,  // measure 8
0000
2200
0000
0000
0300
0000
0002
0000
,  // measure 9
0000
3000
0000
0200
0000
0000
0000
0000
,  // measure 10
0000
0000
0303
0000
,  // measure 11
1001
0000
0000
0000
0001
0100
0010
1000
,  // measure 12
0001
0000
0001
0010
0100
1000
0100
0000
,  // measure 13
1000
0010
0100
0010
1000
0010
0100
0001
,  // measure 14
0100
0010
1000
0001
0010
0100
1000
0000
,  // measure 15
0000
0000
0000
0000
1000
0010
0100
0001
,  // measure 16
1000
0000
1000
0100
0010
0001
0010
0000
,  // measure 17
0001
0100
0010
0100
0001
0100
0010
1000
,  // measure 18
0010
0100
0001
0010
0100
1000
0001
0010
,  // measure 19
0100
0000
0000
0000
1001
0010
0100
1000
,  // measure 20
0010
0000
1000
0001
1000
0100
0010
0001
,  // measure 21
0100
0000
0100
0000
0001
0100
0010
0000
,  // measure 22
1000
0001
0010
0100
1000
0001
0100
0010
,  // measure 23
0100
0000
0000
0000
1001
0100
0010
0001
,  // measure 24
0100
0000
0001
1000
0001
0010
0100
1000
,  // measure 25
0010
0000
0010
0000
1000
0010
0100
0000
,  // measure 26
0001
0100
0000
0100
0001
0010
0100
1000
,  // measure 27
0010
0000
0010
0000
1000
0001
0000
0001
,  // measure 28
1000
0000
0100
0010
0001
0100
0000
0100
,  // measure 29
0010
0000
0010
1000
0010
0100
0010
1000
,  // measure 30
0100
0010
0001
1000
0001
1000
0001
0100
,  // measure 31
0000
0010
1000
0000
0001
1000
0000
1000
,  // measure 32
0001
0000
0010
0100
1000
0010
0000
0010
,  // measure 33
0100
0000
0100
0001
0100
0010
0100
0001
,  // measure 34
0010
0100
1000
0001
1000
0001
1000
0001
,  // measure 35
0100
0010
0100
0000
1001
0000
0010
0100
,  // measure 36
1000
0100
0001
0000
0010
0100
1000
0010
,  // measure 37
0101
0000
0010
0000
0010
1000
0010
0000
,  // measure 38
0100
0001
0100
0000
0010
1000
0010
0100
,  // measure 39
0010
0100
0001
0000
1001
0000
0100
0010
,  // measure 40
0001
0010
1000
0000
0100
0010
0001
0100
,  // measure 41
1010
0000
0100
0000
0100
0001
0100
0000
,  // measure 42
0010
1000
0010
0000
0100
0001
0100
0010
,  // measure 43
0100
0100
0202
0303
,  // measure 44
2200
3300
2002
0000
,  // measure 45
0000
0000
3003
0000
0100
0010
0100
0010
,  // measure 46
0100
0001
1000
0100
0010
0001
0100
0000
,  // measure 47
0010
0100
0010
0100
0010
1000
0001
0100
,  // measure 48
0000
0100
0010
0100
0001
1000
0100
0010
,  // measure 49
0001
0010
0100
0000
1000
0001
1000
0100
,  // measure 50
0010
0000
0001
0100
0001
0010
0100
1000
,  // measure 51
0010
0000
1000
0010
1000
0100
0010
0001
,  // measure 52
1000
0010
0100
0001
0010
0100
1000
0001
,  // measure 53
0100
0000
0010
0000
1000
0000
0000
0000
1010
0000
0000
1010
0000
0000
1001
0000
,  // measure 54
0000
0011
0000
0000
0011
0000
0000
0000
0101
0000
0000
0101
0000
0000
1001
0000
,  // measure 55
0000
1100
0000
0000
1100
0000
0000
0000
1000
0000
0010
0000
0100
0000
0001
0000
,  // measure 56
1000
0000
1000
0100
0010
0001
1000
0000
,  // measure 57
0100
0010
0001
0100
0010
1000
0100
0001
,  // measure 58
0010
0100
1000
0100
0001
0010
1000
0000
,  // measure 59
0000
0000
0000
0000
0001
0100
0010
1000
,  // measure 60
0001
0000
0001
0010
0100
1000
0001
0000
,  // measure 61
0010
0100
1000
0100
0001
0000
0010
0100
,  // measure 62
1000
0000
0100
0010
0001
0010
1000
0000
,  // measure 63
1001
0000
0000
0000
1000
0010
0100
0001
,  // measure 64
1000
0010
1000
0100
0010
0001
1000
0010
,  // measure 65
1000
0010
0100
0001
1000
0100
0001
0100
,  // measure 66
1000
0010
0100
0001
1000
0100
0010
0001
,  // measure 67
0100
0000
0000
0000
0001
0100
0010
1000
,  // measure 68
0001
0100
0001
0010
0100
1000
0010
0001
,  // measure 69
0010
1000
0100
0010
0011
0000
0110
0000
,  // measure 70
1010
1001
0202
0000
,  // measure 71
0000
0000
0000
0000
,  // measure 72
0000
0000
0000
0000
,  // measure 73
0000
0000
0303
0000
;

//---------------dance-single - ----------------
#NOTES:
     dance-single:
     :
     Beginner:
     2:
     0.115,0.155,0.116,0.000,0.000:
0000
0000
0000
0000
,
0000
0000
0000
0000
,
0000
0000
0000
0000
,
0000
0000
0000
0000
,
0000
0000
0000
0000
,
0000
0000
0000
0000
,
0000
0000
0000
0000
,
0000
0000
0000
0000
,
0000
0000
0000
0000
,
0000
0000
0000
0000
,
0000
0000
1000
0000
,
0000
0000
0001
0000
,
0000
0000
1000
0000
,
1000
0000
1000
0000
,
0000
0000
0001
0000
,
0000
0000
1000
0000
,
0000
0000
0001
0000
,
0001
0000
0001
0000
,
0000
0000
1001
0000
,
0000
0000
0110
0000
,
0000
0000
1001
0000
,
1000
0000
1000
0000
,
0000
0000
1001
0000
,
0000
0000
0110
0000
,
0000
0000
1001
0000
,
0001
0000
0001
0000
,
0000
0000
1000
0000
,
0000
0000
0010
0000
,
0000
0000
1000
0000
,
0000
0000
0001
0000
,
0000
0000
0100
0000
,
0000
0000
0001
0000
,
0000
0000
1000
0000
,
1000
0000
1000
0000
,
0000
0000
1001
0000
,
0000
0000
1000
0000
,
0010
0000
1000
0000
,
1000
0000
0001
0000
,
0001
0000
0100
0000
,
0001
0000
1000
0000
,
0001
0000
1000
0000
,
1000
0000
0001
0000
,
0001
0000
1001
0000
,
0000
0000
0000
0000
,
0000
0000
1000
0000
,
0000
0000
0100
0000
,
0000
0000
0010
0000
,
0000
0000
0001
0000
,
0000
0000
0010
0000
,
0000
0000
0100
0000
,
0000
0000
1000
0000
,
0000
0000
0010
0000
,
0000
0000
1001
0000
,
0000
0000
1001
0000
,
0000
0000
1000
0000
,
0000
0000
0001
0000
,
0000
0000
1000
0000
,
0000
0000
0001
0000
,
0000
0000
0010
0000
,
0000
0000
0001
0000
,
0000
0000
1000
0000
,
0000
0000
0100
0000
,
0000
0000
1001
0000
,
0100
0000
1000
0000
,
0001
0000
0010
0000
,
0001
0000
1000
0000
,
0100
0000
1000
0000
,
0100
0000
0010
0000
,
0001
0000
1001
0000
,
0000
0000
1001
0000
;
