#TITLE:Sun Field;
#SUBTITLE:;
#ARTIST:mh sequence;
#TITLETRANSLIT:;
#SUBTITLETRANSLIT:;
#ARTISTTRANSLIT:;
#CREDIT:DMAxel;
#BANNER:Sun Field.png;
#BACKGROUND:Sun Field-bg.png;
#LYRICSPATH:Sun Field.lrc;
#CDTITLE:beatmaniaIIDX.png;
#MUSIC:Sun Field.mp3;
#OFFSET:-1.240;
#SAMPLESTART:78.594;
#SAMPLELENGTH:12.000;
#SELECTABLE:YES;
#BPMS:0.000=152.000;
#STOPS:;
#BGCHANGES:-4.000=Sun Field.avi=1.000=1=1=0,
99999=-nosongbg-=1.000=0=0=0 // don't automatically add -songbackground-
;

//---------------dance-single - ----------------
#NOTES:
     dance-single:
     :
     Easy:
     4:
     0.305,0.334,0.222,0.102,0.000:
0000
0000
0000
0000
,
0000
0000
0000
0000
,
0000
0000
0000
0000
,
0000
0000
0000
0000
,
0000
0000
0000
0000
,
1000
0000
0010
0010
,
0010
0000
1000
0000
,
0001
0000
0100
0100
,
0100
0000
0001
1000
,
0001
0100
0001
0100
,
0010
1000
0010
1000
,
0001
1000
0001
0100
,
0010
0100
0001
0100
,
1000
0001
1000
0001
,
0100
0001
0100
0001
,
1000
0100
1000
0100
,
0002
0000
0000
2000
0000
0000
3003
0000
,
0001
0100
0001
0100
,
0010
1000
0010
0010
,
1000
0002
0000
1003
,
0001
1001
1000
1001
,
1000
0100
1000
0100
,
0010
0000
0001
0000
0010
0000
0001
1000
,
0000
1000
0000
1000
0000
1000
0000
0000
,
0001
0000
0000
1001
0000
0000
0000
0000
,
1000
0010
0100
0001
,
0010
0100
1000
0001
,
0010
0010
0001
0001
,
1000
1000
0001
0000
,
1001
0000
0000
0000
,
0110
0000
0000
0000
,
1001
0000
0001
0000
,
1000
1001
1001
1001
,
1002
0000
0000
0000
,
0203
0000
0000
0000
,
0320
0000
0000
0000
,
2030
0000
0000
0000
,
3200
0000
0000
0000
,
0320
0000
0000
0000
,
0031
0000
0000
0000
,
1001
0000
0000
0010
0000
0000
1001
0000
,
0100
1000
0100
1000
,
0100
0010
0001
1000
,
1000
0010
0100
0001
,
1000
0010
0100
0001
,
1001
0000
0100
0010
,
0100
0001
0010
0001
,
1001
0100
0010
0100
,
1001
0000
0000
0000
,
1001
0010
0100
0010
,
1000
0010
0100
0001
,
1001
0100
0010
1000
,
0100
0010
0001
0100
,
1001
0010
0100
0001
,
0010
0001
0100
0010
,
1001
0100
0010
1000
,
0010
0100
0001
0100
,
1001
0010
0001
0010
,
0100
1000
0001
0010
,
1001
0100
1000
0100
,
1000
0001
0010
0001
,
1001
0010
0001
0010
,
0001
1000
0100
1000
,
1001
0100
0010
0001
,
0010
1000
0100
0001
,
2002
0000
0000
3003
;

//---------------dance-single - ----------------
#NOTES:
     dance-single:
     :
     Hard:
     8:
     0.582,0.546,0.536,0.046,0.028:
0000
0000
0000
0000
,
0000
0000
0000
0000
,
0000
0000
0000
0000
,
0000
0000
0000
0000
,
0000
0000
0000
0000
,
1010
0000
0001
0000
1000
0100
0001
0000
,
1010
0000
0001
0000
1000
0100
1000
0001
,
0101
0000
1000
0000
0001
0010
1000
0000
,
0101
0000
1000
0000
0001
0010
0001
1000
,
0010
0100
0010
0100
0010
1000
0001
1000
,
0100
1000
0100
1000
0100
1000
0001
0100
,
0001
0010
0001
0010
0001
0010
0001
1000
,
0100
0010
0100
0010
0100
0010
0001
1000
,
0001
0100
0001
0100
0001
0100
0001
1000
,
0100
0010
0100
0010
0100
0010
0001
1000
,
0010
1000
0010
1000
0010
1000
0001
0010
,
0100
0000
0000
1000
1000
1000
1000
0000
,
1100
0000
1000
0000
0011
0000
0001
1000
,
0010
0000
1000
0000
1100
0000
1000
0001
,
0100
0000
0000
0100
0000
0000
0100
0000
0000
0000
0001
0000
1000
0000
0000
0000
,
0001
0001
0101
0000
1000
1000
1010
0000
,
0011
0000
1000
0002
0000
1000
1003
0010
,
0100
0000
0001
2000
0000
0001
0001
3001
,
0000
1001
0000
1001
0000
1001
0000
1000
,
1000
0010
0000
0010
0000
0000
1001
0000
,
1000
0100
1000
0100
0010
0100
0010
0100
,
1000
0100
0010
0001
0010
1000
0010
0001
,
0010
0001
0010
0001
0010
0100
0010
0100
,
1000
0100
0010
0001
0010
1000
0001
0000
,
0100
0100
0100
1001
0000
0000
0000
0010
,
0010
0010
0010
1001
0000
0000
0000
0100
,
1001
0000
0011
0000
,
1010
0000
0000
0000
1010
0000
0000
0000
0010
0000
0000
0010
0000
0000
0010
0000
,
1001
0000
0101
0000
1000
0100
0001
1000
,
1001
0000
1010
0000
0001
0010
1000
0001
,
1001
1100
0011
1100
,
1001
0000
0000
0000
1000
0000
0001
0000
0100
0000
0000
0100
0000
0000
0100
0000
,
1001
0000
0101
0000
1000
0100
0001
1000
,
1001
0000
1010
0000
0001
0010
1000
0001
,
2002
0000
0000
0000
0000
3003
0000
0100
,
1001
0000
0000
0000
0000
0000
1001
0000
0000
0000
0001
1000
0001
0000
0000
0000
,
1000
0100
0001
0100
1000
0001
0001
1000
,
0100
0010
0001
1000
0010
1000
1000
0001
,
0101
0000
0000
0100
0001
0010
0100
1000
,
1010
0000
0000
0010
1000
0100
0010
0001
,
0101
0000
0000
0100
0001
0010
0100
1000
,
0100
0001
0100
1000
0001
0100
0010
0100
,
0001
1000
0100
0010
0100
1000
0001
0100
,
0210
0000
0000
0000
0000
0010
0310
0000
,
1010
0000
1001
0000
1000
0001
0100
1000
,
1001
0000
0001
0000
1000
0010
0100
0001
,
0101
0000
1001
0000
0001
1000
0100
0001
,
1001
0000
1000
0000
0001
0100
0010
1000
,
1010
0000
1001
0000
1000
0001
0100
1000
,
1001
0000
0001
0000
1000
0100
0010
0001
,
0101
0000
1001
0000
0001
1000
0010
0001
,
1001
0000
1000
0000
0001
0010
0100
1000
,
0001
0010
1000
0010
0001
0010
1000
0001
,
1000
0100
0010
0001
1000
0100
0010
0001
,
1000
0100
0001
0100
1000
0100
0001
1000
,
0001
0010
0100
1000
0001
0010
0100
1000
,
0001
0010
1000
0010
0001
0010
1000
0001
,
0010
0100
0010
0001
1000
0100
0001
0100
,
1000
0100
0010
0100
1000
0001
0100
0010
,
1010
1010
0011
1001
,
1000
0000
0000
1001
0000
0000
0000
0000
0001
0000
0000
1001
0000
0000
0000
0000
;

//---------------dance-single - ----------------
#NOTES:
     dance-single:
     :
     Challenge:
     9:
     0.655,0.698,0.323,0.000,0.236: // measure 1
0000
0000
0000
0000
,  // measure 2
0000
0000
0000
0000
,  // measure 3
0000
0000
0000
0000
,  // measure 4
0000
0000
0000
0000
,  // measure 5
0000
0000
0000
0000
,  // measure 6
1010
0000
1010
0000
1000
0001
0100
0001
,  // measure 7
1000
0000
1000
0000
1000
0100
0010
0001
,  // measure 8
0101
0000
0101
0000
0001
1000
0010
1000
,  // measure 9
0001
0001
1000
1000
0001
0010
0100
1000
,  // measure 10
0001
0000
0010
0000
0001
0000
1000
0000
0100
0000
1000
0001
0000
0000
0001
0000
,  // measure 11
1000
0100
1000
0001
0010
0001
0100
0010
,  // measure 12
1000
0100
1000
0001
0010
0001
0100
0010
,  // measure 13
1000
0000
0100
0000
1000
0000
0001
0000
0010
0001
0010
0000
0001
0010
0001
0000
,  // measure 14
1000
0000
0100
0000
1000
0000
0001
0000
0010
0000
0001
1000
0000
0000
1000
0000
,  // measure 15
0001
0010
0001
1000
0100
1000
0010
0100
,  // measure 16
0001
0010
0001
1000
0100
1000
0001
0100
,  // measure 17
1000
0000
0000
0000
0000
0000
0001
1000
0001
0000
1000
0000
1000
0000
0001
0000
,  // measure 18
1000
0000
0100
0000
0010
0000
0100
0000
1000
0000
0001
1000
0000
0000
1000
0000
,  // measure 19
0001
0000
0010
0000
0100
0000
0010
0000
0001
0000
1000
0010
1000
0000
0001
0000
,  // measure 20
1000
0000
0001
0100
0000
0000
0100
0000
0000
0001
1000
0000
1000
0000
0000
0000
,  // measure 21
0001
0100
0110
0000
1000
0010
0110
0000
,  // measure 22
0001
0000
0010
0000
0100
0000
0010
0000
0001
0000
1000
0010
0000
0000
0010
0000
,  // measure 23
1000
0100
0010
0100
1000
0001
0100
0101
,  // measure 24
0000
0101
0000
1010
0000
1010
0000
1001
,  // measure 25
0001
0000
0100
0000
0000
0000
0110
0000
0000
0000
1000
0001
1000
0000
0001
0000
,  // measure 26
0001
0010
0100
0010
0001
1000
0100
0001
,  // measure 27
0100
1000
0001
0010
0100
1000
0001
0001
,  // measure 28
1000
0010
0100
0001
1000
0100
0010
0100
,  // measure 29
1000
0000
0001
0000
0010
0000
1000
0001
1000
0000
0001
0100
0000
0000
0100
0000
,  // measure 30
0001
0000
0001
0000
0011
0000
1001
0000
0000
0000
0000
0000
0000
0000
1000
0001
,  // measure 31
1000
0000
1000
0000
1100
0000
1001
0000
0000
0000
0000
0000
0000
0000
0001
0100
,  // measure 32
0001
0000
1001
0000
,  // measure 33
0001
0000
0001
0000
0010
0000
0010
0000
1000
0000
1000
0001
0000
0000
0001
0000
,  // measure 34
1000
0000
0100
1000
0000
0000
0100
1000
0000
0000
0001
0100
0001
0000
1000
0000
,  // measure 35
1000
0000
0001
0010
0000
0000
0001
0010
0000
0000
0001
1000
0001
0000
1000
0000
,  // measure 36
1000
0010
1000
0001
0001
1000
0100
0001
,  // measure 37
0001
0000
0100
0000
0001
0000
1000
0000
1000
0000
0000
0110
0000
0000
0100
0000
,  // measure 38
0001
0010
0100
1000
0001
0010
1000
0001
,  // measure 39
0001
0010
0100
1000
0001
0010
0001
1000
,  // measure 40
1010
0000
0000
0000
0000
0000
1000
0100
1000
0000
0001
0000
0001
0000
0100
0000
,  // measure 41
0101
0000
0000
0000
0000
0000
1100
0000
0000
0000
0001
0010
0001
0000
0000
0000
,  // measure 42
1000
0100
1000
0010
0100
0001
0001
1000
,  // measure 43
0001
0000
1000
0100
1000
0000
0001
0000
0010
0000
0100
0000
1000
0000
0001
0000
,  // measure 44
0001
0000
0000
1001
0000
0000
1000
0000
0001
0000
0010
0001
0000
0000
1000
0000
,  // measure 45
1000
0000
0000
1001
0000
0000
0001
0100
0001
0000
1000
0000
1000
0000
0001
0000
,  // measure 46
0001
0000
0000
1001
0000
0000
0001
0000
0100
0000
0001
0000
0001
0000
1000
0000
,  // measure 47
0010
1000
0100
0001
0100
1000
1000
0001
,  // measure 48
0010
0000
0100
0000
1000
0000
0001
0000
0010
0000
0001
0010
0001
0000
1000
0000
,  // measure 49
1010
0000
0000
0000
0001
0001
0001
0001
,  // measure 50
0101
0000
0000
0000
0101
0000
0000
0000
0001
0000
1000
0100
0000
1000
0100
0000
,  // measure 51
1000
0001
0100
0001
1000
0001
0010
1000
,  // measure 52
1010
0000
1010
0000
1000
0001
0010
0001
,  // measure 53
1000
0000
0001
0000
0010
0000
0100
0000
1000
0000
0000
0010
0100
0000
0001
0000
,  // measure 54
0011
0000
0000
0000
0011
0000
0000
0000
0001
0000
1000
0100
0000
1000
0100
0000
,  // measure 55
1000
0001
0100
0001
1000
0001
0010
1000
,  // measure 56
1100
0000
1100
0000
1000
0001
0010
0001
,  // measure 57
1000
0000
0001
0000
0010
0000
0100
0000
1000
0000
0000
0010
0100
0000
0001
0000
,  // measure 58
1000
0100
0001
0100
1000
0100
0001
0100
,  // measure 59
1000
0000
0001
0100
0001
0000
0010
0000
0100
0000
1000
0000
0100
0000
0010
0000
,  // measure 60
0001
0000
1000
0010
1000
0000
0001
0000
0001
0000
0010
0000
1000
0000
0010
0000
,  // measure 61
0001
0000
1000
0000
1000
0000
0001
0000
0010
0000
0001
1000
0001
0000
1000
0000
,  // measure 62
0001
0000
0010
0000
1000
0000
0010
0000
0001
0000
1000
0010
1000
0000
0001
0000
,  // measure 63
0010
0000
0001
0010
0001
0000
1000
0000
0100
0010
0100
0010
0001
0000
1000
0000
,  // measure 64
0001
0000
1000
0100
1000
0000
0001
0000
0010
0100
0010
0100
1000
0000
0001
0000
,  // measure 65
0001
0000
0010
0000
0010
0000
1000
0000
1000
0000
0001
0010
0000
0000
1000
0000
,  // measure 66
0001
0000
0000
1001
0000
0000
0000
0000
1000
0000
0000
1001
0000
0000
0000
0000
;

//---------------dance-single - ----------------
#NOTES:
     dance-single:
     :
     Medium:
     6:
     0.450,0.486,0.342,0.055,0.000:
0000
0000
0000
0000
,
0000
0000
0000
0000
,
0000
0000
0000
0000
,
0000
0000
0000
0000
,
0000
0000
0000
0000
,
2000
0000
0001
0001
,
3001
0000
0001
1000
,
0002
0000
1000
1000
,
1003
0000
1000
0001
,
1000
0100
0010
0000
0001
0000
1000
0100
,
0001
0000
1001
0000
1000
0000
0001
0010
,
0200
0000
1000
0000
1300
0000
1000
0100
,
0020
0000
0001
0000
0031
0010
0001
1000
,
0100
0000
1000
0000
0100
0000
0001
0100
,
1000
0000
0001
0000
0010
0000
1000
0010
,
0001
0000
0100
0000
0010
0000
1000
0100
,
0001
0000
0000
1000
1000
1000
1000
0000
,
1010
0000
0001
0000
0100
0000
0010
0100
,
0010
0000
1000
0000
0010
0100
0001
0000
,
1001
0000
0000
0000
0000
0100
1001
0000
,
0001
0010
0001
0000
1000
0100
1000
0000
,
0101
0000
1000
0000
0010
0000
0100
0010
,
0100
0000
0001
0000
0100
0010
1000
1000
,
0000
1001
0000
1001
0000
1001
0000
0001
,
0001
0001
0000
1000
0000
0001
0100
0010
,
1000
0100
1000
0000
0010
0000
0100
0000
,
0001
0010
0001
0000
0010
0000
0100
0000
,
1000
0010
1000
0000
0100
0000
0010
0000
,
0001
0100
0001
1000
0010
1000
1000
0000
,
0001
0001
0001
0001
0000
0000
0000
1000
,
1000
1000
1000
1000
0000
0000
0000
0001
,
0011
0010
1001
0100
,
1100
1001
1001
1001
,
0001
0000
0010
0000
0100
0000
1000
0001
,
0001
0000
0010
0000
0100
0000
1000
0001
,
0001
0000
0011
0000
1000
0000
0001
1000
,
1000
0000
0100
0000
0010
0000
0001
1000
,
1000
0000
0001
0000
0100
0000
1000
0001
,
0001
0000
1000
0000
0100
0000
0001
1000
,
1000
0000
0000
0000
0000
0000
0000
0010
,
1000
0000
0000
0011
0000
1000
1001
0000
,
1010
0000
1000
0000
1000
0001
0010
0000
,
0101
0000
0001
0000
0001
1000
0100
0000
,
1010
1000
0001
0100
,
0101
0001
1000
0010
,
0110
0110
1000
0001
,
0100
0010
1000
0100
,
0001
0100
1000
0001
,
1001
0000
0000
0000
0000
1000
0001
0000
,
0011
0000
0001
0000
1000
0001
0001
1000
,
0100
1000
0001
0010
,
1100
0000
1000
0000
0001
1000
1000
0001
,
0010
0000
0001
0000
1000
0100
1000
0001
,
0010
0000
0011
0000
0001
1000
1000
0010
,
1000
0001
1000
0100
,
1100
0000
1100
0000
1000
0001
0001
0100
,
0001
0000
1000
0000
0001
0010
0001
1000
,
0100
1000
0100
1000
0100
1000
0100
0000
,
1001
0000
0001
0000
1000
0001
0100
0001
,
0010
0001
0010
0001
0010
0001
0010
0000
,
1001
0000
1000
0000
0001
1000
0100
1000
,
0010
1000
0010
1000
0010
1000
0010
0000
,
1001
0000
0001
0000
1000
0001
0010
0001
,
0100
0001
0100
0001
0100
0001
0100
0000
,
0101
1100
0011
1010
,
2002
0000
0000
3003
;

//---------------dance-single - ----------------
#NOTES:
     dance-single:
     :
     Beginner:
     2:
     0.108,0.180,0.120,0.000,0.000:
0000
0000
0000
0000
,
0000
0000
0000
0000
,
0000
0000
0000
0000
,
0000
0000
0000
0000
,
0000
0000
0000
0000
,
0000
0000
0000
0000
,
0000
0000
0000
0000
,
0000
0000
0000
0000
,
0000
0000
0000
0000
,
1000
0000
0000
0000
,
0001
0000
0000
0000
,
1000
0000
0000
0000
,
0001
0000
0000
0000
,
0100
0000
0000
0000
,
0010
0000
0000
0000
,
0100
0000
0000
0000
,
0001
0000
0000
0000
,
1000
0000
0001
0000
,
1000
0000
0001
0000
,
1001
0000
0000
0000
,
0001
0000
1001
0000
,
0001
0000
1000
0000
,
0001
0000
1000
0000
,
0000
0000
0000
0000
,
1001
0000
0000
0000
,
1000
0000
1000
0000
,
0001
0000
0001
0000
,
1000
0000
1000
0000
,
0010
0000
0010
0000
,
1001
0000
0000
0000
,
1001
0000
0000
0000
,
0001
0000
0001
0000
,
1001
0000
0000
0000
,
1001
0000
0000
0000
,
1000
0000
0000
0000
,
0001
0000
0000
0000
,
0001
0000
0000
0000
,
1000
0000
0000
0000
,
1000
0000
0000
0000
,
0001
0000
0000
0000
,
0100
0000
0000
0000
,
0001
0000
0000
0000
,
1000
0000
0000
0000
,
0010
0000
0000
0000
,
1000
0000
0000
0000
,
0001
0000
0000
0000
,
0010
0000
0000
0000
,
0001
0000
0000
0000
,
1000
0000
0000
0000
,
1001
0000
0000
0000
,
0000
0000
0000
0000
,
1001
0000
0000
0000
,
0000
0000
0000
0000
,
1001
0000
0000
0000
,
0000
0000
0000
0000
,
1001
0000
0000
0000
,
0000
0000
0000
0000
,
1000
0000
1000
0000
,
1000
0000
1000
0000
,
0001
0000
0001
0000
,
0001
0000
0001
0000
,
0100
0000
0100
0000
,
0100
0000
0100
0000
,
0010
0000
0010
0000
,
0110
0000
0000
0000
,
1001
0000
0000
0000
;
