#TITLE:Star Line;
#SUBTITLE:(HOUSE NATION Sunset In Ibiza Remix);
#ARTIST:Genki Rockets;
#TITLETRANSLIT:;
#SUBTITLETRANSLIT:;
#ARTISTTRANSLIT:;
#CREDIT:DMAxel;
#BANNER:Star Line (HOUSE NATION Sunset In Ibiza Remix).png;
#BACKGROUND:Star Line (HOUSE NATION Sunset In Ibiza Remix)-bg.png;
#LYRICSPATH:Star Line (HOUSE NATION Sunset In Ibiza Remix).lrc;
#CDTITLE:house nation.png;
#MUSIC:Star Line (HOUSE NATION Sunset In Ibiza Remix).mp3;
#OFFSET:-17.780;
#SAMPLESTART:79.146;
#SAMPLELENGTH:12.000;
#SELECTABLE:YES;
#BPMS:0.000=128.010;
#STOPS:;
#BGCHANGES:;

//---------------dance-single - ----------------
#NOTES:
     dance-single:
     :
     Easy:
     2:
     0.138,0.173,0.015,0.030,0.000:
0020
0000
0000
0000
,
0130
0000
0000
0000
,
0010
0000
0000
0000
,
0100
0000
0000
0000
,
0010
0000
0000
0000
,
2000
0000
0000
0000
,
3001
0000
0000
0000
,
1000
0000
0000
0000
,
0001
0000
0000
0000
,
0001
0000
0000
0000
,
1000
0000
0000
1000
,
0001
0000
0000
0001
,
1000
0000
0000
0010
,
0200
0000
0000
0000
,
0310
0000
0000
1000
,
0001
0000
0000
0001
,
1000
0000
0000
1000
,
0010
0000
0010
0000
,
0010
0000
0100
0000
,
0010
0000
0100
0000
,
0010
0000
0100
0000
,
0001
0000
1000
0000
,
0001
0000
1000
0000
,
0001
0000
0010
0000
,
0100
0000
1000
0000
,
1001
0000
1000
0000
,
0001
0000
1000
0000
,
0001
0000
0010
0000
,
0100
0000
1000
0000
,
0010
0010
0010
0000
,
0100
0100
0100
0000
,
0010
0010
0010
0000
,
0200
0000
0000
0000
,
0310
0000
0010
0000
,
0100
0010
0100
0000
,
0100
0000
0100
0000
,
0010
0100
0010
0000
,
1000
0000
1000
0000
,
0001
1000
0001
0000
,
0001
0000
0001
0000
,
1000
0001
1000
0000
,
1000
0000
0001
0000
,
1000
0000
0100
0000
,
1000
0000
0001
0000
,
0010
0000
0001
0000
,
1000
0100
1000
0000
,
0001
0100
0001
0000
,
1000
0100
1000
0000
,
0001
0010
0001
0000
,
0100
0010
0100
0010
,
0100
0000
0100
0000
,
0010
0100
0010
0100
,
0010
0000
0010
0000
,
1000
0001
1000
0001
,
1000
0000
1000
0000
,
0001
1000
0001
1000
,
0001
0000
0000
0000
,
1001
0000
0000
0000
;

//---------------dance-single - ----------------
#NOTES:
     dance-single:
     :
     Medium:
     5:
     0.301,0.303,0.076,0.076,0.000:
2000
0000
0000
0000
,
3001
0000
0010
0000
0000
0001
0000
0000
,
0100
0000
0000
0010
0000
1000
0000
0010
,
1000
0000
0100
0000
0000
1000
0000
0000
,
0010
0000
0000
0100
0000
0001
0000
0100
,
0002
0000
1000
0000
0000
1000
0000
0000
,
1003
0000
0000
0100
0000
1000
0000
0001
,
0010
0000
0001
0000
0000
0100
0000
0000
,
0010
0000
0000
1000
0000
0001
0000
0010
,
0001
0000
0100
0000
0000
0010
0000
0000
,
0100
0100
0100
0001
,
1000
1000
1000
1000
,
0001
0010
0010
0010
,
0200
0000
0000
0000
,
0310
0010
0010
0001
,
0100
0100
0100
0001
,
1000
1000
1000
0001
,
0110
0100
0010
0100
,
0010
1000
0010
1000
,
0001
0010
0001
0010
,
0001
0000
1000
0000
0100
0000
1000
0100
,
1000
0001
1000
0001
,
1000
0010
1000
0010
,
0100
0010
0100
0001
,
1001
1000
1001
0001
,
1001
0000
1000
0001
1000
0000
1000
0001
,
1000
0000
0001
1000
0001
0000
0001
1000
,
0001
0000
1000
0010
1000
0000
1000
0010
,
1000
0000
0001
0010
0001
0000
0001
0010
,
0001
0001
0001
0100
0000
0100
0000
0010
,
1000
1000
1000
0010
0000
0010
0000
0100
,
0001
0001
0001
0100
0000
0100
0000
0010
,
2000
0000
0000
0000
,
3001
0000
0100
0001
0100
0000
0100
0000
,
0010
0000
0010
1000
0010
0000
0010
0000
,
0100
0000
0100
0001
0100
0000
0100
0000
,
0010
0000
0010
1000
0010
0000
0010
1000
,
0001
0000
0001
0000
1000
0000
1000
0001
,
0100
0000
0100
0010
0100
0000
0010
0100
,
0010
1000
0002
1000
,
1003
1000
0001
1000
,
1001
0000
1000
0010
1000
0000
0001
0000
,
1001
0000
0001
0100
0001
0000
1000
0000
,
1001
0000
1000
0100
1000
0000
0001
0000
,
1001
0000
0001
0010
0001
0000
1000
0000
,
0020
0000
1000
0000
1030
0000
1000
0001
,
0200
0000
0001
0000
0301
0000
0001
1000
,
0200
0000
1000
0000
1300
0000
1000
0001
,
0020
0000
0001
0000
0031
0000
0001
1000
,
0010
0000
0100
0010
0000
0100
0010
0100
,
0010
0000
1000
0000
0001
0100
0010
0100
,
0010
0000
1000
0000
0001
1000
0100
1000
,
0100
0000
1000
0000
0001
0010
0001
0010
,
0100
0000
1000
0000
0001
0010
0100
0010
,
0100
0000
1001
0000
1000
0100
0010
0100
,
0010
0000
0001
0000
1000
0100
1000
0100
,
0020
0000
0000
0030
,
1001
0000
0000
0000
;

//---------------dance-single - ----------------
#NOTES:
     dance-single:
     :
     Hard:
     6:
     0.356,0.347,0.190,0.137,0.046:
0002
0000
0000
0000
,
2003
0000
0010
0000
0000
0010
0000
0000
,
3010
0000
0000
0010
0000
0100
0000
0010
,
0200
0000
0010
0000
0000
0010
0000
0000
,
0310
0000
0000
1000
0000
0001
0000
1000
,
0002
0000
1000
0000
0000
1000
0000
0000
,
1003
0000
0000
0010
0000
0100
0000
0010
,
0200
0000
0001
0000
0000
0001
0000
0000
,
0301
0000
0000
0001
0000
1000
0000
0100
,
2000
0000
0001
0000
0000
0001
0000
0000
,
3001
0000
0000
0000
0010
0000
0000
0000
0100
0000
0000
1000
0001
0000
0000
0000
,
1000
0000
0000
0000
0100
0000
0000
0000
0010
0000
0000
0001
1000
0000
0000
0000
,
0001
0000
0000
0000
0010
0000
0000
0000
0100
0000
0000
1000
0001
0000
0200
0000
,
0000
0000
0000
0000
0000
0000
0000
0010
,
0320
0000
1000
0000
1030
0000
1000
0010
,
0200
0000
0001
0000
0301
0000
0001
0100
,
0020
1000
1000
1030
,
1001
0000
0001
0100
0001
0000
0100
0010
,
0100
0001
0010
1000
,
0010
0100
0001
1000
0100
0000
0100
0000
,
0010
0001
1000
0010
0100
0000
0001
1000
,
0001
0000
1001
0000
1000
0010
1000
0000
,
0010
0100
0001
0000
0001
0000
0100
0010
,
0200
0000
0000
0001
0301
0000
0100
0000
,
1001
1001
0110
0110
,
1001
0000
1000
0010
0100
0000
0010
0100
,
0010
0000
0100
0001
0010
0000
0001
0100
,
0010
0000
0100
0010
0100
0000
0010
1000
,
0100
0000
1000
0100
1000
0000
0010
0100
,
0001
0000
0001
0000
0001
0000
1000
0000
0000
0100
0000
0000
1000
0000
0001
0000
,
1000
0000
1000
0000
1000
0000
0001
0000
0000
0010
0000
0000
0001
0000
1000
0000
,
0001
0000
0001
0000
0001
0000
1000
0000
0000
0100
0000
0000
1000
0000
0020
0000
,
0000
0000
0000
0030
,
1010
0000
1001
0000
0100
0001
1000
0000
,
1010
0000
1001
0000
0100
0001
1000
0000
,
0101
0000
1001
0000
0010
1000
0001
0000
,
1000
0100
0010
0001
0100
0010
0100
0001
,
2000
0000
0001
0000
3001
0000
0010
0100
,
0002
0000
1000
0000
1003
0000
0100
0010
,
2000
0000
0001
0000
3001
0010
0100
1000
,
0002
1000
1003
1100
,
1001
0000
0010
0001
1000
0000
1100
0000
,
1001
0000
0010
0001
1000
0000
0011
0000
,
1001
0000
0100
1000
0001
0000
0011
0000
,
1001
0000
0100
1000
0001
0000
1000
0100
,
0010
0001
0100
0010
1000
0000
1000
0010
,
0100
0001
0010
0100
1000
0000
0010
0100
,
0002
0000
1000
0000
1003
0100
0010
0001
,
2000
0001
3001
1000
,
1001
0000
1000
0010
0000
1000
0010
1000
,
0001
0000
0000
0010
0000
0000
0001
0000
0000
0000
0001
0000
0100
0000
0001
0000
,
1000
0000
0000
0100
0000
0000
1000
0000
0000
0000
1000
0000
0100
0000
1000
0000
,
0001
0000
0000
0100
0000
0000
0001
0000
0000
0000
0001
0000
0010
0000
0001
0000
,
1000
0000
0000
0010
0000
0000
1000
0000
0000
0000
1000
0000
0100
0000
1000
0000
,
0001
0000
0000
1001
0000
0000
1000
0000
0000
0000
0001
0000
0010
0000
0001
0000
,
1000
0000
0000
1001
0000
0000
0001
0000
0000
0000
1000
0000
0010
0000
0100
0000
,
0001
0001
0001
0001
,
1001
0000
0000
0000
;

//---------------dance-single - ----------------
#NOTES:
     dance-single:
     :
     Challenge:
     8:
     0.446,0.520,0.175,0.076,0.224: // measure 1
0020
0000
0000
0000
,  // measure 2
0130
0000
1000
0001
0000
0100
0000
0100
,  // measure 3
0001
0000
1000
0001
0000
0100
0000
0010
,  // measure 4
0100
0000
0001
1000
0000
0010
0000
0010
,  // measure 5
1000
0000
0001
1000
0000
0010
0000
0100
,  // measure 6
0020
0000
1000
0000
0000
1000
0000
0000
,  // measure 7
1030
0000
0001
0100
0000
0010
0000
0100
,  // measure 8
0010
0000
1000
0010
0000
0100
0000
0010
,  // measure 9
0200
0000
0000
0001
0000
0001
0300
0001
,  // measure 10
1000
0100
1000
0000
0001
1000
0000
0000
,  // measure 11
1001
0000
0000
0001
0100
0000
0010
0000
0100
0000
0000
0001
1000
0000
0100
0000
,  // measure 12
1000
0000
0000
0000
0010
0000
1000
0000
0010
0000
0000
1000
0001
0000
0010
0000
,  // measure 13
0001
0000
0000
1000
0010
0000
0100
0000
0010
0000
0000
1000
0001
0000
0020
0000
,  // measure 14
0000
0000
0000
0000
0000
0000
0000
0001
,  // measure 15
0031
0100
0010
1000
0000
0001
1000
0100
,  // measure 16
0020
0000
0000
0001
0000
0031
1000
0010
,  // measure 17
0100
0001
1000
0000
0100
0010
0001
1000
,  // measure 18
1001
0000
1000
0100
1000
0100
1000
0001
,  // measure 19
0010
0000
0001
0010
0000
0001
1000
0010
,  // measure 20
0200
0000
0000
0010
0310
0000
0100
0010
,  // measure 21
2000
0000
0000
0001
3001
0000
1000
0000
,  // measure 22
1001
0000
0001
0010
0001
0010
0001
1000
,  // measure 23
0100
0000
1000
0100
0000
1000
0001
0100
,  // measure 24
0020
0000
0000
0100
0130
0000
0010
0100
,  // measure 25
0101
0000
1100
0000
0101
0000
1100
1000
,  // measure 26
0001
0000
0000
1000
0001
0000
0010
0000
0100
0000
0000
1000
0001
0000
0010
0000
,  // measure 27
0100
0000
0000
1000
0001
0000
0001
0000
0100
0000
0000
0001
1000
0000
0100
0000
,  // measure 28
0010
0000
0000
0001
1000
0000
0100
0000
0010
0000
0000
0001
1000
0000
1000
0000
,  // measure 29
0010
0000
0000
1000
0001
0000
0001
0000
0010
0000
0000
0001
1000
0000
1000
0000
,  // measure 30
0100
1000
0100
1000
0100
0000
1000
0010
0000
1000
0010
0000
1000
0000
0001
0000
,  // measure 31
0010
0001
0010
0001
0010
0000
0001
0100
0000
0001
0100
0000
0001
0000
1000
0000
,  // measure 32
0100
1000
0100
1000
0100
0000
1000
0010
0000
1000
0010
0000
1000
0001
1000
0002
,  // measure 33
0000
0000
2000
3003
,  // measure 34
0101
0000
0000
0010
1000
0000
0100
0000
1000
0000
0000
0100
1000
0000
0001
0000
,  // measure 35
0100
0000
0000
0010
1000
0000
0100
0000
1000
0000
0000
0100
1000
0000
0010
0000
,  // measure 36
0010
0000
0000
0100
0001
0000
0010
0000
0001
0000
0000
0010
0001
0000
1000
0000
,  // measure 37
0010
1000
0100
0010
0001
0100
0010
1000
,  // measure 38
1000
0000
0000
0001
0100
0000
0010
0000
0100
0000
0000
0001
0100
0000
0010
0000
,  // measure 39
0100
0000
0000
0001
1000
0000
0100
0000
1000
0000
0001
0000
0010
0000
0100
0000
,  // measure 40
1000
0000
0000
0001
0100
0000
0010
0000
0100
0000
0001
0000
0010
0000
1000
0000
,  // measure 41
0010
0000
0000
1000
0010
0000
0100
0000
0010
0000
1000
0000
0100
0000
0001
0000
,  // measure 42
0101
0000
0000
0010
1000
0000
0001
0000
0010
0000
0000
0001
0010
0000
0001
0000
,  // measure 43
0100
0000
0000
0010
1000
0000
0001
0000
0010
0000
0000
0001
1000
0000
0100
0000
,  // measure 44
0100
0000
0000
1000
0100
0000
1000
0000
0010
0000
0000
0100
0001
0000
0010
0000
,  // measure 45
0001
1000
0010
0100
0001
0010
0100
1000
,  // measure 46
0010
0000
0000
1000
0010
0000
0100
0000
0010
0000
0000
1000
0010
0000
0100
0000
,  // measure 47
0010
0000
0000
0100
0001
0000
0010
0000
0001
0000
1000
0000
0100
0000
0001
0000
,  // measure 48
0100
0000
0000
0010
1000
0000
0100
0000
1000
0000
0001
0000
0010
0000
1000
0000
,  // measure 49
0010
0000
0000
0100
0001
0000
1000
0000
0100
0000
0010
0000
0001
0000
1000
0000
,  // measure 50
1001
0000
0000
0001
1000
0000
0100
0000
0000
0000
1000
0000
0100
0000
0010
0000
,  // measure 51
0001
0000
0000
0101
0000
0000
1001
0000
0000
0000
0001
0000
0010
0000
0100
0000
,  // measure 52
1000
0000
0000
1010
0000
0000
1001
0000
0000
0000
1000
0000
0001
0000
0010
0000
,  // measure 53
0100
0000
0000
0110
0000
0000
1010
0000
0000
0000
0001
0000
1000
0000
0100
0000
,  // measure 54
0010
0000
0000
0110
0000
0000
0101
0000
0000
0000
1000
0000
0001
0000
0010
0000
,  // measure 55
1000
0000
0000
0110
0000
0000
1001
0000
0000
0000
0001
0000
1000
0000
0100
0000
,  // measure 56
0001
0000
0000
0110
0000
0000
1001
0000
0000
0000
0001
0000
1000
0000
0100
0000
,  // measure 57
0010
0000
0000
0001
1000
0000
0000
1000
0001
0000
0000
0001
1000
0000
0000
0000
,  // measure 58
1001
0000
0000
0000
;

//---------------dance-single - ----------------
#NOTES:
     dance-single:
     :
     Beginner:
     1:
     0.059,0.087,0.015,0.000,0.000:
0000
0000
0000
0000
,
0010
0000
0000
0000
,
0000
0000
0000
0000
,
0010
0000
0000
0000
,
0000
0000
0000
0000
,
0010
0000
0000
0000
,
0000
0000
0000
0000
,
0100
0000
0000
0000
,
0000
0000
0000
0000
,
0000
0000
0000
0000
,
0100
0000
0000
0000
,
0000
0000
0000
0000
,
0010
0000
0000
0000
,
0000
0000
0000
0000
,
1000
0000
0000
0000
,
0000
0000
0000
0000
,
0001
0000
0000
0000
,
1000
0000
0000
0000
,
0000
0000
0000
0000
,
0001
0000
0000
0000
,
0000
0000
0000
0000
,
1000
0000
0000
0000
,
0000
0000
0000
0000
,
0010
0000
0000
0000
,
0010
0000
0000
0000
,
0100
0000
0000
0000
,
0100
0000
0000
0000
,
0100
0000
0000
0000
,
0100
0000
0000
0000
,
0001
0000
0000
0000
,
0010
0000
0000
0000
,
0100
0000
0000
0000
,
1000
0000
0000
0000
,
0001
0000
1000
0000
,
0001
0000
0000
0000
,
1000
0000
0100
0000
,
1000
0000
0000
0000
,
0001
0000
0100
0000
,
0001
0000
0000
0000
,
1000
0000
0010
0000
,
1000
0000
0000
0000
,
0001
0000
0010
0000
,
0001
0000
0000
0000
,
1000
0000
0001
0000
,
1000
0000
0000
0000
,
0010
0000
0000
0000
,
0100
0000
0000
0000
,
0001
0000
0000
0000
,
1000
0000
0000
0000
,
1001
0000
0000
0000
,
0001
0000
0000
0000
,
1000
0000
0000
0000
,
0001
0000
0000
0000
,
1000
0000
0000
0000
,
0100
0000
0000
0000
,
0010
0000
0000
0000
,
0001
0000
0000
0000
,
1001
0000
0000
0000
;
