#TITLE:Soul On Fire;
#SUBTITLE:;
#ARTIST:L.E.D.-G VS GUHROOVY fw NO+CHIN;
#TITLETRANSLIT:;
#SUBTITLETRANSLIT:;
#ARTISTTRANSLIT:;
#CREDIT:DMAxel;
#BANNER:Soul On Fire.png;
#BACKGROUND:Soul On Fire-bg.png;
#LYRICSPATH:Soul On Fire.lrc;
#CDTITLE:pop'n music.png;
#MUSIC:Soul On Fire.mp3;
#OFFSET:-12.240;
#SAMPLESTART:96.605;
#SAMPLELENGTH:12.000;
#SELECTABLE:YES;
#BPMS:0.000=91.000,16.000=182.000;
#STOPS:;
#BGCHANGES:;

//---------------dance-single - ----------------
#NOTES:
     dance-single:
     :
     Easy:
     3:
     0.191,0.314,0.250,0.113,0.000: // measure 1
1002
0000
2003
0000
,  // measure 2
3002
0000
0203
0000
,  // measure 3
0310
0010
0100
0100
,  // measure 4
0001
0010
0100
1000
,  // measure 5
1001
0000
0000
0000
,  // measure 6
0000
0000
0000
0000
,  // measure 7
0110
0000
0000
0000
,  // measure 8
0000
0000
0000
0000
,  // measure 9
1001
0000
0000
0000
,  // measure 10
0000
0000
0000
0000
,  // measure 11
0010
0000
0010
0000
,  // measure 12
0100
0000
0000
0000
,  // measure 13
1001
0000
0010
0000
,  // measure 14
0010
0000
0001
0000
,  // measure 15
0010
0000
0100
0000
,  // measure 16
1000
0000
0010
0000
,  // measure 17
1000
0000
1000
0000
,  // measure 18
0001
0000
0001
0000
,  // measure 19
1000
0000
0100
0000
,  // measure 20
0010
0000
0001
0000
,  // measure 21
1001
0000
0100
0000
,  // measure 22
0100
0000
0001
0000
,  // measure 23
0001
0000
0010
0000
,  // measure 24
0100
0000
1000
0000
,  // measure 25
1001
0000
0010
0000
,  // measure 26
1000
0000
1000
0000
,  // measure 27
0100
0000
0010
0000
,  // measure 28
0001
0000
1000
0000
,  // measure 29
1001
0000
0000
0000
,  // measure 30
0000
0000
0000
0000
,  // measure 31
0010
0000
0000
0000
,  // measure 32
0000
0000
0000
0000
,  // measure 33
0010
0000
0000
0000
,  // measure 34
0000
0000
0000
0000
,  // measure 35
0100
0000
0000
0000
,  // measure 36
0000
0000
0000
0000
,  // measure 37
1000
0000
0001
0000
,  // measure 38
0010
0000
0100
0000
,  // measure 39
1000
0000
0001
0000
,  // measure 40
0010
0000
0100
0000
,  // measure 41
1000
0000
0001
0000
,  // measure 42
1000
0000
0010
0000
,  // measure 43
0100
0000
0100
0000
,  // measure 44
0010
0000
0110
0000
,  // measure 45
1001
0000
0000
0000
,  // measure 46
0000
0001
0000
0000
,  // measure 47
0010
0000
0010
0000
,  // measure 48
0001
0000
0010
0000
,  // measure 49
0100
0000
0000
0000
,  // measure 50
0100
0000
0100
0000
,  // measure 51
1000
0000
0001
0000
,  // measure 52
1000
0000
0100
0000
,  // measure 53
2002
0000
0000
0000
,  // measure 54
0000
0000
3003
0000
,  // measure 55
0220
0000
0000
0000
,  // measure 56
0000
0000
0330
0000
,  // measure 57
2002
0000
0000
0000
,  // measure 58
0000
0000
3003
0000
,  // measure 59
0220
0000
0000
0000
,  // measure 60
0000
0000
0330
0000
,  // measure 61
0001
0000
0001
0000
,  // measure 62
0010
0000
0100
0000
,  // measure 63
1001
0000
0110
0000
,  // measure 64
1001
0000
0110
0000
,  // measure 65
1000
0000
0100
0000
,  // measure 66
0010
0000
0001
0000
,  // measure 67
1001
0000
0110
0000
,  // measure 68
1001
0000
0110
0000
,  // measure 69
0001
0000
0010
0000
,  // measure 70
0100
0000
1000
0000
,  // measure 71
1001
0000
0110
0000
,  // measure 72
1001
0000
0110
0000
,  // measure 73
1000
0000
0100
0000
,  // measure 74
0010
0000
0001
0000
,  // measure 75
1001
0000
0110
0000
,  // measure 76
1001
0000
0110
0000
,  // measure 77
0220
0000
0000
0000
,  // measure 78
0000
0000
0330
0000
,  // measure 79
1000
0000
0000
0000
;

//---------------dance-single - ----------------
#NOTES:
     dance-single:
     :
     Hard:
     8:
     0.549,0.754,0.621,0.048,0.040: // measure 1
2001
0000
0000
0001
0000
0000
3100
0000
1002
0000
0000
1000
0000
0000
0013
0000
,  // measure 2
2001
0000
0000
0001
0000
0000
3010
0000
1002
0000
0000
1000
0000
0000
0103
0000
,  // measure 3
0010
1000
0010
0000
1000
0000
0100
0000
0010
0001
0010
0000
0001
0000
0100
0000
,  // measure 4
0010
0100
0010
0000
1000
0000
0100
0000
0010
0001
0010
0001
0010
0100
1000
0000
,  // measure 5
1001
0000
0010
1000
0000
1000
0100
0000
,  // measure 6
1000
1000
0100
0010
0001
1000
0100
0000
,  // measure 7
0110
0000
0010
0100
0000
0001
0010
0000
,  // measure 8
0001
0001
0010
0100
1000
0001
0010
0000
,  // measure 9
1001
0000
0100
0010
0000
1000
0100
0000
,  // measure 10
1000
1000
0100
0010
0001
1000
0100
0000
,  // measure 11
0110
0000
0001
0100
0010
0000
1000
0100
,  // measure 12
0010
0101
1100
0000
,  // measure 13
1001
0000
1100
0000
1100
0000
0000
0101
,  // measure 14
0000
0110
0000
1000
0100
0010
0001
0000
,  // measure 15
0010
0000
0010
0001
0010
0000
0010
1000
,  // measure 16
0010
0000
0010
0100
0010
0000
1000
0000
,  // measure 17
1001
0000
0011
0000
0011
0000
0000
1010
,  // measure 18
0000
0110
0000
0001
0010
0100
1000
0000
,  // measure 19
0100
0000
0100
1000
0100
0000
0100
0001
,  // measure 20
0100
0000
0100
0010
0100
0000
0001
0000
,  // measure 21
1001
0000
1010
0000
1010
0000
0000
0011
,  // measure 22
0000
0110
0000
1000
0100
0010
0001
0000
,  // measure 23
0100
0000
0100
0001
0100
0000
0100
0010
,  // measure 24
0100
0000
0100
1000
0100
0000
1000
0000
,  // measure 25
1001
0000
0101
0000
0101
0000
0000
1100
,  // measure 26
0000
0110
0000
0001
0010
0100
1000
0000
,  // measure 27
0010
1000
0010
0000
0100
0010
0100
0001
,  // measure 28
0010
0100
1100
0100
,  // measure 29
1001
0000
0000
0000
,  // measure 30
0000
0000
0000
0000
0000
0000
0100
0001
,  // measure 31
1001
0000
0000
0000
,  // measure 32
0000
0000
0000
0000
0100
1000
0100
1000
,  // measure 33
1001
0000
0000
0000
,  // measure 34
0000
0000
0000
0000
0000
0000
0010
1000
,  // measure 35
1001
0000
0000
0000
,  // measure 36
0000
0000
0000
0000
0100
0001
0100
0001
,  // measure 37
1001
0000
0010
0100
1000
0000
0100
0010
,  // measure 38
0000
0010
0000
0010
0001
1000
0100
0000
,  // measure 39
1001
0000
0100
0010
0001
0000
0010
0100
,  // measure 40
0000
0100
0000
0100
1000
0001
0010
0000
,  // measure 41
1001
0000
0010
0100
1000
0000
0100
0010
,  // measure 42
0001
0000
0010
0100
1000
0000
0100
0010
,  // measure 43
0001
0100
0001
0100
0000
0100
0010
0100
,  // measure 44
0000
0100
0010
1000
0100
0010
0001
0000
,  // measure 45
1001
0100
1001
0010
,  // measure 46
0100
0000
1000
0001
1000
0000
0000
0000
,  // measure 47
1001
0010
1001
0100
,  // measure 48
0010
0000
0001
1000
0001
0000
0000
0000
,  // measure 49
1000
0001
1001
0001
,  // measure 50
0110
1000
0110
0001
,  // measure 51
0110
0000
1000
0100
0010
0100
1000
0000
,  // measure 52
0001
0100
0010
0100
0010
0100
0001
0000
,  // measure 53
0100
0001
0010
0000
0100
1000
0000
1000
,  // measure 54
0010
0000
0010
0100
0000
0100
0001
0000
,  // measure 55
0100
0010
1000
0000
0100
0010
0000
0010
,  // measure 56
0001
0000
0001
0100
0000
0100
0010
0000
,  // measure 57
0100
0001
0010
0000
0001
0100
0000
0100
,  // measure 58
0010
0000
0010
1000
0000
1000
0001
0000
,  // measure 59
0100
0010
0100
0010
0100
0010
0100
0010
,  // measure 60
1000
0001
1000
0001
1000
0100
0010
0001
,  // measure 61
1001
0000
0101
0000
1100
0000
0000
0110
,  // measure 62
0000
0110
0000
0001
0010
0100
1000
0000
,  // measure 63
1001
0000
0100
0001
0010
0000
0010
0001
,  // measure 64
0010
0100
1000
0000
0110
0000
0110
0000
,  // measure 65
1001
0000
1100
0000
0101
0000
0000
0110
,  // measure 66
0000
0110
0000
1000
0100
0010
0001
0000
,  // measure 67
1001
1000
0110
0001
,  // measure 68
0110
1000
0110
1001
,  // measure 69
1001
0000
0101
0000
1100
0000
0000
0110
,  // measure 70
0000
0110
0000
1000
0010
0100
0001
0000
,  // measure 71
1001
0000
0010
1000
0100
0000
0100
1000
,  // measure 72
0100
0010
0001
0100
0001
0000
1001
0000
,  // measure 73
1001
0000
1010
0000
0011
0000
0000
0110
,  // measure 74
0000
0110
0000
0001
0100
0010
1000
0000
,  // measure 75
0100
1000
0100
1000
0100
0001
0100
0001
,  // measure 76
0010
0100
0010
0100
0010
0100
1000
0100
,  // measure 77
2002
0000
0000
0000
,  // measure 78
0000
0000
0000
0000
3003
0000
0000
0001
,  // measure 79
1000
0000
0000
0000
;

//---------------dance-single - ----------------
#NOTES:
     dance-single:
     :
     Challenge:
     9:
     0.651,1.000,0.459,0.048,0.093: // measure 1
1000
0010
1000
0010
1000
0000
0001
0000
0010
0001
0010
0001
1000
0000
0001
0000
,  // measure 2
0100
0001
0100
0001
1000
0100
0010
0000
0001
0100
0001
0100
0001
0000
1000
0000
,  // measure 3
0100
1000
0100
1000
0010
0100
0010
0000
0100
0001
0100
0001
1000
0100
1000
0000
,  // measure 4
0010
0100
0010
0100
0001
0010
0100
1000
0001
0010
0001
0010
0100
1000
0100
1000
,  // measure 5
1001
0000
0010
0100
0001
0000
0100
0001
,  // measure 6
0000
1000
0100
0010
0001
1000
0100
0010
,  // measure 7
0110
0000
0100
0010
0000
0010
1000
0000
,  // measure 8
1000
0001
0010
0100
1000
0001
0010
0100
,  // measure 9
0110
0000
1001
0001
0000
0100
0001
0000
,  // measure 10
0100
0001
0010
0100
1000
0001
0010
0000
,  // measure 11
0011
0000
0100
1000
1010
0000
0100
0001
,  // measure 12
1000
0100
0010
0001
0100
1000
0100
0001
,  // measure 13
1001
0000
0011
0000
0011
0000
0100
1000
,  // measure 14
0100
0001
0100
1000
0100
0010
0001
0000
,  // measure 15
0010
0001
0010
1000
0010
1000
0010
0001
,  // measure 16
0010
0001
0010
0100
1000
0010
1000
0000
,  // measure 17
1001
0000
1100
0000
1100
0000
0010
0001
,  // measure 18
0010
1000
0010
0001
0010
0100
1000
0000
,  // measure 19
0010
1000
0010
1000
0010
0001
0010
0001
,  // measure 20
0010
1000
0100
0010
0001
0100
0001
0000
,  // measure 21
1001
0000
0101
0000
0101
0000
0010
1000
,  // measure 22
0010
0001
0010
1000
0100
0010
0001
0000
,  // measure 23
0010
0001
0010
0001
0010
1000
0010
1000
,  // measure 24
0010
0001
0010
0100
1000
0010
1000
0000
,  // measure 25
1001
0000
1010
0000
1010
0000
0100
0001
,  // measure 26
0100
1000
0100
0001
0010
0100
1000
0000
,  // measure 27
0100
1000
0100
1000
0100
0001
0010
0100
,  // measure 28
1000
0010
0110
0000
1001
0000
0110
0000
,  // measure 29
1002
0000
0010
0000
0000
0000
0013
0100
,  // measure 30
0000
1000
0000
1000
0100
0100
0010
0010
,  // measure 31
2001
0000
0100
0000
0000
0000
3100
0010
,  // measure 32
0000
0001
0000
0001
0010
0010
0100
0100
,  // measure 33
1002
0000
0100
0000
0000
0000
0103
0010
,  // measure 34
0000
1000
0000
1000
0100
0100
0010
0010
,  // measure 35
2001
0000
0010
0000
0000
0000
3010
0100
,  // measure 36
0000
0001
0000
0001
0010
0010
0100
0100
,  // measure 37
1001
0000
0100
0010
0001
0000
0010
0100
,  // measure 38
0000
1000
0000
0010
0100
0100
0001
0000
,  // measure 39
1001
0000
0010
0100
1000
0000
0100
0010
,  // measure 40
0000
0001
0000
0100
0010
0010
1000
0000
,  // measure 41
1001
0000
0100
0010
0001
0000
0100
0001
,  // measure 42
1000
0000
0100
0010
0001
0000
0100
0001
,  // measure 43
1000
0001
0010
0100
1000
0010
0100
0000
,  // measure 44
0001
0100
0010
1000
0100
0010
0001
0000
,  // measure 45
1001
0000
0110
0000
1001
0000
0010
1000
,  // measure 46
0000
0010
1000
0001
0010
0100
0010
0000
,  // measure 47
1001
0000
0110
0000
1001
0000
0100
0001
,  // measure 48
0000
0100
0001
1000
0100
0010
0100
0000
,  // measure 49
1001
0000
0110
0000
1001
0000
0100
1000
,  // measure 50
0000
0100
1000
0001
0100
0010
0100
0000
,  // measure 51
1001
0000
0110
0000
1001
0000
0010
0001
,  // measure 52
0000
0010
0001
1000
0010
0100
0010
0000
,  // measure 53
1000
0100
0000
0010
0100
0010
0000
1000
,  // measure 54
0100
0000
0010
0100
0000
0010
0001
0000
,  // measure 55
0001
0010
0000
0100
0010
0100
0000
0001
,  // measure 56
0010
0000
0100
0010
0000
0100
1000
0000
,  // measure 57
1000
0100
0000
0010
0100
0010
0000
1000
,  // measure 58
0100
0000
0010
0100
0000
0010
0001
0000
,  // measure 59
0100
0010
0100
0010
1000
0100
0001
0100
,  // measure 60
1000
0001
0010
1000
0010
0001
0010
0100
,  // measure 61
1001
0000
1010
0000
0011
0000
0100
1000
,  // measure 62
0100
0001
0100
1000
0100
0010
0001
0000
,  // measure 63
1001
0000
0010
1000
0100
0000
0100
1000
,  // measure 64
0100
0010
0001
0100
1000
0100
0110
0000
,  // measure 65
1001
0000
0011
0000
1010
0000
0100
0001
,  // measure 66
0100
1000
0100
0001
0010
0100
1000
0000
,  // measure 67
0010
1000
0010
1000
0010
0001
0010
0001
,  // measure 68
0100
1000
0100
1000
0100
0001
0100
0000
,  // measure 69
1001
0000
1010
0000
0011
0000
0100
1000
,  // measure 70
0100
0001
0100
1000
0010
0100
0001
0000
,  // measure 71
1001
0000
0100
0001
0010
0000
0010
0001
,  // measure 72
0010
0100
1000
0100
0001
0100
0110
0000
,  // measure 73
1001
0000
0101
0000
1100
0000
0010
0001
,  // measure 74
0010
1000
0010
0001
0100
0010
1000
0000
,  // measure 75
0010
1000
0010
1000
0010
0001
0010
0001
,  // measure 76
0100
1000
0100
1000
0100
0001
0010
0100
,  // measure 77
2020
0000
0000
0000
,  // measure 78
0000
0000
0000
0000
0000
3030
0000
0001
,  // measure 79
1000
0000
0000
0000
;

//---------------dance-single - ----------------
#NOTES:
     dance-single:
     :
     Beginner:
     1:
     0.056,0.126,0.081,0.000,0.000: // measure 1
1000
0000
0000
0000
,  // measure 2
0001
0000
0000
0000
,  // measure 3
1000
0000
0000
0000
,  // measure 4
0001
0000
0000
0000
,  // measure 5
1001
0000
0000
0000
,  // measure 6
0000
0000
0000
0000
,  // measure 7
1000
0000
0000
0000
,  // measure 8
0000
0000
0000
0000
,  // measure 9
1001
0000
0000
0000
,  // measure 10
0000
0000
0000
0000
,  // measure 11
0001
0000
0000
0000
,  // measure 12
0000
0000
0000
0000
,  // measure 13
0100
0000
0000
0000
,  // measure 14
0000
0000
0000
0000
,  // measure 15
0000
0000
0000
0000
,  // measure 16
0000
0000
0000
0000
,  // measure 17
0100
0000
0000
0000
,  // measure 18
0000
0000
0000
0000
,  // measure 19
0000
0000
0000
0000
,  // measure 20
0000
0000
0000
0000
,  // measure 21
0010
0000
0000
0000
,  // measure 22
0000
0000
0000
0000
,  // measure 23
0000
0000
0000
0000
,  // measure 24
0000
0000
0000
0000
,  // measure 25
0010
0000
0000
0000
,  // measure 26
0000
0000
0000
0000
,  // measure 27
0000
0000
0000
0000
,  // measure 28
0000
0000
0000
0000
,  // measure 29
1001
0000
0000
0000
,  // measure 30
0000
0000
0000
0000
,  // measure 31
1000
0000
0000
0000
,  // measure 32
0000
0000
0000
0000
,  // measure 33
1000
0000
0000
0000
,  // measure 34
0000
0000
0000
0000
,  // measure 35
0001
0000
0000
0000
,  // measure 36
0000
0000
0000
0000
,  // measure 37
1001
0000
0000
0000
,  // measure 38
0000
0000
0000
0000
,  // measure 39
0010
0000
0000
0000
,  // measure 40
0000
0000
0000
0000
,  // measure 41
0010
0000
0000
0000
,  // measure 42
0000
0000
0000
0000
,  // measure 43
0100
0000
0000
0000
,  // measure 44
0000
0000
0000
0000
,  // measure 45
1001
0000
0000
0000
,  // measure 46
0000
0000
0000
0000
,  // measure 47
1000
0000
0000
0000
,  // measure 48
0000
0000
0000
0000
,  // measure 49
1000
0000
0000
0000
,  // measure 50
0000
0000
0000
0000
,  // measure 51
0001
0000
0000
0000
,  // measure 52
0000
0000
0000
0000
,  // measure 53
1001
0000
0000
0000
,  // measure 54
0000
0000
0000
0000
,  // measure 55
1001
0000
0000
0000
,  // measure 56
0000
0000
0000
0000
,  // measure 57
1001
0000
0000
0000
,  // measure 58
0000
0000
0000
0000
,  // measure 59
1001
0000
0000
0000
,  // measure 60
0000
0000
0000
0000
,  // measure 61
0100
0000
0000
0000
,  // measure 62
0000
0000
0000
0000
,  // measure 63
0010
0000
0000
0000
,  // measure 64
0000
0000
0000
0000
,  // measure 65
0100
0000
0000
0000
,  // measure 66
0000
0000
0000
0000
,  // measure 67
0010
0000
0000
0000
,  // measure 68
0000
0000
0000
0000
,  // measure 69
1000
0000
0000
0000
,  // measure 70
0000
0000
0000
0000
,  // measure 71
0001
0000
0000
0000
,  // measure 72
0000
0000
0000
0000
,  // measure 73
1000
0000
0000
0000
,  // measure 74
0000
0000
0000
0000
,  // measure 75
0010
0000
0000
0000
,  // measure 76
0010
0000
0000
0000
,  // measure 77
0110
0000
0000
0000
,  // measure 78
0000
0000
0000
0000
,  // measure 79
1000
0000
0000
0000
;

//---------------dance-single - ----------------
#NOTES:
     dance-single:
     :
     Medium:
     6:
     0.421,0.503,0.500,0.089,0.000: // measure 1
1000
0000
0100
0000
0010
0001
0100
0000
,  // measure 2
0001
0000
0010
0000
0100
1000
0010
0000
,  // measure 3
0110
0000
1001
0000
0010
0001
0100
0000
,  // measure 4
0001
0100
1000
0000
0100
1000
0001
0100
,  // measure 5
1001
1000
0001
1000
,  // measure 6
0001
0010
0100
1000
0001
0100
0001
0000
,  // measure 7
1001
0001
1000
0001
,  // measure 8
1000
0100
0010
0001
1000
0010
1000
0000
,  // measure 9
1001
1000
0001
1000
,  // measure 10
0001
0010
0100
1000
0001
0100
0001
0000
,  // measure 11
0110
0000
0000
1001
0000
0000
1001
0000
,  // measure 12
1000
1000
0001
0001
,  // measure 13
1001
0000
0100
1000
0100
0000
1000
0000
,  // measure 14
0100
0000
0001
0000
0100
0010
0100
0000
,  // measure 15
1001
0000
0110
0000
,  // measure 16
1001
0000
0110
0000
,  // measure 17
1001
0000
0010
0001
0010
0000
0001
0000
,  // measure 18
0010
0000
1000
0000
0010
0100
0010
0000
,  // measure 19
1001
0000
0110
0000
,  // measure 20
1001
0000
0110
0000
,  // measure 21
1001
0000
0010
1000
0010
0000
1000
0000
,  // measure 22
0010
0000
0001
0000
0100
0010
0100
0000
,  // measure 23
1001
0000
0110
0000
,  // measure 24
1001
0000
0110
0000
,  // measure 25
1001
0000
0100
0001
0100
0000
0001
0000
,  // measure 26
0010
0000
1000
0000
0010
0100
0010
0000
,  // measure 27
1000
0001
1000
0001
,  // measure 28
0010
0100
1001
0000
,  // measure 29
2002
0000
0000
0000
,  // measure 30
0000
3003
0000
0100
,  // measure 31
0220
0000
0000
0000
,  // measure 32
0000
0330
0001
0001
,  // measure 33
2002
0000
0000
0000
,  // measure 34
0000
3003
0000
0010
,  // measure 35
0220
0000
0000
0000
,  // measure 36
0000
0330
1000
1000
,  // measure 37
1001
0000
0010
0100
1000
0000
0010
0000
,  // measure 38
1000
0010
1001
0000
,  // measure 39
1000
0000
0100
0010
0001
0000
0100
0000
,  // measure 40
0001
0100
1001
0000
,  // measure 41
0001
0000
0010
0100
1000
0000
0010
0000
,  // measure 42
1000
0010
0100
0001
,  // measure 43
0100
0001
0010
0100
,  // measure 44
1000
0000
0010
1000
0100
0000
0000
0000
,  // measure 45
1001
0000
0001
0000
,  // measure 46
0010
0100
1000
0000
,  // measure 47
1001
0000
1000
0000
,  // measure 48
0100
0010
0001
0000
,  // measure 49
0000
1000
1000
0000
,  // measure 50
0110
0000
1001
0000
,  // measure 51
0001
0100
0010
1000
,  // measure 52
0010
0000
0010
0000
0100
0010
0100
0000
,  // measure 53
0001
0000
1000
0000
1100
0000
0000
0010
,  // measure 54
0000
0000
0011
0000
0000
0100
0000
0000
,  // measure 55
1000
0000
0010
0000
1010
0000
0000
0001
,  // measure 56
0000
0000
0101
0000
0000
1000
0000
0000
,  // measure 57
0010
0000
0100
0000
0101
0000
0000
0010
,  // measure 58
0000
0000
1010
0000
0000
1000
0001
0000
,  // measure 59
0200
0000
0000
0000
,  // measure 60
0010
0010
0010
0310
,  // measure 61
1001
0000
0001
0100
0010
0000
1000
0000
,  // measure 62
0010
0000
0001
0100
0010
0100
0010
0000
,  // measure 63
1001
0100
1001
0010
,  // measure 64
1001
0100
1001
0110
,  // measure 65
1001
0000
1000
0010
0100
0000
0001
0000
,  // measure 66
0010
0000
1000
0010
0100
0010
0100
0000
,  // measure 67
1001
0100
1001
0010
,  // measure 68
1001
0100
1001
0110
,  // measure 69
1001
0000
0100
0001
0010
0000
0001
0000
,  // measure 70
0010
0000
1000
0010
0100
0010
1000
0000
,  // measure 71
1001
0010
1001
0100
,  // measure 72
1001
0010
1001
0110
,  // measure 73
1001
0000
0010
1000
0100
0000
1000
0000
,  // measure 74
0100
0000
0001
0100
0010
0100
0001
0000
,  // measure 75
0100
0010
1000
0000
0100
0010
0001
0000
,  // measure 76
0100
0010
0100
0000
0001
0100
1000
0000
,  // measure 77
2002
0000
0000
0000
,  // measure 78
0000
0000
3003
0000
,  // measure 79
0001
0000
0000
0000
;
